osu file format v13

[General]
AudioFilename: Orange Genome.mp3
AudioLeadIn: 0
PreviewTime: 56073
Countdown: 0
SampleSet: Normal
StackLeniency: 0.7
Mode: 0
LetterboxInBreaks: 0
WidescreenStoryboard: 0

[Editor]
DistanceSpacing: 1
BeatDivisor: 4
GridSize: 8
TimelineZoom: 1

[Metadata]
Title:Daidai Genome
TitleUnicode:橙ゲノム
Artist:Tsunamaru
ArtistUnicode:つなまる
Creator:Lust
Version:Insane
Source:
Tags:Orange Genome Hatsune Miku Append Mezame-P Wakotsu-P f*cla Not-116 kenji kinshara
BeatmapID:519080
BeatmapSetID:221954

[Difficulty]
HPDrainRate:7
CircleSize:4
OverallDifficulty:8
ApproachRate:8
SliderMultiplier:1.8
SliderTickRate:1

[Events]
//Background and Video events
Video,0,"orange genome.flv"
0,0,"bg.png",0,0
//Break Periods
2,70295,73100
2,81161,87322
2,114495,122878
2,129161,135322
//Storyboard Layer 0 (Background)
//Storyboard Layer 1 (Fail)
//Storyboard Layer 2 (Pass)
//Storyboard Layer 3 (Foreground)
//Storyboard Sound Samples
//Background Colour Transformations
3,100,163,162,255

[TimingPoints]
19629,444.444444444444,4,1,1,50,1,0
56073,444.444444444444,4,1,1,60,1,0
73850,-100,4,2,1,60,0,0
80961,-100,4,2,1,45,0,0
88072,-100,4,1,1,50,0,0
136072,-100,4,1,1,30,0,0
150295,-100,4,2,1,30,0,0
152072,-100,4,1,1,50,0,1
173406,-100,4,1,1,50,0,0

[HitObjects]
12,255,19629,6,0,L|192:255,1,180,4|8,0:0|0:0,0:0:0:0:
256,192,20295,1,0,0:0:0:0:
319,128,20517,2,0,P|275:104|226:107,1,90,0|0,0:0|0:0,0:0:0:0:
342,214,20962,2,0,P|385:189|404:151,1,90,8|0,0:0|0:0,0:0:0:0:
256,192,21406,5,0,0:0:0:0:
279,278,21628,1,0,0:0:0:0:
319,128,21851,5,8,0:0:0:0:
232,105,22073,1,0,0:0:0:0:
342,214,22295,5,0,0:0:0:0:
406,151,22517,1,0,0:0:0:0:
256,192,22740,2,0,P|214:212|192:259,1,90,4|0,0:0|0:0,0:0:0:0:
406,151,23184,6,0,L|225:103,1,180,4|8,0:0|0:0,0:0:0:0:
169,170,23851,1,0,0:0:0:0:
295,41,24073,2,0,P|250:17|196:24,1,90,0|0,0:0|0:0,0:0:0:0:
319,128,24517,2,0,P|361:102|384:57,1,90,8|0,0:0|0:0,0:0:0:0:
256,192,24962,6,0,P|257:240|297:289,1,90,0|0,0:0|0:0,0:0:0:0:
232,105,25406,2,0,P|190:126|169:166,1,90,8|0,0:0|0:0,0:0:0:0:
342,214,25851,2,0,P|384:190|407:140,1,90,0|0,0:0|0:0,0:0:0:0:
256,192,26295,2,0,L|256:291,1,90,8|0,0:0|0:0,0:0:0:0:
319,128,26740,6,0,P|236:105|170:169,1,180,4|8,0:0|0:0,0:0:0:0:
342,214,27628,1,8,0:0:0:0:
374,182,27740,1,0,0:0:0:0:
406,150,27851,1,0,0:0:0:0:
256,192,28073,1,8,0:0:0:0:
256,192,28517,5,8,0:0:0:0:
193,257,28740,1,2,0:0:0:0:
231,105,28962,5,10,0:0:0:0:
319,128,29184,1,0,0:0:0:0:
168,170,29406,5,10,0:0:0:0:
144,82,29628,1,2,0:0:0:0:
342,214,29851,5,10,0:0:0:0:
342,214,30295,1,8,0:0:0:0:
280,279,30517,5,2,0:0:0:0:
256,192,30740,1,8,0:0:0:0:
319,128,30962,1,2,0:0:0:0:
193,257,31184,5,10,0:0:0:0:
168,170,31406,1,2,0:0:0:0:
143,83,31628,2,0,P|170:41|214:15,1,90,10|0,0:0|0:0,0:0:0:0:
256,192,32073,6,0,P|196:256|102:228,1,180,4|2,0:0|0:0,0:0:0:0:
168,170,32740,1,0,0:0:0:0:
342,214,32962,2,0,L|432:214,1,90,0|0,0:0|0:0,0:0:0:0:
280,279,33406,5,2,0:0:0:0:
256,192,33628,1,0,0:0:0:0:
319,128,33851,1,0,0:0:0:0:
319,128,34295,5,2,0:0:0:0:
256,192,34517,1,2,0:0:0:0:
168,170,34740,1,0,0:0:0:0:
231,105,35184,5,2,0:0:0:0:
342,214,35406,1,0,0:0:0:0:
193,257,35628,1,0,0:0:0:0:
105,234,35851,5,0,0:0:0:0:
81,147,36073,1,2,0:0:0:0:
144,83,36295,1,0,0:0:0:0:
129,321,36517,5,0,0:0:0:0:
19,209,36740,1,0,0:0:0:0:
168,170,36962,1,2,0:0:0:0:
41,297,37184,5,0,0:0:0:0:
81,147,37406,1,0,0:0:0:0:
193,257,37628,1,0,0:0:0:0:
105,234,37851,5,2,0:0:0:0:
81,147,38073,1,0,0:0:0:0:
144,83,38295,2,0,P|228:104|256:188,1,180,0|8,0:0|0:0,0:0:0:0:
105,234,38962,1,0,0:0:0:0:
62,221,39073,1,0,0:0:0:0:
19,209,39184,6,0,P|-2:162|5:107,1,90,4|0,0:0|0:0,0:0:0:0:
168,170,39628,1,2,0:0:0:0:
193,257,39851,1,0,0:0:0:0:
129,321,40073,2,0,L|31:294,1,90,0|0,0:0|0:0,0:0:0:0:
256,192,40517,5,2,0:0:0:0:
280,278,40740,1,0,0:0:0:0:
168,170,40962,1,0,0:0:0:0:
168,170,41406,5,2,0:0:0:0:
256,192,41628,1,0,0:0:0:0:
319,127,41851,1,0,0:0:0:0:
231,105,42295,5,2,0:0:0:0:
193,257,42517,1,0,0:0:0:0:
342,214,42740,1,0,0:0:0:0:
407,150,42962,5,0,0:0:0:0:
431,237,43184,1,2,0:0:0:0:
368,301,43406,1,0,0:0:0:0:
383,63,43628,5,0,0:0:0:0:
493,175,43851,1,0,0:0:0:0:
342,214,44073,1,2,0:0:0:0:
471,87,44295,5,0,0:0:0:0:
431,237,44517,1,0,0:0:0:0:
319,127,44740,1,0,0:0:0:0:
407,150,44962,5,2,0:0:0:0:
431,237,45184,1,0,0:0:0:0:
368,301,45406,2,0,P|284:280|256:196,1,180,0|2,0:0|0:0,0:0:0:0:
407,150,46073,1,2,0:0:0:0:
450,163,46184,1,0,0:0:0:0:
493,175,46295,6,0,P|514:222|507:277,1,90,4|0,0:0|0:0,0:0:0:0:
344,214,46740,1,8,0:0:0:0:
319,127,46962,1,0,0:0:0:0:
383,63,47184,2,0,L|481:90,1,90,8|0,0:0|0:0,0:0:0:0:
256,192,47628,5,8,0:0:0:0:
319,127,47851,1,0,0:0:0:0:
281,278,48073,2,0,P|188:256|167:174,2,180,0|8|0,0:0|0:0|0:0,0:0:0:0:
344,214,49184,1,0,0:0:0:0:
231,105,49406,2,0,L|125:78,1,90,8|0,0:0|0:0,0:0:0:0:
256,192,49851,6,0,P|317:130|290:37,1,180,0|8,0:0|0:0,0:0:0:0:
168,170,50517,1,0,0:0:0:0:
281,278,50740,1,0,0:0:0:0:
319,127,50962,1,0,0:0:0:0:
193,257,51184,5,8,0:0:0:0:
342,214,51406,1,0,0:0:0:0:
231,105,51628,6,0,P|145:84|81:151,1,180,0|8,0:0|0:0,0:0:0:0:
168,170,52295,1,2,0:0:0:0:
281,278,52517,1,0,0:0:0:0:
319,127,52740,1,2,0:0:0:0:
193,257,52962,1,8,0:0:0:0:
342,214,53184,1,8,0:0:0:0:
376,184,53295,1,0,0:0:0:0:
406,151,53406,5,0,0:0:0:0:
256,192,53628,1,0,0:0:0:0:
368,300,53851,1,12,0:0:0:0:
319,127,54073,5,0,0:0:0:0:
319,127,54184,1,0,0:0:0:0:
319,127,54295,1,10,0:0:0:0:
281,278,54517,1,0,0:0:0:0:
281,278,54628,1,0,0:0:0:0:
281,278,54740,1,14,0:0:0:0:
431,237,54962,1,0,0:0:0:0:
256,192,55184,5,4,0:0:0:0:
232,105,55406,1,2,0:0:0:0:
295,40,55628,1,2,0:0:0:0:
368,300,56073,6,0,P|297:366|210:335,1,180,4|8,0:0|0:0,0:0:0:0:
198,261,56739,1,0,0:0:0:0:
319,127,56961,2,0,L|423:127,1,90,0|0,0:0|0:0,0:0:0:0:
256,192,57406,2,0,L|163:192,1,90,8|0,0:0|0:0,0:0:0:0:
342,214,57850,5,0,0:0:0:0:
198,261,58073,1,0,0:0:0:0:
232,105,58295,1,10,0:0:0:0:
281,278,58517,5,0,0:0:0:0:
168,170,58739,2,0,P|148:80|206:17,1,180,0|10,0:0|0:0,0:0:0:0:
319,127,59406,1,10,0:0:0:0:
288,160,59517,1,0,0:0:0:0:
256,192,59628,5,12,0:0:0:0:
223,347,59850,1,0,0:0:0:0:
110,239,60072,1,8,0:0:0:0:
281,278,60295,5,0,0:0:0:0:
135,325,60517,1,0,0:0:0:0:
168,170,60739,1,0,0:0:0:0:
311,363,60961,5,8,0:0:0:0:
47,303,61184,1,0,0:0:0:0:
230,105,61406,1,0,0:0:0:0:
198,261,61628,5,0,0:0:0:0:
142,83,61850,1,8,0:0:0:0:
319,127,62072,1,0,0:0:0:0:
110,239,62295,5,4,0:0:0:0:
79,154,62517,1,0,0:0:0:0:
53,67,62739,1,10,0:0:0:0:
230,105,62961,1,0,0:0:0:0:
245,148,63072,1,0,0:0:0:0:
256,192,63184,5,4,0:0:0:0:
110,239,63406,1,0,0:0:0:0:
91,198,63517,1,0,0:0:0:0:
79,154,63628,1,12,0:0:0:0:
198,261,63850,5,0,0:0:0:0:
176,300,63961,1,0,0:0:0:0:
138,324,64072,2,0,P|85:329|46:300,1,90,4|0,0:0|0:0,0:0:0:0:
142,83,64517,2,0,P|169:41|212:17,1,90,8|0,0:0|0:0,0:0:0:0:
256,192,64961,5,4,0:0:0:0:
168,170,65184,1,0,0:0:0:0:
319,127,65406,5,12,0:0:0:0:
344,214,65628,1,0,0:0:0:0:
230,105,65850,6,0,P|299:36|376:54,1,180,0|12,0:0|0:0,0:0:0:0:
344,214,66517,1,0,0:0:0:0:
300,203,66628,1,0,0:0:0:0:
256,192,66739,5,4,0:0:0:0:
142,83,66961,1,0,0:0:0:0:
294,40,67184,1,8,0:0:0:0:
168,170,67406,5,0,0:0:0:0:
53,67,67628,1,8,0:0:0:0:
204,18,67850,1,8,0:0:0:0:
79,154,68072,5,8,0:0:0:0:
53,67,68295,1,0,0:0:0:0:
53,67,68406,1,0,0:0:0:0:
53,67,68517,1,12,0:0:0:0:
204,18,68739,1,0,0:0:0:0:
204,18,68850,1,0,0:0:0:0:
204,18,68961,1,12,0:0:0:0:
344,214,69184,5,8,0:0:0:0:
198,261,69406,1,12,0:0:0:0:
230,105,69628,1,0,0:0:0:0:
256,192,69850,5,4,0:0:0:0:
256,192,73850,6,0,P|316:128|410:156,1,180,4|2,0:0|0:0,0:0:0:0:
344,214,74517,1,0,0:0:0:0:
170,170,74739,2,0,L|80:170,1,90,0|0,0:0|0:0,0:0:0:0:
232,105,75184,5,2,0:0:0:0:
256,192,75406,1,0,0:0:0:0:
193,256,75628,1,0,0:0:0:0:
193,256,76072,5,2,0:0:0:0:
256,192,76295,1,0,0:0:0:0:
344,214,76517,1,0,0:0:0:0:
281,279,76961,5,2,0:0:0:0:
170,170,77184,1,0,0:0:0:0:
319,127,77406,1,0,0:0:0:0:
407,150,77628,5,0,0:0:0:0:
431,237,77850,1,2,0:0:0:0:
368,301,78072,1,0,0:0:0:0:
383,63,78295,5,0,0:0:0:0:
493,175,78517,1,0,0:0:0:0:
344,214,78739,1,2,0:0:0:0:
471,87,78961,5,0,0:0:0:0:
431,237,79184,1,0,0:0:0:0:
319,127,79406,1,0,0:0:0:0:
407,150,79628,5,2,0:0:0:0:
431,237,79850,1,0,0:0:0:0:
368,301,80072,2,0,P|284:280|256:196,1,180,0|2,0:0|0:0,0:0:0:0:
407,150,80739,1,0,0:0:0:0:
450,163,80850,1,0,0:0:0:0:
493,175,80961,5,0,0:0:0:0:
19,209,88072,6,0,P|-2:162|5:107,1,90,4|0,0:0|0:0,0:0:0:0:
168,170,88517,1,8,0:0:0:0:
193,257,88739,1,0,0:0:0:0:
129,321,88961,2,0,L|31:294,1,90,0|0,0:0|0:0,0:0:0:0:
256,192,89406,5,8,0:0:0:0:
193,257,89628,1,8,0:0:0:0:
231,106,89850,2,0,P|324:128|345:210,2,180,0|8|0,0:0|0:0|0:0,0:0:0:0:
168,170,90961,1,0,0:0:0:0:
281,279,91184,2,0,L|387:306,1,90,8|0,0:0|0:0,0:0:0:0:
256,192,91628,6,0,P|195:254|222:347,1,180,0|8,0:0|0:0,0:0:0:0:
344,214,92295,1,0,0:0:0:0:
231,106,92517,1,0,0:0:0:0:
193,257,92739,1,0,0:0:0:0:
319,127,92961,5,8,0:0:0:0:
170,170,93184,1,0,0:0:0:0:
281,279,93406,6,0,P|367:300|431:233,1,180,0|0,0:0|0:0,0:0:0:0:
344,214,94072,1,2,0:0:0:0:
231,106,94295,1,0,0:0:0:0:
193,257,94517,1,2,0:0:0:0:
319,127,94739,1,8,0:0:0:0:
170,170,94961,1,10,0:0:0:0:
139,202,95072,1,0,0:0:0:0:
106,233,95184,5,0,0:0:0:0:
256,192,95406,1,0,0:0:0:0:
144,84,95628,1,12,0:0:0:0:
193,257,95850,5,0,0:0:0:0:
193,257,95961,1,0,0:0:0:0:
193,257,96072,1,0,0:0:0:0:
231,106,96295,1,0,0:0:0:0:
231,106,96406,1,0,0:0:0:0:
231,106,96517,1,8,0:0:0:0:
231,106,96628,1,0,0:0:0:0:
231,106,96739,1,0,0:0:0:0:
245,148,96850,1,0,0:0:0:0:
256,192,96961,5,0,0:0:0:0:
268,235,97072,1,0,0:0:0:0:
280,279,97184,1,0,0:0:0:0:
217,344,97406,1,12,0:0:0:0:
170,170,97628,1,0,0:0:0:0:
154,127,97739,1,0,0:0:0:0:
144,84,97850,6,0,P|215:18|302:49,1,180,8|0,0:0|0:0,0:0:0:0:
314,123,98517,1,0,0:0:0:0:
193,257,98739,2,0,L|89:257,1,90,2|0,0:0|0:0,0:0:0:0:
256,192,99184,2,0,L|349:192,1,90,8|2,0:0|0:0,0:0:0:0:
170,170,99628,5,10,0:0:0:0:
314,123,99850,1,0,0:0:0:0:
280,279,100072,1,10,0:0:0:0:
144,84,100517,6,0,P|215:18|302:49,1,180,4|8,0:0|0:0,0:0:0:0:
314,123,101184,1,0,0:0:0:0:
193,257,101406,2,0,L|89:257,1,90,0|0,0:0|0:0,0:0:0:0:
256,192,101850,2,0,L|349:192,1,90,8|0,0:0|0:0,0:0:0:0:
170,170,102295,5,2,0:0:0:0:
314,123,102517,1,0,0:0:0:0:
280,279,102739,1,10,0:0:0:0:
231,106,102961,5,0,0:0:0:0:
344,214,103184,2,0,P|364:304|306:367,1,180,2|8,0:0|0:0,0:0:0:0:
193,257,103850,1,8,0:0:0:0:
226,226,103961,1,2,0:0:0:0:
256,192,104072,5,4,0:0:0:0:
289,37,104295,1,0,0:0:0:0:
402,145,104517,1,8,0:0:0:0:
231,106,104739,5,0,0:0:0:0:
377,59,104961,1,0,0:0:0:0:
344,214,105184,1,0,0:0:0:0:
201,21,105406,5,8,0:0:0:0:
465,81,105628,1,0,0:0:0:0:
282,279,105850,1,2,0:0:0:0:
314,123,106072,5,0,0:0:0:0:
370,301,106295,1,10,0:0:0:0:
193,257,106517,1,0,0:0:0:0:
402,145,106739,5,6,0:0:0:0:
433,230,106961,1,0,0:0:0:0:
459,317,107184,1,12,0:0:0:0:
282,279,107406,1,8,0:0:0:0:
310,244,107517,1,2,0:0:0:0:
344,214,107628,5,4,0:0:0:0:
370,301,107850,1,0,0:0:0:0:
193,257,108072,1,8,0:0:0:0:
256,192,108295,1,0,0:0:0:0:
219,343,108517,2,0,P|132:322|106:244,1,180,0|8,0:0|0:0,0:0:0:0:
193,257,109184,1,0,0:0:0:0:
314,123,109406,6,0,L|314:29,1,90,0|2,0:0|0:0,0:0:0:0:
344,214,109850,1,10,0:0:0:0:
256,192,110072,1,0,0:0:0:0:
402,145,110295,2,0,P|432:233|379:297,1,180,2|8,0:0|0:0,0:0:0:0:
231,106,110961,1,2,0:0:0:0:
275,101,111072,1,0,0:0:0:0:
314,123,111184,5,4,0:0:0:0:
282,279,111406,1,10,0:0:0:0:
170,170,111628,1,10,0:0:0:0:
344,214,111850,5,0,0:0:0:0:
193,257,112072,1,10,0:0:0:0:
231,106,112295,1,8,0:0:0:0:
369,301,112517,5,10,0:0:0:0:
106,233,112739,1,8,0:0:0:0:
94,189,112850,1,8,0:0:0:0:
83,146,112961,5,4,0:0:0:0:
231,106,113184,1,8,0:0:0:0:
243,148,113295,1,8,0:0:0:0:
256,192,113406,1,4,0:0:0:0:
144,84,113628,1,10,0:0:0:0:
344,214,113850,5,12,0:0:0:0:
282,279,114072,1,0,0:0:0:0:
193,257,114295,1,0,0:0:0:0:
500,129,123628,6,0,L|320:129,1,180,4|0,0:0|0:0,0:0:0:0:
256,192,124295,1,2,0:0:0:0:
193,256,124517,2,0,P|237:280|286:277,1,90,2|2,0:0|0:0,0:0:0:0:
170,170,124961,2,0,P|127:195|108:233,1,90,2|0,0:0|0:0,0:0:0:0:
256,192,125406,5,4,0:0:0:0:
233,106,125628,1,2,0:0:0:0:
193,256,125850,5,2,0:0:0:0:
280,279,126072,1,0,0:0:0:0:
170,170,126295,5,2,0:0:0:0:
106,233,126517,1,2,0:0:0:0:
256,192,126739,2,0,P|298:172|320:125,1,90,2|0,0:0|0:0,0:0:0:0:
106,233,127184,5,4,0:0:0:0:
193,256,127406,1,0,0:0:0:0:
280,279,127628,1,2,0:0:0:0:
343,214,127850,1,2,0:0:0:0:
217,343,128072,2,0,P|262:367|316:360,1,90,2|0,2:0|2:0,0:0:0:0:
193,256,128517,2,0,P|151:282|128:327,1,90,2|0,2:0|2:0,0:0:0:0:
256,192,128961,5,4,0:0:0:0:
256,192,136072,6,0,P|334:217|404:157,2,180,4|0|0,0:0|0:0|0:0,0:0:0:0:
319,128,137184,1,0,0:0:0:0:
168,170,137406,1,0,0:0:0:0:
144,83,137628,1,0,0:0:0:0:
256,192,137850,6,0,P|196:256|112:240,2,180,4|0|0,0:0|0:0|0:0,0:0:0:0:
168,170,138961,1,0,0:0:0:0:
342,214,139184,1,0,0:0:0:0:
319,128,139406,1,0,0:0:0:0:
193,257,139628,5,0,0:0:0:0:
280,279,139850,1,0,0:0:0:0:
231,105,140072,2,0,P|131:88|79:159,2,180,0|0|0,0:0|0:0|0:0,0:0:0:0:
280,279,141406,5,0,0:0:0:0:
256,192,141628,1,0,0:0:0:0:
406,151,141850,1,0,0:0:0:0:
168,170,142295,5,0,0:0:0:0:
231,106,142517,1,0,0:0:0:0:
193,257,142739,1,0,0:0:0:0:
256,192,143184,6,0,P|178:167|108:227,2,180,4|0|0,0:0|0:0|0:0,0:0:0:0:
193,256,144295,1,0,0:0:0:0:
344,214,144517,1,0,0:0:0:0:
368,301,144739,1,0,0:0:0:0:
256,192,144961,6,0,P|316:128|400:144,2,180,4|0|0,0:0|0:0|0:0,0:0:0:0:
344,214,146072,1,0,0:0:0:0:
170,170,146295,1,4,0:0:0:0:
319,127,146739,5,0,0:0:0:0:
232,105,146961,1,0,0:0:0:0:
281,279,147184,2,0,P|381:296|433:225,2,180,0|0|0,0:0|0:0|0:0,0:0:0:0:
232,105,148517,5,0,0:0:0:0:
256,192,148739,1,0,0:0:0:0:
106,233,148961,1,0,0:0:0:0:
256,192,150295,5,0,0:0:0:0:
343,214,150517,1,0,0:0:0:0:
280,278,150739,1,0,0:0:0:0:
193,256,150961,1,0,0:0:0:0:
169,169,151184,1,0,0:0:0:0:
232,105,151406,1,0,0:0:0:0:
319,128,151628,1,0,0:0:0:0:
0,126,152072,6,0,P|21:208|105:232,1,180,4|8,0:0|0:0,0:0:0:0:
83,144,152739,1,0,0:0:0:0:
256,192,152961,2,0,P|234:107|142:83,1,180,0|8,0:0|0:0,0:0:0:0:
169,169,153628,1,0,0:0:0:0:
343,214,153850,5,0,0:0:0:0:
232,105,154072,1,0,0:0:0:0:
193,256,154295,1,8,0:0:0:0:
319,128,154517,5,0,0:0:0:0:
169,169,154739,2,0,P|110:225|126:317,1,180,0|8,0:0|0:0,0:0:0:0:
256,192,155406,1,4,0:0:0:0:
245,148,155517,1,8,0:0:0:0:
232,105,155628,5,4,0:0:0:0:
60,56,155850,1,0,0:0:0:0:
169,169,156072,1,8,0:0:0:0:
213,19,156295,1,0,0:0:0:0:
83,144,156517,5,0,0:0:0:0:
41,297,156739,1,0,0:0:0:0:
193,256,156961,1,8,0:0:0:0:
16,210,157184,1,0,0:0:0:0:
256,192,157406,5,0,0:0:0:0:
232,105,157628,1,0,0:0:0:0:
188,93,157739,1,0,0:0:0:0:
144,82,157850,1,8,0:0:0:0:
193,256,158072,1,0,0:0:0:0:
319,128,158295,5,4,0:0:0:0:
169,169,158517,1,0,0:0:0:0:
16,210,158739,1,8,0:0:0:0:
280,278,158961,1,0,0:0:0:0:
313,248,159072,1,0,0:0:0:0:
343,214,159184,5,4,0:0:0:0:
319,128,159406,1,0,0:0:0:0:
169,169,159628,1,8,0:0:0:0:
280,278,159850,1,0,0:0:0:0:
232,105,160072,2,0,P|141:84|83:147,1,180,0|8,0:0|0:0,0:0:0:0:
169,169,160739,1,0,0:0:0:0:
319,128,160961,5,0,0:0:0:0:
213,19,161184,1,0,0:0:0:0:
256,192,161406,5,8,0:0:0:0:
296,41,161628,1,0,0:0:0:0:
193,256,161850,2,0,P|266:281|342:220,1,180,0|8,0:0|0:0,0:0:0:0:
232,105,162517,1,0,0:0:0:0:
201,137,162628,1,0,0:0:0:0:
169,169,162739,5,4,0:0:0:0:
319,128,162961,1,0,0:0:0:0:
144,82,163184,5,8,0:0:0:0:
343,214,163406,1,0,0:0:0:0:
213,19,163628,5,0,0:0:0:0:
279,278,163850,1,0,0:0:0:0:
296,41,164072,5,8,0:0:0:0:
193,256,164295,1,0,0:0:0:0:
162,289,164406,1,0,0:0:0:0:
128,318,164517,5,4,0:0:0:0:
169,169,164739,1,0,0:0:0:0:
201,137,164850,1,0,0:0:0:0:
232,105,164961,1,12,0:0:0:0:
213,19,165184,5,0,0:0:0:0:
83,144,165406,1,4,0:0:0:0:
256,192,165628,1,0,0:0:0:0:
299,204,165739,1,8,0:0:0:0:
343,214,165850,1,12,0:0:0:0:
368,300,166072,1,8,0:0:0:0:
405,274,166184,1,0,0:0:0:0:
431,237,166295,5,4,0:0:0:0:
319,127,166517,1,0,0:0:0:0:
281,278,166739,1,8,0:0:0:0:
406,151,166961,1,0,0:0:0:0:
256,192,167184,6,0,P|197:254|221:344,1,180,0|8,0:0|0:0,0:0:0:0:
343,214,167850,1,0,0:0:0:0:
232,105,168072,1,0,0:0:0:0:
193,256,168295,1,0,0:0:0:0:
319,127,168517,1,8,0:0:0:0:
319,127,168961,5,0,0:0:0:0:
256,192,169184,1,0,0:0:0:0:
169,169,169406,1,8,0:0:0:0:
343,214,169628,1,0,0:0:0:0:
314,248,169739,1,0,0:0:0:0:
281,278,169850,5,4,0:0:0:0:
193,256,170072,1,0,0:0:0:0:
232,105,170295,1,10,0:0:0:0:
232,105,170739,5,0,0:0:0:0:
256,192,170961,1,0,0:0:0:0:
343,214,171184,1,8,0:0:0:0:
319,127,171628,5,0,0:0:0:0:
169,169,171850,1,0,0:0:0:0:
281,278,172072,1,8,0:0:0:0:
295,41,172295,5,0,0:0:0:0:
106,232,172517,1,4,0:0:0:0:
368,300,172739,1,0,0:0:0:0:
169,169,172961,5,12,0:0:0:0:
281,278,173184,1,0,0:0:0:0:
267,235,173295,1,0,0:0:0:0:
256,192,173406,1,4,0:0:0:0:
106,232,173628,5,8,0:0:0:0:
139,202,173739,1,0,0:0:0:0:
169,169,173850,1,4,0:0:0:0:
57,57,174072,5,8,0:0:0:0:
100,70,174184,1,0,0:0:0:0:
145,81,174295,1,4,0:0:0:0:
232,105,174517,5,0,0:0:0:0:
295,41,174739,1,8,0:0:0:0:
145,81,174961,1,0,0:0:0:0:
169,169,175184,5,4,0:0:0:0:
256,192,175406,1,0,0:0:0:0:
232,105,175628,1,12,0:0:0:0:
193,256,175850,1,0,0:0:0:0:
319,127,176072,2,0,P|230:107|166:179,1,180,4|8,0:0|0:0,0:0:0:0:
279,278,176739,1,0,0:0:0:0:
406,148,176961,5,4,0:0:0:0:
232,105,177184,1,8,0:0:0:0:
368,300,177406,5,8,0:0:0:0:
319,127,177628,1,0,0:0:0:0:
193,256,177850,1,0,0:0:0:0:
429,235,178072,5,8,0:0:0:0:
295,41,178295,1,8,0:0:0:0:
106,233,178517,1,0,0:0:0:0:
492,172,178739,5,0,0:0:0:0:
207,18,178961,1,0,0:0:0:0:
217,343,179184,5,8,0:0:0:0:
279,278,179406,1,8,0:0:0:0:
343,214,179628,1,4,0:0:0:0:
256,191,179850,5,8,0:0:0:0:
368,300,180072,1,12,0:0:0:0:
256,191,180517,5,4,0:0:0:0:
