osu file format v13

[General]
AudioFilename: Orange Genome.mp3
AudioLeadIn: 0
PreviewTime: 56073
Countdown: 0
SampleSet: Normal
StackLeniency: 0.7
Mode: 0
LetterboxInBreaks: 0
WidescreenStoryboard: 0

[Editor]
DistanceSpacing: 1
BeatDivisor: 4
GridSize: 4
TimelineZoom: 1

[Metadata]
Title:Daidai Genome
TitleUnicode:橙ゲノム
Artist:Tsunamaru
ArtistUnicode:つなまる
Creator:Lust
Version:Hard
Source:
Tags:Orange Genome Hatsune Miku Append Mezame-P Wakotsu-P f*cla Not-116 kenji kinshara
BeatmapID:520914
BeatmapSetID:221954

[Difficulty]
HPDrainRate:6
CircleSize:4
OverallDifficulty:6
ApproachRate:7
SliderMultiplier:1.6
SliderTickRate:1

[Events]
//Background and Video events
Video,0,"orange genome.flv"
0,0,"bg.png",0,0
//Break Periods
2,70295,72950
2,81161,87172
2,114739,122728
2,129161,135172
//Storyboard Layer 0 (Background)
//Storyboard Layer 1 (Fail)
//Storyboard Layer 2 (Pass)
//Storyboard Layer 3 (Foreground)
//Storyboard Sound Samples
//Background Colour Transformations
3,100,163,162,255

[TimingPoints]
19629,444.444444444444,4,1,1,50,1,0
56073,444.444444444444,4,1,1,60,1,0
73850,-100,4,2,1,60,0,0
80961,-100,4,2,1,45,0,0
88072,-100,4,1,1,50,0,0
136072,-100,4,1,1,30,0,0
150295,-100,4,2,1,30,0,0
152072,-100,4,1,1,50,0,1
173406,-100,4,1,1,50,0,0

[HitObjects]
16,192,19629,6,0,L|183:191,1,160,4|8,0:0|0:0,0:0:0:0:
256,192,20295,1,0,0:0:0:0:
335,192,20517,2,0,P|320:146|291:120,1,80,0|0,0:0|0:0,0:0:0:0:
295,261,20962,1,8,0:0:0:0:
295,261,21406,5,0,0:0:0:0:
374,261,21628,1,0,0:0:0:0:
415,192,21851,1,8,0:0:0:0:
375,122,22073,1,0,0:0:0:0:
414,52,22295,1,0,0:0:0:0:
493,53,22517,1,0,0:0:0:0:
415,192,22740,2,0,P|350:197|306:161,1,120,4|0,0:0|2:0,0:0:0:0:
295,127,23184,6,0,P|336:54|417:54,1,160,4|8,0:0|0:0,0:0:0:0:
375,122,23851,1,0,0:0:0:0:
335,192,24073,2,0,P|294:207|261:196,1,80,0|0,0:0|0:0,0:0:0:0:
139,133,24517,2,0,P|176:119|214:130,1,80,8|0,0:0|0:0,0:0:0:0:
98,202,24962,6,0,P|61:133|106:59,1,160,0|8,0:0|0:0,0:0:0:0:
175,62,25628,1,0,0:0:0:0:
178,201,25851,2,0,P|139:271|65:275,1,160,0|8,0:0|0:0,0:0:0:0:
98,202,26517,1,0,0:0:0:0:
219,133,26740,6,0,L|311:133,1,80,4|0,0:0|0:0,0:0:0:0:
378,133,27184,1,8,0:0:0:0:
378,133,27628,1,8,0:0:0:0:
434,189,27851,1,0,0:0:0:0:
455,112,28073,1,8,0:0:0:0:
455,112,28517,5,8,0:0:0:0:
378,133,28740,1,2,0:0:0:0:
357,210,28962,1,10,0:0:0:0:
413,266,29184,1,0,0:0:0:0:
434,189,29406,5,10,0:0:0:0:
357,210,29628,1,2,0:0:0:0:
336,287,29851,1,10,0:0:0:0:
336,287,30295,5,8,0:0:0:0:
413,266,30517,1,2,0:0:0:0:
434,189,30740,1,8,0:0:0:0:
377,132,30962,1,2,0:0:0:0:
300,154,31184,5,10,0:0:0:0:
280,231,31406,1,2,0:0:0:0:
357,210,31628,2,0,P|379:149|354:95,1,120,10|0,0:0|2:0,0:0:0:0:
325,78,32073,6,0,P|251:92|223:173,1,160,4|2,0:0|0:0,0:0:0:0:
202,242,32740,1,0,0:0:0:0:
300,154,32962,1,0,0:0:0:0:
251,90,33184,1,0,0:0:0:0:
172,102,33406,1,2,0:0:0:0:
142,176,33628,1,0,0:0:0:0:
280,231,33851,6,0,P|357:209|374:128,1,160,0|2,0:0|0:0,0:0:0:0:
325,77,34517,1,2,0:0:0:0:
221,164,34740,2,0,P|193:241|248:316,1,160,0|2,0:0|0:0,0:0:0:0:
308,305,35406,1,0,0:0:0:0:
300,154,35628,6,0,P|243:88|166:106,1,160,0|2,0:0|0:0,0:0:0:0:
142,176,36295,1,0,0:0:0:0:
280,231,36517,1,0,0:0:0:0:
358,210,36740,1,0,0:0:0:0:
377,132,36962,1,2,0:0:0:0:
319,76,37184,1,0,0:0:0:0:
172,102,37406,5,0,0:0:0:0:
221,164,37628,1,0,0:0:0:0:
300,154,37851,1,2,0:0:0:0:
319,76,38073,1,0,0:0:0:0:
221,164,38295,2,0,P|138:173|96:119,1,160,0|8,0:0|0:0,0:0:0:0:
120,41,38962,1,0,0:0:0:0:
149,69,39073,1,0,0:0:0:0:
172,102,39184,6,0,L|119:269,1,160,4|2,0:0|0:0,0:0:0:0:
44,267,39851,1,0,0:0:0:0:
174,317,40073,1,0,0:0:0:0:
95,329,40295,1,0,0:0:0:0:
123,254,40517,1,2,0:0:0:0:
202,242,40740,1,0,0:0:0:0:
73,192,40962,5,0,0:0:0:0:
73,192,41406,1,2,0:0:0:0:
123,254,41628,1,0,0:0:0:0:
202,242,41851,1,0,0:0:0:0:
202,242,42295,5,2,0:0:0:0:
123,254,42517,1,0,0:0:0:0:
95,329,42740,5,0,0:0:0:0:
174,317,42962,1,0,0:0:0:0:
252,303,43184,1,2,0:0:0:0:
281,228,43406,1,0,0:0:0:0:
123,254,43628,2,0,L|283:228,1,160,0|2,0:0|0:0,0:0:0:0:
331,291,44295,1,0,0:0:0:0:
231,166,44517,5,0,0:0:0:0:
281,228,44740,1,0,0:0:0:0:
361,216,44962,1,2,0:0:0:0:
390,141,45184,1,0,0:0:0:0:
281,228,45406,2,0,P|253:297|300:364,1,160,0|2,0:0|0:0,0:0:0:0:
389,244,46073,1,2,0:0:0:0:
375,230,46184,1,0,0:0:0:0:
361,216,46295,6,0,P|303:152|228:168,1,160,4|8,0:0|0:0,0:0:0:0:
201,234,46962,1,0,0:0:0:0:
281,228,47184,2,0,P|316:155|263:86,1,160,8|8,0:0|0:0,0:0:0:0:
197,91,47851,1,0,0:0:0:0:
236,161,48073,6,0,P|317:162|357:87,2,160,0|8|0,0:0|0:0|0:0,0:0:0:0:
156,160,49184,1,0,0:0:0:0:
278,93,49406,1,8,0:0:0:0:
236,161,49628,1,0,0:0:0:0:
240,24,49851,6,0,P|321:27|358:93,1,160,0|8,0:0|0:0,0:0:0:0:
316,163,50517,1,0,0:0:0:0:
197,91,50740,1,0,0:0:0:0:
278,93,50962,1,0,0:0:0:0:
236,161,51184,1,8,0:0:0:0:
156,160,51406,1,0,0:0:0:0:
278,93,51628,6,0,P|346:89|394:169,1,160,0|8,0:0|0:0,0:0:0:0:
359,231,52295,1,2,0:0:0:0:
236,161,52517,1,0,0:0:0:0:
197,91,52740,1,2,0:0:0:0:
240,24,52962,1,8,0:0:0:0:
156,160,53184,1,8,0:0:0:0:
156,160,53295,1,0,0:0:0:0:
156,160,53406,5,0,0:0:0:0:
117,90,53628,1,0,0:0:0:0:
236,161,53851,1,12,0:0:0:0:
195,230,54073,1,0,0:0:0:0:
195,230,54184,1,0,0:0:0:0:
195,230,54295,1,12,0:0:0:0:
115,229,54517,1,0,0:0:0:0:
115,229,54628,1,0,0:0:0:0:
115,229,54740,1,10,0:0:0:0:
75,159,54962,1,0,0:0:0:0:
197,91,55184,5,4,0:0:0:0:
236,161,55406,1,2,0:0:0:0:
276,231,55628,1,2,0:0:0:0:
117,90,56073,6,0,P|159:22|241:24,2,160,4|8|0,0:0|0:0|0:0,0:0:0:0:
75,159,57184,1,0,0:0:0:0:
197,91,57406,1,8,0:0:0:0:
156,160,57628,1,0,0:0:0:0:
276,231,57850,5,0,0:0:0:0:
234,300,58073,1,0,0:0:0:0:
195,230,58295,1,10,0:0:0:0:
237,162,58517,1,0,0:0:0:0:
314,300,58739,2,0,P|276:367|186:364,1,160,0|10,0:0|0:0,0:0:0:0:
237,162,59406,1,10,0:0:0:0:
257,196,59517,1,0,0:0:0:0:
276,231,59628,5,12,0:0:0:0:
317,162,59850,1,0,0:0:0:0:
195,230,60072,1,8,0:0:0:0:
234,300,60295,1,0,0:0:0:0:
355,232,60517,1,0,0:0:0:0:
397,164,60739,1,0,0:0:0:0:
358,93,60961,1,8,0:0:0:0:
277,93,61184,1,0,0:0:0:0:
434,235,61406,5,0,0:0:0:0:
477,167,61628,1,0,0:0:0:0:
439,96,61850,1,8,0:0:0:0:
358,93,62072,1,0,0:0:0:0:
355,232,62295,5,4,0:0:0:0:
392,302,62517,1,0,0:0:0:0:
471,305,62739,1,10,0:0:0:0:
397,164,62961,1,0,0:0:0:0:
375,197,63072,1,0,0:0:0:0:
355,232,63184,5,4,0:0:0:0:
392,302,63406,1,0,0:0:0:0:
431,304,63517,1,0,0:0:0:0:
471,305,63628,1,12,0:0:0:0:
312,299,63850,1,0,0:0:0:0:
358,93,64072,2,0,P|423:89|477:160,1,160,4|12,0:0|0:0,0:0:0:0:
443,231,64739,1,0,0:0:0:0:
312,299,64961,5,0,0:0:0:0:
275,227,65184,1,0,0:0:0:0:
319,160,65406,1,8,0:0:0:0:
355,232,65628,1,0,0:0:0:0:
232,295,65850,2,0,P|197:224|234:158,1,160,0|12,0:0|0:0,0:0:0:0:
355,232,66517,1,0,0:0:0:0:
333,265,66628,1,0,0:0:0:0:
312,299,66739,5,4,0:0:0:0:
319,160,66961,1,0,0:0:0:0:
399,165,67184,1,8,0:0:0:0:
435,235,67406,1,0,0:0:0:0:
319,160,67628,1,8,0:0:0:0:
364,93,67850,1,8,0:0:0:0:
443,98,68072,1,8,0:0:0:0:
479,169,68295,1,0,0:0:0:0:
284,88,68517,5,12,0:0:0:0:
328,21,68739,1,0,0:0:0:0:
407,25,68961,1,8,0:0:0:0:
364,93,69184,1,8,0:0:0:0:
239,154,69406,2,0,B|159:183|159:115|85:147,1,160,12|0,0:0|0:0,0:0:0:0:
187,306,73850,6,0,P|261:292|289:211,1,160,0|2,0:0|0:0,0:0:0:0:
310,142,74517,1,0,0:0:0:0:
212,230,74739,1,0,0:0:0:0:
261,294,74961,1,0,0:0:0:0:
340,282,75184,1,2,0:0:0:0:
370,208,75406,1,0,0:0:0:0:
232,153,75628,6,0,P|155:175|138:256,1,160,0|2,0:0|0:0,0:0:0:0:
187,307,76295,1,0,0:0:0:0:
291,220,76517,2,0,P|319:143|264:68,1,160,0|2,0:0|0:0,0:0:0:0:
204,79,77184,1,0,0:0:0:0:
212,230,77406,6,0,P|269:296|346:278,1,160,0|2,0:0|0:0,0:0:0:0:
370,208,78072,1,0,0:0:0:0:
232,153,78295,1,0,0:0:0:0:
154,174,78517,1,0,0:0:0:0:
135,252,78739,1,2,0:0:0:0:
193,308,78961,1,0,0:0:0:0:
340,282,79184,5,0,0:0:0:0:
291,220,79406,1,0,0:0:0:0:
212,230,79628,1,2,0:0:0:0:
193,308,79850,1,0,0:0:0:0:
291,220,80072,2,0,P|374:211|416:265,1,160,0|2,0:0|0:0,0:0:0:0:
272,324,80739,1,0,1:0:0:0:
232,316,80850,1,0,1:0:0:0:
193,308,80961,5,0,0:0:0:0:
151,168,88072,6,0,P|209:232|284:216,1,160,4|8,0:0|0:0,0:0:0:0:
311,150,88739,1,0,0:0:0:0:
231,156,88961,2,0,P|196:229|249:298,1,160,8|8,0:0|0:0,0:0:0:0:
315,293,89628,1,8,0:0:0:0:
276,223,89850,6,0,P|195:222|155:297,2,160,0|8|0,0:0|0:0|0:0,0:0:0:0:
356,224,90961,1,0,0:0:0:0:
234,291,91184,1,8,0:0:0:0:
276,223,91406,1,0,0:0:0:0:
272,360,91628,6,0,P|191:357|154:291,1,160,0|8,0:0|0:0,0:0:0:0:
196,221,92295,1,0,0:0:0:0:
315,293,92517,1,0,0:0:0:0:
234,291,92739,1,0,0:0:0:0:
276,223,92961,1,8,0:0:0:0:
356,224,93184,1,0,0:0:0:0:
234,291,93406,6,0,P|166:295|118:215,1,160,0|8,0:0|0:0,0:0:0:0:
153,153,94072,1,2,0:0:0:0:
276,223,94295,1,0,0:0:0:0:
315,293,94517,1,2,0:0:0:0:
272,360,94739,1,8,0:0:0:0:
356,224,94961,1,10,0:0:0:0:
356,224,95072,1,0,0:0:0:0:
356,224,95184,5,0,0:0:0:0:
395,294,95406,1,0,0:0:0:0:
276,223,95628,1,12,0:0:0:0:
317,154,95850,1,0,0:0:0:0:
317,154,95961,1,0,0:0:0:0:
317,154,96072,1,4,0:0:0:0:
397,155,96295,1,0,0:0:0:0:
397,155,96406,1,0,0:0:0:0:
397,155,96517,1,8,0:0:0:0:
437,225,96739,1,0,0:0:0:0:
315,293,96961,5,0,0:0:0:0:
276,223,97184,5,0,0:0:0:0:
236,153,97406,5,4,0:0:0:0:
278,84,97628,1,0,0:0:0:0:
317,82,97739,1,0,0:0:0:0:
357,85,97850,1,12,0:0:0:0:
397,155,98072,1,0,0:0:0:0:
276,223,98295,1,0,0:0:0:0:
236,153,98517,1,0,0:0:0:0:
436,85,98739,5,2,0:0:0:0:
397,155,98961,1,0,0:0:0:0:
437,225,99184,1,8,0:0:0:0:
395,294,99406,1,2,0:0:0:0:
315,293,99628,1,10,0:0:0:0:
276,223,99850,1,0,0:0:0:0:
236,153,100072,1,10,0:0:0:0:
395,294,100517,6,0,P|353:362|271:360,2,160,4|8|0,0:0|0:0|0:0,0:0:0:0:
437,225,101628,1,0,0:0:0:0:
315,293,101850,1,8,0:0:0:0:
356,224,102072,1,0,0:0:0:0:
236,153,102295,5,2,0:0:0:0:
278,84,102517,1,0,0:0:0:0:
317,154,102739,1,10,0:0:0:0:
275,222,102961,1,0,0:0:0:0:
198,84,103184,2,0,P|236:17|326:20,1,160,2|8,0:0|0:0,0:0:0:0:
275,222,103850,1,8,0:0:0:0:
255,188,103961,1,2,0:0:0:0:
236,153,104072,5,4,0:0:0:0:
195,222,104295,1,0,0:0:0:0:
317,154,104517,1,8,0:0:0:0:
278,84,104739,1,0,0:0:0:0:
157,152,104961,1,0,0:0:0:0:
115,220,105184,1,0,0:0:0:0:
154,291,105406,1,8,0:0:0:0:
235,291,105628,1,0,0:0:0:0:
78,149,105850,5,2,0:0:0:0:
35,217,106072,1,0,0:0:0:0:
73,288,106295,1,10,0:0:0:0:
154,291,106517,1,0,0:0:0:0:
157,152,106739,5,6,0:0:0:0:
120,82,106961,1,0,0:0:0:0:
41,79,107184,1,12,0:0:0:0:
115,220,107406,1,8,0:0:0:0:
137,187,107517,1,2,0:0:0:0:
157,152,107628,5,4,0:0:0:0:
120,82,107850,1,0,0:0:0:0:
41,79,108072,1,8,0:0:0:0:
200,85,108295,1,0,0:0:0:0:
154,291,108517,2,0,P|89:295|35:224,1,160,0|8,0:0|0:0,0:0:0:0:
68,152,109184,1,0,0:0:0:0:
200,85,109406,5,0,0:0:0:0:
237,157,109628,1,2,0:0:0:0:
193,224,109850,1,10,0:0:0:0:
157,152,110072,1,0,0:0:0:0:
280,89,110295,2,0,P|315:160|278:226,1,160,2|8,0:0|0:0,0:0:0:0:
157,152,110961,1,2,0:0:0:0:
179,119,111072,1,0,0:0:0:0:
200,85,111184,5,4,0:0:0:0:
193,224,111406,1,10,0:0:0:0:
113,219,111628,1,10,0:0:0:0:
77,149,111850,1,0,0:0:0:0:
193,224,112072,1,10,0:0:0:0:
148,291,112295,1,8,0:0:0:0:
69,286,112517,1,10,0:0:0:0:
33,215,112739,1,8,0:0:0:0:
228,296,112961,5,4,0:0:0:0:
184,363,113184,1,8,0:0:0:0:
105,359,113406,1,4,0:0:0:0:
148,291,113628,1,10,0:0:0:0:
273,230,113850,2,0,B|353:201|353:269|427:237,1,160,12|0,0:0|0:0,0:0:0:0:
496,192,123628,6,0,L|329:193,1,160,4|0,0:0|0:0,0:0:0:0:
256,192,124295,1,2,0:0:0:0:
177,192,124517,2,0,P|192:238|221:264,1,80,2|2,0:0|0:0,0:0:0:0:
217,123,124961,1,2,0:0:0:0:
217,123,125406,5,4,0:0:0:0:
138,123,125628,1,2,0:0:0:0:
97,192,125850,1,2,0:0:0:0:
137,262,126072,1,0,0:0:0:0:
98,332,126295,1,2,0:0:0:0:
19,331,126517,1,2,0:0:0:0:
97,192,126739,1,2,0:0:0:0:
231,278,127184,6,0,P|181:347|106:353,1,160,4|2,0:0|0:0,0:0:0:0:
137,262,127850,1,2,0:0:0:0:
177,192,128072,2,0,P|218:177|251:188,1,80,2|0,2:0|2:0,0:0:0:0:
373,251,128517,2,0,P|336:265|298:254,1,80,2|0,2:0|2:0,0:0:0:0:
331,181,128961,5,4,0:0:0:0:
48,114,136072,6,0,L|78:283,1,160,4|0,0:0|0:0,0:0:0:0:
129,331,136739,1,0,0:0:0:0:
154,255,136961,2,0,L|124:86,1,160,0|0,0:0|0:0,0:0:0:0:
152,21,137628,1,0,0:0:0:0:
205,82,137850,6,0,L|235:251,1,160,4|0,0:0|0:0,0:0:0:0:
284,301,138517,1,0,0:0:0:0:
311,225,138739,1,0,0:0:0:0:
298,146,138961,1,0,0:0:0:0:
283,67,139184,1,0,0:0:0:0:
311,225,139628,5,0,0:0:0:0:
362,286,139850,1,0,0:0:0:0:
390,211,140072,1,0,0:0:0:0:
232,239,140517,5,0,0:0:0:0:
311,225,140739,1,0,0:0:0:0:
298,146,140961,1,0,0:0:0:0:
298,146,141406,5,0,0:0:0:0:
311,225,141628,1,0,0:0:0:0:
362,286,141850,1,0,0:0:0:0:
362,286,142295,5,0,0:0:0:0:
362,286,143184,2,0,P|305:304|233:235,2,160,4|0|0,0:0|0:0|0:0,0:0:0:0:
311,225,144295,1,0,0:0:0:0:
254,168,144517,2,0,P|184:185|164:282,2,160,0|4|0,0:0|0:0|0:0,0:0:0:0:
254,168,145850,5,0,0:0:0:0:
311,225,146072,1,0,0:0:0:0:
234,243,146295,1,4,0:0:0:0:
234,243,146739,5,0,0:0:0:0:
254,168,146961,1,0,0:0:0:0:
362,286,147184,1,0,0:0:0:0:
362,286,147628,5,0,0:0:0:0:
362,286,148072,5,0,0:0:0:0:
362,286,148517,5,0,0:0:0:0:
311,225,148739,1,0,0:0:0:0:
333,148,148961,1,0,0:0:0:0:
333,148,150295,5,0,0:0:0:0:
255,168,150517,1,0,0:0:0:0:
277,91,150739,1,0,0:0:0:0:
333,148,150961,1,0,0:0:0:0:
310,225,151184,1,0,0:0:0:0:
232,244,151406,1,0,0:0:0:0:
255,168,151628,1,0,0:0:0:0:
395,89,152072,6,0,P|352:21|270:23,2,160,4|8|0,0:0|0:0|0:0,0:0:0:0:
437,158,153184,1,0,0:0:0:0:
315,90,153406,1,8,0:0:0:0:
356,159,153628,1,0,0:0:0:0:
236,230,153850,5,0,0:0:0:0:
277,298,154072,1,0,0:0:0:0:
317,229,154295,1,8,0:0:0:0:
275,161,154517,1,0,0:0:0:0:
198,299,154739,2,0,P|236:365|326:363,1,160,0|8,0:0|0:0,0:0:0:0:
275,161,155406,1,4,0:0:0:0:
255,195,155517,1,8,0:0:0:0:
236,230,155628,5,4,0:0:0:0:
195,160,155850,1,0,0:0:0:0:
317,229,156072,1,8,0:0:0:0:
277,298,156295,1,0,0:0:0:0:
157,231,156517,1,0,0:0:0:0:
115,163,156739,1,0,0:0:0:0:
153,92,156961,1,8,0:0:0:0:
235,92,157184,1,0,0:0:0:0:
77,234,157406,5,0,0:0:0:0:
35,166,157628,1,0,0:0:0:0:
50,128,157739,1,0,0:0:0:0:
72,95,157850,1,8,0:0:0:0:
153,92,158072,1,0,0:0:0:0:
157,231,158295,5,4,0:0:0:0:
120,300,158517,1,0,0:0:0:0:
41,303,158739,1,12,0:0:0:0:
115,163,158961,1,0,0:0:0:0:
137,196,159072,1,0,0:0:0:0:
157,231,159184,5,4,0:0:0:0:
120,300,159406,1,0,0:0:0:0:
41,303,159628,1,8,0:0:0:0:
200,298,159850,1,0,0:0:0:0:
153,92,160072,2,0,P|89:88|35:159,1,160,0|8,0:0|0:0,0:0:0:0:
68,231,160739,1,0,0:0:0:0:
200,298,160961,5,0,0:0:0:0:
236,226,161184,1,0,0:0:0:0:
193,158,161406,1,8,0:0:0:0:
157,231,161628,1,0,0:0:0:0:
280,293,161850,2,0,P|315:223|277:157,1,160,0|8,0:0|0:0,0:0:0:0:
157,231,162517,1,0,0:0:0:0:
178,264,162628,1,0,0:0:0:0:
200,298,162739,5,4,0:0:0:0:
193,158,162961,1,0,0:0:0:0:
112,164,163184,1,8,0:0:0:0:
77,233,163406,1,0,0:0:0:0:
193,158,163628,1,0,0:0:0:0:
147,92,163850,1,0,0:0:0:0:
69,97,164072,1,8,0:0:0:0:
33,168,164295,1,0,0:0:0:0:
227,87,164517,5,4,0:0:0:0:
184,20,164739,1,0,0:0:0:0:
105,24,164961,1,12,0:0:0:0:
147,92,165184,1,0,0:0:0:0:
272,153,165406,2,0,B|352:182|353:114|427:146,1,160,4|8,0:0|0:0,0:0:0:0:
482,202,166072,1,8,0:0:0:0:
404,222,166295,6,0,P|349:161|376:83,1,160,4|8,0:0|0:0,0:0:0:0:
443,67,166961,1,0,0:0:0:0:
482,202,167184,2,0,P|457:279|381:298,1,160,0|8,0:0|0:0,0:0:0:0:
327,245,167850,1,0,0:0:0:0:
425,145,168072,5,0,0:0:0:0:
482,202,168295,1,0,0:0:0:0:
367,91,168517,1,8,0:0:0:0:
367,91,168961,5,0,0:0:0:0:
425,145,169184,1,0,0:0:0:0:
404,222,169406,1,8,0:0:0:0:
386,299,169628,1,0,0:0:0:0:
353,276,169739,1,0,0:0:0:0:
327,245,169850,5,4,0:0:0:0:
348,165,170072,1,0,0:0:0:0:
425,145,170295,1,10,0:0:0:0:
425,145,170739,5,0,0:0:0:0:
348,165,170961,1,0,0:0:0:0:
289,110,171184,1,8,0:0:0:0:
289,110,171628,5,0,0:0:0:0:
348,165,171850,1,0,0:0:0:0:
327,245,172072,1,8,0:0:0:0:
272,186,172295,5,0,0:0:0:0:
367,91,172517,1,4,0:0:0:0:
404,222,172739,1,0,0:0:0:0:
289,110,172961,5,8,0:0:0:0:
425,145,173184,1,0,0:0:0:0:
327,245,173406,6,0,P|246:260|196:204,2,160,4|4|4,0:0|0:0|0:0,0:0:0:0:
385,300,174517,1,0,0:0:0:0:
348,165,174739,1,8,0:0:0:0:
327,245,174961,1,0,0:0:0:0:
367,91,175184,5,4,0:0:0:0:
289,110,175406,1,0,0:0:0:0:
272,186,175628,1,12,0:0:0:0:
327,245,175850,1,0,0:0:0:0:
425,145,176072,2,0,P|441:63|384:16,1,160,4|8,0:0|0:0,0:0:0:0:
289,110,176739,1,0,0:0:0:0:
348,165,176961,5,4,0:0:0:0:
327,245,177184,1,8,0:0:0:0:
367,91,177406,1,8,0:0:0:0:
272,186,177628,1,0,0:0:0:0:
404,222,177850,1,0,0:0:0:0:
425,145,178072,5,8,0:0:0:0:
327,245,178295,1,8,0:0:0:0:
289,110,178517,1,0,0:0:0:0:
481,202,178739,5,0,0:0:0:0:
460,279,178961,1,0,0:0:0:0:
382,299,179184,1,8,0:0:0:0:
327,245,179406,1,8,0:0:0:0:
348,165,179628,5,4,0:0:0:0:
404,222,179850,1,8,0:0:0:0:
382,299,180072,1,12,0:0:0:0:
425,145,180517,5,4,0:0:0:0:
