osu file format v14

[General]
AudioFilename: Tsunamaru - Daidai Genome.mp3
AudioLeadIn: 0
PreviewTime: -1
Countdown: 1
SampleSet: Normal
StackLeniency: 0.2
Mode: 0
LetterboxInBreaks: 1
WidescreenStoryboard: 1

[Editor]
DistanceSpacing: 1
BeatDivisor: 4
GridSize: 8
TimelineZoom: 1

[Metadata]
Title:Daidai Genome
TitleUnicode:橙ゲノム
Artist:Tsunamaru
ArtistUnicode:つなまる
Creator:Epiphronn
Version:Advanced
Source:
Tags:Orange Hatsune Miku Append Mezame-P Wakotsu-P
BeatmapID:1002974
BeatmapSetID:427770

[Difficulty]
HPDrainRate:4
CircleSize:3.5
OverallDifficulty:5
ApproachRate:5
SliderMultiplier:1.4
SliderTickRate:1

[Events]
//Background and Video events
0,0,"daidailol.jpg",0,0
//Break Periods
2,19828,30873
2,81162,86873
2,114940,122428
2,129161,134873
//Storyboard Layer 0 (Background)
//Storyboard Layer 1 (Fail)
//Storyboard Layer 2 (Pass)
//Storyboard Layer 3 (Foreground)
//Storyboard Sound Samples

[TimingPoints]
19629,444.444444444444,4,1,0,100,1,0

[Colours]
Combo1 : 255,255,255
Combo2 : 235,103,163
Combo3 : 111,0,66
Combo4 : 123,199,215
Combo5 : 247,216,121
Combo6 : 66,71,98

[HitObjects]
113,104,12517,6,0,B|129:81|129:81|137:33,1,70
240,88,12962,2,0,L|211:153,1,70
123,201,13406,2,0,P|76:225|37:217,2,70
232,246,14295,6,0,L|310:230,1,70
318,333,14740,2,0,B|278:325|278:325|224:333,1,70
397,261,15184,2,0,P|412:214|405:190,2,70
389,96,16073,6,0,P|360:168|296:152,1,140
224,128,16740,1,0,0:0:0:0:
304,64,16962,2,0,P|256:24|224:16,1,70
144,88,17406,2,0,L|59:65,2,70
152,192,18295,2,0,B|176:224|176:224|184:272,1,70
89,263,18740,2,0,P|49:287|10:208,2,140
333,112,32073,6,0,P|416:128|408:192,1,140
328,208,32740,1,0,0:0:0:0:
240,160,32962,2,0,P|232:112|216:72,1,70
129,81,33406,2,0,B|97:73|97:73|43:96,2,70
50,198,34295,2,0,L|81:269,2,70
216,301,35184,6,0,B|232:277|232:277|270:254,1,70
357,309,35628,2,0,P|405:317|436:238,1,140
352,216,36295,1,0,0:0:0:0:
424,152,36517,2,0,P|416:113|432:73,1,70
328,56,36962,2,0,P|296:72|256:80,1,70
128,88,37406,6,0,L|97:151,2,70
207,175,38073,1,0,0:0:0:0:
105,237,38295,2,0,P|160:253|160:332,1,140
333,317,39184,6,0,P|400:328|448:264,1,140
368,240,39851,1,0,0:0:0:0:
296,184,40073,2,0,P|272:170|256:122,1,70
344,104,40517,2,0,B|360:89|360:89|360:41,2,70
208,49,41406,2,0,P|153:41|129:33,2,70
74,206,42295,6,0,P|97:246|97:285,1,70
192,214,42740,2,0,P|176:261|240:301,1,105
240,293,43184,2,0,B|270:285|270:285|333:301,1,70
412,301,43628,2,0,L|368:200,1,105
405,190,44073,2,0,P|451:198|475:190,1,70
428,73,44517,6,0,B|405:57|405:57|389:17,1,70
310,89,44962,2,0,L|254:152,2,70
161,96,46295,6,0,P|130:69|133:33,1,70
107,183,46740,2,0,P|72:180|43:154,1,70
195,236,47184,2,0,P|192:270|168:296,1,70
302,261,47628,2,0,B|310:285|310:285|310:341,1,70
397,254,48073,2,0,P|373:190|294:182,2,140
420,120,49406,6,0,B|373:104|373:104|341:33|318:17,1,140
262,104,50295,2,0,P|254:128|208:152,1,70
161,65,50740,1,0,0:0:0:0:
74,128,50962,2,0,P|50:96|43:49,2,70
145,230,51628,2,0,P|81:254|121:317,1,140
270,317,52517,6,0,L|357:309,1,70
451,301,52962,2,0,B|428:269|428:269|420:230,1,70
262,230,53406,2,0,P|286:190|286:160,2,70
420,190,54295,6,0,P|412:144|420:112,1,70
412,41,54740,2,0,L|333:57,1,70
294,136,55184,2,0,B|254:120|254:120|224:81,2,70
81,41,56073,6,0,L|58:182,2,140
153,120,57406,2,0,B|145:182|145:182|105:261,1,140
66,333,58073,1,0,0:0:0:0:
168,328,58295,2,0,P|192:293|216:246,2,70
428,309,59406,6,0,B|443:285|443:285|451:238,1,70
333,269,59851,1,0,0:0:0:0:
310,182,60073,1,0,0:0:0:0:
405,136,60295,6,0,P|373:104|357:81,1,70
270,49,60740,1,0,0:0:0:0:
208,128,60962,1,0,0:0:0:0:
74,96,61184,6,0,P|74:57|66:25,2,70
66,198,61851,2,0,B|105:190|105:190|145:198,1,70
113,277,62295,2,0,P|184:285|246:261,1,140
405,293,63184,6,0,P|397:254|428:198,1,105
412,176,63628,2,0,B|365:128|365:128|365:81,1,105
325,81,64073,2,0,P|254:33|232:33,1,105
224,73,64517,2,0,L|262:176,1,105
254,198,64962,2,0,B|216:182|216:182|161:176,1,70
97,136,65406,2,0,L|50:73,2,70
89,293,66517,6,0,B|129:301|129:301|176:293,1,70
200,222,66962,2,0,P|240:238|254:269,1,70
357,317,67406,1,0,0:0:0:0:
436,254,67628,2,0,B|443:206|443:206|436:176,1,70
341,206,68073,2,0,L|357:136,1,70
224,49,68517,6,0,L|81:89,3,140
90,86,70295,1,0,0:0:0:0:
120,176,73851,6,0,P|104:248|184:272,1,140
216,208,74517,1,0,0:0:0:0:
248,296,74740,2,0,P|303:288|327:272,1,70
400,240,75184,2,0,L|408:162,2,70
357,96,76073,2,0,B|333:49|333:49|325:25,2,70
192,65,76962,6,0,P|137:73|113:89,1,70
66,176,77406,2,0,P|153:190|153:254,1,140
80,272,78073,1,0,0:0:0:0:
160,320,78295,2,0,B|208:312|208:312|248:288,1,70
320,280,78740,2,0,P|352:248|352:209,1,70
389,120,79184,6,0,L|459:104,2,70
286,57,79851,1,0,0:0:0:0:
262,182,80073,2,0,P|200:168|176:89,1,140
172,104,80962,1,0,0:0:0:0:
113,136,88073,6,0,L|240:168,1,105
208,198,88517,2,0,P|105:222|89:238,1,105
121,261,88962,2,0,B|161:293|161:293|240:309,1,105
254,293,89406,2,0,P|246:246|310:222,1,105
318,206,89851,2,0,L|420:309,2,140
384,88,91184,6,0,P|387:32|307:32,1,140
296,112,92073,1,0,0:0:0:0:
224,56,92295,2,0,P|184:48|152:56,2,70
184,144,92962,2,0,B|200:176|200:176|192:230,1,70
112,192,93406,2,0,P|96:272|168:288,1,140
310,293,94295,6,0,P|302:254|286:222,1,70
381,222,94740,2,0,L|389:152,1,70
397,65,95184,2,0,P|349:57|294:128,1,140
145,96,96073,6,0,L|66:81,1,70
43,182,96517,2,0,P|35:222|43:254,1,70
145,190,96962,2,0,P|192:222|184:309,1,140
302,261,98073,6,0,L|397:285,2,70
412,198,98740,2,0,P|443:160|440:144,1,70
381,81,99184,2,0,B|341:57|341:57|310:49,1,70
208,49,99628,2,0,P|153:73|129:96,1,70
66,176,100073,1,0,0:0:0:0:
286,309,100517,6,0,P|286:254|216:222,2,140
397,285,101851,2,0,B|381:230|381:230|389:144,1,140
286,144,102517,1,0,0:0:0:0:
270,41,102740,2,0,P|318:33|365:41,2,70
137,65,103851,6,0,L|58:49,1,70
58,152,104295,1,0,0:0:0:0:
176,136,104517,1,0,0:0:0:0:
184,230,104740,2,0,P|176:261|184:301,1,70
270,198,105184,1,0,0:0:0:0:
286,309,105406,1,0,0:0:0:0:
397,261,105628,6,0,P|389:238|389:182,2,70
483,198,106295,2,0,P|475:144|459:128,1,70
381,89,106740,2,0,P|325:104|240:73,1,140
121,65,107628,6,0,L|74:160,1,105
97,182,108073,2,0,P|153:160|192:190,1,105
176,214,108517,2,0,B|137:285|137:285|145:309,1,105
184,317,108962,2,0,P|270:269|294:277,1,105
302,301,109406,2,0,P|325:254|325:230,1,70
420,168,109851,2,0,P|412:222|420:246,2,70
333,49,110962,6,0,P|286:41|254:49,1,70
176,65,111406,2,0,B|184:96|184:96|176:144,1,70
96,96,111851,1,0,0:0:0:0:
96,184,112073,2,0,P|96:223|119:247,1,70
184,192,112517,2,0,P|224:192|256:232,1,70
341,269,112962,6,0,B|357:206|357:206|381:160|381:120,3,140
379,137,114740,1,0,0:0:0:0:
262,65,123628,6,0,L|184:57,1,70
105,49,124073,2,0,P|81:104|89:136,1,70
168,168,124517,2,0,L|192:246,2,70
333,301,125406,6,0,L|341:230,1,70
436,246,125851,2,0,P|420:206|428:160,1,70
302,128,126295,2,0,L|240:176,2,70
105,230,127184,6,0,P|137:261|176:269,1,70
254,230,127628,2,0,P|246:198|208:176,1,70
129,120,128073,2,0,P|176:57|254:65,2,140
349,222,136073,5,0,0:0:0:0:
262,128,136517,1,0,0:0:0:0:
349,222,136962,5,0,0:0:0:0:
262,128,137406,1,0,0:0:0:0:
270,261,137851,2,0,P|184:230|145:269,2,140
81,136,143184,5,0,0:0:0:0:
216,176,143628,1,0,0:0:0:0:
81,136,144073,5,0,0:0:0:0:
216,176,144517,1,0,0:0:0:0:
136,88,144962,2,0,B|207:72|207:72|271:32,2,140
333,168,149851,6,0,P|368:144|381:120,1,70
294,81,150295,2,0,P|224:96|192:120,1,105
161,104,150740,2,0,B|153:65|153:65|161:17,2,70
105,269,152073,6,0,L|246:301,2,140
184,198,153406,2,0,B|232:198|232:198|318:246,1,140
412,293,154073,1,0,0:0:0:0:
405,168,154295,6,0,P|443:176|483:176,2,70
270,49,155406,6,0,L|192:41,1,70
97,33,155851,1,0,0:0:0:0:
50,128,156073,1,0,0:0:0:0:
168,136,156295,6,0,P|176:182|168:214,1,70
81,269,156740,1,0,0:0:0:0:
192,301,156962,1,0,0:0:0:0:
294,238,157184,6,0,B|318:269|318:269|325:309,2,70
389,182,157851,2,0,P|420:152|459:152,1,70
428,57,158295,2,0,B|318:65|318:65|286:81,1,140
58,96,159184,6,0,L|97:206,1,105
121,190,159628,2,0,P|145:176|161:230,1,105
192,261,160073,2,0,B|113:269|113:269|89:293,1,105
121,325,160517,2,0,L|240:333,1,105
262,325,160962,2,0,P|246:285|254:254,1,70
397,261,161406,2,0,P|443:238|459:222,2,70
381,89,162517,6,0,P|349:73|310:65,1,70
294,168,162962,2,0,B|262:168|262:168|224:152,1,70
200,49,163406,1,0,0:0:0:0:
74,81,163628,2,0,L|58:160,1,70
145,190,164073,2,0,L|153:261,1,70
294,261,164517,6,0,L|428:317,3,140
436,190,166295,2,0,P|373:160|373:96,1,140
278,73,167184,2,0,B|192:49|192:49|153:57|129:49,1,140
58,112,168073,2,0,B|96:216|96:216|96:248,1,140
184,293,168962,2,0,B|208:333|208:333|240:301|318:293,1,140
397,214,169851,6,0,L|428:136,2,70
333,128,170740,2,0,P|333:73|349:41,2,70
240,57,171628,2,0,L|136:40,1,105
105,57,172073,2,0,P|121:112|74:112,1,105
89,168,172517,2,0,B|50:152|50:152|74:238,1,105
81,254,172962,2,0,B|121:238|121:238|161:254|161:254|192:238,1,105
216,277,173406,6,0,P|216:222|232:206,1,70
310,152,173851,1,0,0:0:0:0:
365,254,174073,1,0,0:0:0:0:
436,160,174295,6,0,P|443:112|428:89,1,70
325,41,174740,1,0,0:0:0:0:
216,65,174962,1,0,0:0:0:0:
97,33,175184,2,0,B|97:65|97:65|58:104,1,70
97,214,175628,2,0,P|129:182|161:176,2,70
278,309,176739,6,0,P|325:325|357:317,1,70
443,293,177184,2,0,B|420:261|420:261|420:222,1,70
428,128,177628,1,0,0:0:0:0:
310,182,177851,2,0,P|302:152|310:112,1,70
333,25,178295,2,0,L|262:17,1,70
105,57,178740,2,0,P|89:96|89:128,1,70
184,104,179184,2,0,B|192:144|192:144|168:246,2,140
