osu file format v14

[General]
AudioFilename: outi.mp3
AudioLeadIn: 0
PreviewTime: 69955
Countdown: 0
SampleSet: Soft
StackLeniency: 0.7
Mode: 0
LetterboxInBreaks: 0
WidescreenStoryboard: 0

[Editor]
Bookmarks: 99852
DistanceSpacing: 0.6
BeatDivisor: 8
GridSize: 4
TimelineZoom: 2

[Metadata]
Title:Mashimaro Whip
TitleUnicode:ましまろホイップ
Artist:Tsukiyono Usagi (mocachoco)produced by solfa
ArtistUnicode:月夜野兎姫(萌花ちょこ)produced by solfa
Creator:iyasine
Version:Insane
Source:お家に帰るまでがましまろです
Tags:
BeatmapID:1426888
BeatmapSetID:674356

[Difficulty]
HPDrainRate:6
CircleSize:4
OverallDifficulty:7
ApproachRate:9
SliderMultiplier:1.7
SliderTickRate:1

[Events]
//Background and Video events
0,0,"bg.jpg",0,0
//Break Periods
//Storyboard Layer 0 (Background)
//Storyboard Layer 1 (Fail)
//Storyboard Layer 2 (Pass)
//Storyboard Layer 3 (Foreground)
//Storyboard Sound Samples

[TimingPoints]
542,413.793103448276,4,2,2,60,1,0
13162,-100,4,2,2,40,0,0
13783,-100,4,2,1,80,0,0
27024,-100,4,2,2,60,0,0
68404,-166.666666666667,4,2,1,40,0,0
70059,-100,4,2,1,80,0,1
93231,-100,4,2,2,70,0,1
96542,-83.3333333333333,4,2,1,65,0,0
97059,-83.3333333333333,4,2,1,5,0,0
97576,-83.3333333333333,4,2,1,65,0,0
97679,-83.3333333333334,4,2,1,5,0,0
97990,-83.3333333333334,4,2,1,65,0,0
98093,-83.3333333333334,4,2,1,5,0,0
98404,-83.3333333333334,4,2,1,65,0,0
98507,-83.3333333333334,4,2,1,5,0,0
98610,-83.3333333333334,4,2,1,65,0,0
98714,-83.3333333333334,4,2,1,5,0,0
98817,-83.3333333333334,4,2,1,65,0,0
98921,-83.3333333333334,4,2,1,5,0,0
99231,-83.3333333333334,4,2,1,65,0,0
99438,-133.333333333333,4,2,1,70,0,0

[Colours]
Combo1 : 169,255,83
Combo2 : 102,205,255
Combo3 : 236,168,106
Combo4 : 255,170,238
Combo5 : 194,142,253

[HitObjects]
57,138,542,6,0,P|31:215|52:322,1,170,0|8,1:0|0:0,0:0:0:0:
100,364,1162,1,0,1:0:0:0:
434,322,1783,1,8,0:0:0:0:
346,289,1990,1,0,1:0:0:0:
489,246,2197,6,0,P|509:159|503:68,1,170,0|8,1:0|0:0,0:0:0:0:
441,29,2817,1,0,1:0:0:0:
222,80,3231,1,0,1:0:0:0:
397,164,3438,1,8,0:0:0:0:
397,164,3852,6,0,P|301:196|231:181,1,170,0|8,1:0|0:0,0:0:0:0:
164,145,4473,1,0,1:0:0:0:
481,253,5093,1,8,0:0:0:0:
502,161,5300,1,0,1:0:0:0:
393,278,5507,6,0,P|335:296|224:289,1,170,0|8,1:0|0:0,0:0:0:0:
144,269,6128,1,0,1:0:0:0:
175,45,6542,1,0,1:0:0:0:
28,98,6748,1,8,0:0:0:0:
230,122,6955,5,2,0:0:0:0:
230,122,7059,1,0,0:0:0:0:
230,122,7162,2,0,P|269:118|313:103,1,85,0|2,1:0|0:0,0:0:0:0:
102,148,7576,2,0,P|67:189|48:223,1,85,0|2,1:0|0:0,0:0:0:0:
240,314,7990,2,0,P|225:271|203:236,1,85,0|2,1:0|0:0,0:0:0:0:
39,342,8404,2,0,P|78:358|138:361,1,85,0|2,1:0|0:0,0:0:0:0:
145,359,8714,5,0,0:0:0:0:
145,359,8817,1,0,1:0:0:0:
329,275,9024,1,2,0:0:0:0:
207,229,9231,1,0,1:0:0:0:
333,125,9438,2,0,P|310:174|282:217,1,85,2|0,0:0|1:0,0:0:0:0:
135,277,9852,1,2,0:0:0:0:
8,206,10059,2,0,P|58:196|95:184,1,85,0|2,1:0|0:0,0:0:0:0:
224,312,10473,6,0,P|216:268|205:224,1,85,0|2,1:0|0:0,0:0:0:0:
90,185,10886,1,0,1:0:0:0:
283,44,11093,2,0,P|239:59|198:67,1,85,2|0,0:0|1:0,0:0:0:0:
107,61,11507,1,2,0:0:0:0:
254,149,11714,1,0,1:0:0:0:
134,272,11921,1,2,0:0:0:0:
134,272,12335,5,0,1:0:0:0:
90,185,12542,1,0,1:0:0:0:
24,339,12748,1,0,1:0:0:0:
301,377,13162,2,0,L|310:348,11,21.25,2|0|0|0|0|0|0|0|0|0|0|0,0:0|0:0|0:0|0:0|0:0|0:0|0:0|0:0|0:0|0:0|0:0|0:0,0:0:0:0:
314,337,13783,5,4,1:2:0:0:
287,245,13990,1,2,0:0:0:0:
405,311,14197,1,8,0:0:0:0:
199,273,14404,1,2,0:0:0:0:
384,136,14610,2,0,P|377:185|369:225,1,85,0|2,1:0|0:0,0:0:0:0:
314,337,15024,1,8,0:0:0:0:
229,252,15231,5,2,0:0:0:0:
229,252,15335,1,0,0:0:0:0:
229,252,15438,1,0,1:0:0:0:
405,311,15645,1,2,0:0:0:0:
229,252,15852,2,0,L|211:167,1,85,8|2,0:0|0:0,0:0:0:0:
132,136,16162,5,0,0:0:0:0:
132,136,16266,2,0,L|121:188,1,42.5,0|0,1:0|0:0,0:0:0:0:
43,303,16473,2,0,L|55:248,1,42.5,2|0,0:0|0:0,0:0:0:0:
33,104,16679,1,10,0:0:0:0:
33,104,16783,1,0,0:0:0:0:
33,104,16886,2,0,L|44:152,1,42.5,2|0,0:0|0:0,0:0:0:0:
131,254,17093,5,0,1:0:0:0:
218,141,17300,1,2,0:0:0:0:
49,173,17507,1,8,0:0:0:0:
131,254,17714,1,2,0:0:0:0:
309,136,17921,1,0,1:0:0:0:
309,136,18024,1,0,0:0:0:0:
309,136,18128,1,2,0:0:0:0:
343,263,18335,1,8,0:0:0:0:
218,141,18542,5,2,0:0:0:0:
218,141,18645,1,0,0:0:0:0:
218,141,18748,1,0,1:0:0:0:
386,179,18955,1,2,0:0:0:0:
476,104,19162,1,8,0:0:0:0:
309,136,19369,1,2,0:0:0:0:
366,277,19576,1,0,1:0:0:0:
366,277,19679,2,0,P|419:271|450:254,1,85,8|0,0:0|0:0,0:0:0:0:
464,236,19990,1,8,0:0:0:0:
286,221,20197,5,2,0:0:0:0:
286,221,20300,1,0,0:0:0:0:
286,221,20404,1,0,1:0:0:0:
334,363,20610,1,2,0:0:0:0:
366,277,20817,1,8,0:0:0:0:
218,334,21024,1,2,0:0:0:0:
366,277,21231,2,0,P|377:228|379:190,1,85,0|2,1:0|0:0,0:0:0:0:
288,129,21645,1,8,0:0:0:0:
470,42,21852,5,2,0:0:0:0:
470,42,21955,1,0,0:0:0:0:
470,42,22059,1,0,1:0:0:0:
412,148,22266,5,2,0:0:0:0:
220,32,22473,2,0,P|265:43|303:50,1,85,8|2,0:0|0:0,0:0:0:0:
331,53,22783,1,0,0:0:0:0:
331,53,22886,1,0,1:0:0:0:
157,124,23093,1,2,0:0:0:0:
267,167,23300,2,0,L|274:227,1,42.5,8|0,0:0|0:0,0:0:0:0:
175,273,23507,2,0,L|168:218,1,42.5,2|0,0:0|0:0,0:0:0:0:
64,194,23714,6,0,P|62:237|75:290,1,85,2|0,1:2|0:0,0:0:0:0:
84,303,24024,1,0,0:0:0:0:
84,303,24128,1,2,0:3:0:0:
367,272,24335,2,0,P|324:288|284:291,1,85,2|0,1:2|0:0,0:0:0:0:
257,285,24645,1,0,0:0:0:0:
257,285,24748,1,2,0:3:0:0:
358,377,24955,1,2,1:2:0:0:
493,151,25162,1,2,1:2:0:0:
493,151,25576,5,2,1:2:0:0:
302,212,25783,1,2,1:2:0:0:
215,143,25990,1,2,0:0:0:0:
215,143,26093,1,0,0:0:0:0:
215,143,26197,1,0,0:0:0:0:
401,183,26404,1,2,0:0:0:0:
275,307,26610,1,8,0:3:0:0:
146,261,26817,1,2,0:0:0:0:
275,307,27024,6,0,P|325:312|364:297,1,85,0|0,1:0|0:0,0:0:0:0:
438,266,27438,1,8,1:2:0:0:
323,129,27645,2,0,P|311:174|301:211,1,85,2|0,0:0|1:0,0:0:0:0:
401,183,28059,2,0,P|411:139|425:90,1,85,2|0,0:0|1:0,0:0:0:0:
219,157,28473,1,2,0:0:0:0:
301,228,28679,5,0,1:0:0:0:
401,183,28886,1,0,0:0:0:0:
209,282,29093,2,0,P|169:292|119:293,1,85,8|0,1:2|0:0,0:0:0:0:
103,287,29404,1,0,0:0:0:0:
103,287,29507,1,0,1:0:0:0:
15,244,29714,1,2,0:0:0:0:
129,130,29921,2,0,P|143:182|147:224,1,85,0|2,1:0|0:0,0:0:0:0:
108,43,30335,5,0,1:0:0:0:
33,149,30542,1,0,0:0:0:0:
230,72,30748,2,0,P|276:86|316:97,1,85,8|2,1:2|0:0,0:0:0:0:
454,128,31162,1,0,1:0:0:0:
289,216,31369,1,2,0:0:0:0:
417,285,31576,1,0,1:0:0:0:
379,196,31783,5,2,0:0:0:0:
324,317,31990,1,0,1:0:0:0:
261,215,32197,1,2,0:0:0:0:
443,296,32404,2,0,P|463:248|477:206,1,85,8|0,1:2|0:0,0:0:0:0:
480,195,32714,1,0,0:0:0:0:
480,195,32817,1,0,1:0:0:0:
272,40,33024,1,2,0:0:0:0:
296,137,33231,1,0,1:0:0:0:
395,115,33438,5,2,0:0:0:0:
395,115,33542,1,0,0:0:0:0:
395,115,33645,1,0,1:0:0:0:
471,44,33852,1,2,0:0:0:0:
296,137,34059,1,8,1:2:0:0:
380,287,34266,2,0,P|392:237|392:195,1,85,2|0,0:0|1:0,0:0:0:0:
395,115,34679,1,0,0:0:0:0:
287,239,34886,1,0,1:0:0:0:
100,210,35093,5,2,0:0:0:0:
100,210,35197,1,0,0:0:0:0:
100,210,35300,1,0,1:0:0:0:
211,179,35507,1,2,0:0:0:0:
37,139,35714,1,8,1:2:0:0:
72,293,35921,2,0,P|114:294|153:277,1,85,2|0,0:0|1:0,0:0:0:0:
211,179,36335,1,2,0:0:0:0:
382,286,36542,1,0,1:0:0:0:
460,201,36748,1,2,0:0:0:0:
287,239,36955,6,0,L|268:341,1,85,0|0,1:0|0:0,0:0:0:0:
304,130,37369,2,0,L|323:28,1,85,8|2,1:2|0:0,0:0:0:0:
211,179,37783,1,0,1:0:0:0:
377,201,37990,1,2,0:0:0:0:
186,193,38197,2,0,L|164:294,1,85,0|2,1:0|0:0,0:0:0:0:
86,339,38610,5,0,1:0:0:0:
14,218,38817,1,2,0:0:0:0:
167,276,39024,2,0,P|209:292|270:296,1,85,10|0,1:2|0:0,0:0:0:0:
274,296,39335,1,0,0:0:0:0:
274,296,39438,1,0,1:0:0:0:
377,201,39645,1,2,0:0:0:0:
468,232,39852,1,0,1:0:0:0:
328,113,40059,1,2,0:0:0:0:
458,56,40266,6,0,P|454:98|448:140,1,85,0|0,1:0|0:0,0:0:0:0:
281,197,40679,1,8,1:2:0:0:
379,298,40886,1,2,0:0:0:0:
468,232,41093,1,0,1:0:0:0:
377,201,41300,1,2,0:0:0:0:
162,301,41507,1,0,1:0:0:0:
263,279,41714,2,0,P|278:224|280:186,1,85,2|0,0:0|1:0,0:0:0:0:
275,92,42128,5,0,0:0:0:0:
68,136,42335,2,0,P|71:186|85:231,1,85,8|0,1:2|0:0,0:0:0:0:
91,244,42645,1,0,0:0:0:0:
91,244,42748,1,0,1:0:0:0:
191,168,42955,1,2,0:0:0:0:
125,62,43162,2,0,P|84:55|29:42,1,85,0|2,1:0|0:0,0:0:0:0:
275,92,43576,6,0,P|318:98|361:108,1,85,0|2,1:0|0:0,0:0:0:0:
450,130,43990,1,8,1:2:0:0:
372,261,44197,1,2,0:0:0:0:
313,189,44404,1,0,1:0:0:0:
457,221,44610,1,2,0:0:0:0:
353,350,44817,1,0,1:0:0:0:
197,216,45024,2,0,L|174:123,1,85,2|0,0:0|1:0,0:0:0:0:
95,239,45438,5,2,0:0:0:0:
265,284,45645,2,0,P|309:279|353:268,1,85,8|0,1:2|0:0,0:0:0:0:
372,261,45955,1,0,0:0:0:0:
372,261,46059,1,0,1:0:0:0:
413,114,46266,1,2,0:0:0:0:
294,168,46473,1,0,1:0:0:0:
269,61,46679,5,2,0:0:0:0:
269,61,46783,1,0,0:0:0:0:
269,61,46886,1,0,1:0:0:0:
75,100,47093,1,2,0:0:0:0:
207,132,47300,1,8,1:2:0:0:
75,100,47507,2,0,P|59:149|46:190,1,85,2|0,0:0|1:0,0:0:0:0:
10,277,47921,1,2,0:0:0:0:
128,247,48128,1,0,1:0:0:0:
48,180,48335,1,2,0:0:0:0:
199,303,48542,6,0,P|270:311|345:287,1,127.5,0|0,1:0|0:0,0:0:0:0:
349,283,48955,1,8,1:2:0:0:
385,165,49162,1,2,0:0:0:0:
385,165,49266,1,0,0:0:0:0:
385,165,49369,2,0,L|407:65,1,85,0|0,1:0|0:0,0:0:0:0:
304,106,49783,1,0,1:0:0:0:
478,154,49990,2,0,L|494:245,2,85,2|0|2,0:0|1:0|0:0,0:0:0:0:
463,62,50610,5,8,1:2:0:0:
288,194,50817,1,2,1:2:0:0:
385,165,51024,1,0,0:0:0:0:
206,130,51231,1,2,0:0:0:0:
244,280,51438,1,0,1:0:0:0:
304,106,51645,1,2,1:2:0:0:
57,242,51852,5,0,0:0:0:0:
178,215,52059,1,2,1:2:0:0:
57,242,52266,2,0,P|12:253|-29:261,1,85,8|2,1:2|0:0,0:0:0:0:
93,146,52679,5,0,1:0:0:0:
129,309,52886,1,0,1:0:0:0:
93,146,53093,2,0,L|74:50,1,85,2|2,0:0|1:2,0:0:0:0:
262,193,53507,5,0,1:0:0:0:
129,309,53714,1,2,0:0:0:0:
262,193,53921,2,0,P|317:184|368:173,1,85,8|2,0:0|1:2,0:0:0:0:
428,135,54335,5,0,1:0:0:0:
322,273,54542,1,2,0:0:0:0:
175,215,54748,2,0,P|165:165|156:122,1,85,0|2,1:0|0:0,0:0:0:0:
37,158,55162,5,0,1:0:0:0:
103,32,55369,1,0,1:0:0:0:
239,83,55576,2,0,P|289:103|332:119,1,85,10|2,0:0|0:0,0:0:0:0:
348,125,55886,1,0,0:0:0:0:
348,125,55990,1,0,1:0:0:0:
417,258,56197,1,2,1:2:0:0:
492,184,56404,1,8,0:0:0:0:
311,225,56610,1,2,0:0:0:0:
390,336,56817,6,0,P|415:285|412:236,1,85,4|2,1:2|0:0,0:0:0:0:
193,175,57231,1,10,1:2:0:0:
233,301,57438,1,2,0:0:0:0:
311,225,57645,1,0,1:0:0:0:
128,258,57852,1,2,0:0:0:0:
128,258,57955,2,0,P|85:268|28:274,1,85,2|0,0:0|0:0,0:0:0:0:
7,342,58266,6,0,P|5:301|10:246,1,85,0|2,1:0|0:0,0:0:0:0:
39,129,58679,1,0,1:0:0:0:
193,175,58886,1,8,1:2:0:0:
302,61,59093,1,2,0:0:0:0:
128,98,59300,1,0,1:0:0:0:
353,213,59507,1,2,0:0:0:0:
353,213,59610,2,0,P|310:191|253:194,1,85,2|0,0:0|0:0,0:0:0:0:
193,175,59921,1,0,1:0:0:0:
84,305,60128,5,0,1:0:0:0:
45,215,60335,1,2,0:0:0:0:
181,323,60542,1,8,1:2:0:0:
84,305,60748,1,2,0:0:0:0:
256,255,60955,1,0,1:0:0:0:
181,323,61162,1,2,0:0:0:0:
181,323,61266,2,0,P|224:344|276:351,1,85,2|0,0:0|0:0,0:0:0:0:
376,369,61576,6,0,P|385:293|331:173,1,170,0|2,1:0|1:2,0:0:0:0:
287,134,62197,1,8,1:2:0:0:
256,255,62404,1,2,0:0:0:0:
78,112,62610,2,0,P|146:134|238:138,1,127.5,0|2,1:0|0:0,0:0:0:0:
287,134,63024,1,0,1:0:0:0:
152,225,63231,1,2,0:0:0:0:
269,33,63438,5,0,1:0:0:0:
269,33,63852,1,8,1:2:0:0:
287,134,64059,1,2,0:0:0:0:
395,65,64266,1,0,1:0:0:0:
199,104,64473,1,2,0:0:0:0:
199,104,64576,2,0,P|154:113|108:117,1,85,2|0,0:0|0:0,0:0:0:0:
4,218,64886,6,0,P|32:167|53:142,1,85,0|2,1:0|0:0,0:0:0:0:
128,30,65300,1,0,1:0:0:0:
156,200,65507,1,8,1:2:0:0:
290,117,65714,1,2,0:0:0:0:
80,106,65921,1,0,1:0:0:0:
252,193,66128,1,2,0:0:0:0:
252,193,66231,2,0,P|303:200|356:173,1,85,2|0,0:0|0:0,0:0:0:0:
398,141,66542,1,0,1:0:0:0:
236,301,66748,6,0,P|177:279|99:290,1,127.5,4|0,1:2|0:0,0:0:0:0:
35,268,67162,2,0,P|28:317|21:355,1,85,8|2,1:2|0:0,0:0:0:0:
133,182,67576,1,0,1:0:0:0:
133,182,67679,2,0,P|131:129|123:93,1,85,2|2,0:0|0:0,0:0:0:0:
58,44,67990,1,0,1:0:0:0:
229,115,68197,1,2,0:0:0:0:
51,154,68404,6,0,L|49:171,5,16.9999994812012,6|0|0|0|0|0,0:0|0:0|0:0|0:0|0:0|0:0,0:0:0:0:
172,245,68817,2,0,L|156:255,5,16.9999994812012,2|0|0|0|0|0,0:0|0:0|0:0|0:0|0:0|0:0,0:0:0:0:
216,384,69231,2,0,L|191:384,5,16.9999994812012,2|0|0|0|0|0,0:0|0:0|0:0|0:0|0:0|0:0,0:0:0:0:
52,329,69645,6,0,P|113:341|156:318,1,101.999996887207,2|4,0:0|0:0,0:0:0:0:
243,302,70266,5,2,0:0:0:0:
193,149,70473,1,8,1:2:0:0:
328,224,70679,2,0,L|410:263,1,85,2|0,0:0|1:0,0:0:0:0:
462,204,70990,1,0,0:0:0:0:
462,204,71093,2,0,L|506:179,1,42.5,2|0,0:0|0:0,0:0:0:0:
462,321,71300,2,0,P|428:338|374:333,1,85,8|2,1:2|0:0,0:0:0:0:
354,324,71610,1,0,0:0:0:0:
354,324,71714,1,0,1:0:0:0:
164,255,71921,5,2,0:0:0:0:
243,302,72128,2,0,L|250:347,1,42.5,8|0,1:2|0:0,0:0:0:0:
56,285,72335,2,0,L|70:231,1,42.5,2|0,0:0|0:0,0:0:0:0:
121,159,72542,1,0,1:0:0:0:
121,159,72645,2,0,L|107:76,1,85,8|0,0:0|0:0,0:0:0:0:
19,119,72955,2,0,P|65:124|106:103,1,85,8|2,1:2|0:0,0:0:0:0:
192,54,73266,5,0,0:0:0:0:
192,54,73369,2,0,P|209:99|207:142,1,85,0|2,1:0|0:0,0:0:0:0:
164,255,73783,1,8,1:2:0:0:
301,205,73990,1,2,0:0:0:0:
185,342,74197,1,0,1:0:0:0:
72,254,74404,1,2,0:0:0:0:
265,304,74610,1,8,1:2:0:0:
381,178,74817,1,2,0:0:0:0:
199,127,75024,5,0,1:0:0:0:
199,127,75128,2,0,L|188:177,1,42.5,0|2,0:0|0:0,0:0:0:0:
96,165,75335,1,0,0:0:0:0:
96,165,75438,2,0,L|109:117,1,42.5,8|0,1:2|0:0,0:0:0:0:
24,86,75645,2,0,L|12:127,1,42.5,2|0,0:0|0:0,0:0:0:0:
72,254,75852,1,0,1:0:0:0:
104,263,75955,1,2,0:0:0:0:
138,261,76059,1,0,0:0:0:0:
169,248,76162,1,0,0:0:0:0:
199,232,76266,6,0,P|220:212|236:200,1,42.5,10|2,1:2|0:0,0:0:0:0:
419,194,76473,2,0,P|396:183|370:174,1,42.5,2|0,0:0|0:0,0:0:0:0:
293,135,76679,5,4,1:2:0:0:
293,135,77093,2,0,P|284:94|279:52,1,85,8|2,1:2|0:0,0:0:0:0:
505,144,77507,2,0,P|500:187|493:229,1,85,0|0,1:0|0:0,0:0:0:0:
324,328,77921,2,0,P|368:345|410:348,1,85,8|2,1:2|0:0,0:0:0:0:
434,342,78231,5,0,0:0:0:0:
434,342,78335,1,0,1:0:0:0:
383,167,78542,1,2,0:0:0:0:
237,277,78748,1,8,1:2:0:0:
65,230,78955,1,2,0:0:0:0:
133,321,79162,2,0,L|157:224,1,85,0|2,1:0|0:0,0:0:0:0:
160,218,79473,1,0,0:0:0:0:
165,197,79576,1,8,1:2:0:0:
9,128,79783,1,2,0:0:0:0:
65,230,79990,5,0,1:0:0:0:
117,71,80197,1,2,0:0:0:0:
267,225,80404,1,8,1:2:0:0:
93,154,80610,1,2,0:0:0:0:
133,321,80817,5,0,1:0:0:0:
165,233,81024,1,2,0:0:0:0:
317,351,81231,1,8,1:2:0:0:
444,309,81438,1,2,0:0:0:0:
305,91,81645,5,0,1:0:0:0:
277,116,81748,1,0,0:0:0:0:
262,151,81852,1,2,0:0:0:0:
258,188,81955,1,0,0:0:0:0:
267,225,82059,6,0,L|287:279,1,42.5,8|0,1:2|0:0,0:0:0:0:
388,269,82266,2,0,L|369:213,1,42.5,2|0,0:0|0:0,0:0:0:0:
490,164,82473,5,2,1:2:0:0:
490,164,82886,1,10,1:2:0:0:
297,322,83300,5,4,1:2:0:0:
388,269,83507,1,2,0:0:0:0:
179,241,83714,1,8,1:2:0:0:
318,155,83921,2,0,P|321:190|312:255,1,85,2|0,0:0|1:0,0:0:0:0:
297,322,84231,1,0,0:0:0:0:
297,322,84335,2,0,L|237:338,1,42.5,2|0,0:0|0:0,0:0:0:0:
114,314,84542,2,0,P|90:276|90:202,1,85,8|2,1:2|0:0,0:0:0:0:
84,208,84852,5,0,0:0:0:0:
84,208,84955,1,0,1:0:0:0:
0,286,85162,1,2,0:0:0:0:
221,246,85369,2,0,P|185:242|169:238,1,42.5,8|0,1:2|0:0,0:0:0:0:
56,130,85576,2,0,L|101:108,1,42.5,2|0,0:0|0:0,0:0:0:0:
210,38,85783,1,0,1:0:0:0:
210,38,85886,2,0,L|246:124,1,85,8|0,0:0|0:0,0:0:0:0:
328,200,86197,2,0,P|344:178|338:121,1,85,8|2,1:2|0:0,0:0:0:0:
255,142,86507,5,0,0:0:0:0:
255,142,86610,2,0,L|353:167,1,85,0|2,1:0|0:0,0:0:0:0:
449,193,87024,1,8,1:2:0:0:
304,296,87231,1,2,0:0:0:0:
396,344,87438,1,0,1:0:0:0:
127,336,87645,1,2,0:0:0:0:
304,296,87852,1,8,1:2:0:0:
45,256,88059,1,2,0:0:0:0:
222,352,88266,5,0,1:0:0:0:
222,352,88369,2,0,L|204:274,1,42.5,0|2,0:0|0:0,0:0:0:0:
369,198,88576,1,0,0:0:0:0:
369,198,88679,2,0,L|387:276,1,42.5,8|0,1:2|0:0,0:0:0:0:
304,296,88886,2,0,L|293:246,1,42.5,2|0,0:0|0:0,0:0:0:0:
445,125,89093,1,0,1:0:0:0:
453,162,89197,1,0,0:0:0:0:
459,199,89300,1,2,0:0:0:0:
466,236,89404,1,0,0:0:0:0:
472,273,89507,6,0,L|484:325,1,42.5,8|0,1:2|0:0,0:0:0:0:
386,361,89714,2,0,L|393:306,1,42.5,2|0,0:0|0:0,0:0:0:0:
304,296,89921,5,4,1:2:0:0:
145,230,90128,1,2,0:0:0:0:
304,296,90335,2,0,P|325:249|332:203,1,85,8|2,1:2|0:0,0:0:0:0:
85,155,90748,2,0,P|64:202|57:248,1,85,0|2,1:0|0:0,0:0:0:0:
246,164,91162,2,0,P|267:117|274:71,1,85,8|2,1:2|0:0,0:0:0:0:
276,56,91473,5,0,0:0:0:0:
276,56,91576,1,0,1:0:0:0:
145,230,91783,1,2,0:0:0:0:
85,155,91990,1,8,1:2:0:0:
309,241,92197,1,2,0:0:0:0:
309,241,92300,1,0,0:0:0:0:
309,241,92404,2,0,P|336:246|362:248,1,42.5,0|0,1:0|0:0,0:0:0:0:
422,150,92610,2,0,P|397:155|372:161,1,42.5,2|0,0:0|0:0,0:0:0:0:
399,321,92817,2,0,P|439:322|480:294,1,85,8|2,1:2|0:0,0:0:0:0:
512,195,93231,5,2,1:2:0:0:
512,195,93542,1,2,0:0:0:0:
512,195,93645,1,8,0:0:0:0:
225,254,93852,2,0,P|276:248|310:240,1,85,2|2,1:2|0:0,0:0:0:0:
386,216,94162,1,0,0:0:0:0:
386,216,94266,2,0,L|394:154,1,42.5,2|0,0:0|0:0,0:0:0:0:
323,78,94473,1,10,0:0:0:0:
323,78,94576,1,0,0:0:0:0:
323,78,94679,1,0,1:0:0:0:
323,78,94783,1,0,0:0:0:0:
323,78,94886,5,2,1:2:0:0:
103,110,95197,1,2,0:0:0:0:
103,110,95300,1,8,0:0:0:0:
136,298,95507,1,2,1:2:0:0:
236,194,95714,1,2,0:0:0:0:
16,236,95921,1,2,1:2:0:0:
236,194,96128,1,10,0:0:0:0:
21,324,96335,5,2,0:0:0:0:
21,324,96438,2,0,L|-13:330,2,21.25,0|0|2,0:0|0:0|1:2,0:0:0:0:
475,244,96955,2,0,L|422:255,1,50.9999984436036,2|0,1:2|0:0,0:0:0:0:
426,255,97576,6,0,L|411:197,1,50.9999984436036,2|0,1:2|0:0,0:0:0:0:
138,328,97990,2,0,L|146:275,1,50.9999984436036,2|0,1:2|0:0,0:0:0:0:
270,148,98404,2,0,L|278:205,1,50.9999984436036,2|0,1:2|0:0,0:0:0:0:
344,310,98610,2,0,L|348:250,1,50.9999984436036,2|0,1:2|0:0,0:0:0:0:
441,199,98817,2,0,L|458:264,1,50.9999984436036,8|0,1:3|0:0,0:0:0:0:
453,248,99231,6,0,L|504:255,1,50.9999984436036,0|0,1:0|1:0,0:0:0:0:
365,112,99438,6,0,L|501:133,1,127.500004863739,8|4,0:0|1:2,0:0:0:0:
