osu file format v9

[General]
AudioFilename: Tsukiko - EVERLASTING BLUE.mp3
AudioLeadIn: 2000
PreviewTime: 68032
Countdown: 0
SampleSet: Normal
StackLeniency: 0.7
Mode: 0
LetterboxInBreaks: 0

[Editor]
Bookmarks: 130288
DistanceSpacing: 1.1
BeatDivisor: 4
GridSize: 4

[Metadata]
Title:EVERLASTING BLUE (Short Ver.)
Artist:Tsukiko
Creator:Kitsuneko
Version:WIND
Source:AQUA
Tags:SORAHANE TINKERBELL SOUND LABEL visual novel eroge hentai game opening Ryafuka kusano

[Difficulty]
HPDrainRate:6
CircleSize:4
OverallDifficulty:6
ApproachRate:8
SliderMultiplier:1.5
SliderTickRate:1

[Events]
//Background and Video events
0,0,"AQUA_BG.jpg"
Video,268,"AQUA_OP.avi"
//Break Periods
//Storyboard Layer 0 (Background)
//Storyboard Layer 1 (Fail)
//Storyboard Layer 2 (Pass)
//Storyboard Layer 3 (Foreground)
//Storyboard Sound Samples
//Background Colour Transformations
3,100,163,162,255

[TimingPoints]
268,352.941176470588,4,1,1,50,1,0
1679,-100,4,2,1,60,0,0
2032,-100,4,1,1,60,0,0
2120,-100,4,2,1,60,0,0
2738,-100,4,1,1,60,0,0
2826,-100,4,2,1,60,0,0
3444,-100,4,1,1,60,0,0
3532,-100,4,2,1,60,0,0
4150,-100,4,1,1,60,0,0
4238,-100,4,2,1,60,0,0
4856,-100,4,1,1,60,0,0
4944,-100,4,2,1,60,0,0
5562,-100,4,1,1,60,0,0
5650,-100,4,2,1,60,0,0
6267,-100,4,1,1,60,0,0
6356,-100,4,2,1,60,0,0
6973,-100,4,1,1,60,0,0
7062,-100,4,2,1,60,0,0
7679,-100,4,1,1,60,0,0
7767,-100,4,2,1,60,0,0
8385,-100,4,1,1,60,0,0
8473,-100,4,2,1,60,0,0
9091,-100,4,1,1,60,0,0
9179,-100,4,2,1,60,0,0
9797,-100,4,1,1,60,0,0
9885,-100,4,2,1,60,0,0
10503,-100,4,1,1,60,0,0
10591,-100,4,2,1,60,0,0
11209,-100,4,1,1,60,0,0
11297,-100,4,2,1,60,0,0
11915,-100,4,1,1,60,0,0
12003,-100,4,2,1,60,0,0
13326,-100,4,1,1,60,0,0
13415,-100,4,2,1,60,0,0
14032,-100,4,1,1,60,0,0
14120,-100,4,2,1,60,0,0
14738,-100,4,1,1,60,0,0
14826,-100,4,2,1,60,0,0
15444,-100,4,1,1,60,0,0
15532,-100,4,2,1,60,0,0
16150,-100,4,1,1,60,0,0
16238,-100,4,2,1,60,0,0
16856,-100,4,1,1,60,0,0
16944,-100,4,2,1,60,0,0
17562,-100,4,1,1,60,0,0
17650,-100,4,2,1,60,0,0
18267,-100,4,1,1,60,0,0
18356,-100,4,2,1,60,0,0
18973,-100,4,1,1,60,0,0
19062,-100,4,2,1,60,0,0
19679,-100,4,1,1,60,0,0
19767,-100,4,2,1,60,0,0
20385,-100,4,1,1,60,0,0
20473,-100,4,2,1,60,0,0
21091,-100,4,1,1,60,0,0
21179,-100,4,2,1,60,0,0
21797,-100,4,1,1,60,0,0
21885,-100,4,2,1,60,0,0
22503,-100,4,1,1,60,0,0
22591,-100,4,2,1,60,0,0
23209,-100,4,1,1,60,0,0
23297,-100,4,2,1,60,0,0
23562,-100,4,1,1,60,0,0
24267,-200,4,2,2,75,0,0
24356,-200,4,2,1,40,0,0
35562,-133.333333333333,4,2,1,50,0,0
35915,-133.333333333333,4,1,1,50,0,0
36003,-133.333333333333,4,2,1,50,0,0
36620,-133.333333333333,4,1,1,50,0,0
36709,-133.333333333333,4,2,1,50,0,0
37326,-133.333333333333,4,1,1,50,0,0
37415,-133.333333333333,4,2,1,50,0,0
38032,-133.333333333333,4,1,1,50,0,0
38120,-133.333333333333,4,2,1,50,0,0
38738,-133.333333333333,4,1,1,50,0,0
38826,-133.333333333333,4,2,1,50,0,0
39444,-133.333333333333,4,1,1,50,0,0
39532,-133.333333333333,4,2,1,50,0,0
40150,-133.333333333333,4,1,1,50,0,0
40238,-133.333333333333,4,2,1,50,0,0
40856,-133.333333333333,4,1,1,50,0,0
41209,-133.333333333333,4,2,1,50,0,0
41562,-133.333333333333,4,1,1,50,0,0
41650,-133.333333333333,4,2,1,50,0,0
42267,-133.333333333333,4,1,1,50,0,0
42356,-133.333333333333,4,2,1,50,0,0
42973,-133.333333333333,4,1,1,50,0,0
43062,-133.333333333333,4,2,1,50,0,0
43679,-133.333333333333,4,1,1,50,0,0
43767,-133.333333333333,4,2,1,50,0,0
44032,-133.333333333333,4,2,2,50,0,0
44385,-133.333333333333,4,1,1,50,0,0
44473,-133.333333333333,4,2,1,50,0,0
45091,-133.333333333333,4,1,1,50,0,0
45179,-133.333333333333,4,2,1,50,0,0
45797,-133.333333333333,4,1,1,50,0,0
45885,-133.333333333333,4,2,1,50,0,0
46150,-133.333333333333,4,2,1,65,0,0
46326,-100,4,1,1,65,0,0
46856,-100,4,2,1,60,0,0
51267,-100,4,1,1,60,0,0
51356,-100,4,2,1,60,0,0
53209,-100,4,1,1,60,0,0
53297,-100,4,2,1,60,0,0
56032,-100,4,1,1,60,0,0
56120,-100,4,2,1,60,0,0
56562,-100,4,1,1,60,0,0
57003,-100,4,2,1,60,0,0
57444,-100,4,1,1,60,0,0
57532,-100,4,2,1,60,0,0
58150,-100,4,2,1,65,0,0
58503,-100,4,1,1,65,0,0
58591,-100,4,2,1,65,0,0
59209,-100,4,1,1,65,0,0
59297,-100,4,2,1,65,0,0
59915,-100,4,1,1,65,0,0
60003,-100,4,2,1,65,0,0
60620,-100,4,1,1,65,0,0
60709,-100,4,2,1,65,0,0
61326,-100,4,1,1,65,0,0
61415,-100,4,2,1,65,0,0
62032,-100,4,1,1,65,0,0
62120,-100,4,2,1,65,0,0
62738,-100,4,1,1,65,0,0
62826,-100,4,2,1,65,0,0
63444,-100,4,1,1,65,0,0
63797,-100,4,2,1,65,0,0
63885,-100,4,2,2,20,0,0
66620,-100,4,2,2,65,0,0
68032,-100,4,1,1,70,0,0
69091,-100,4,1,1,65,0,0
69444,-100,4,2,1,70,0,1
69797,-100,4,1,1,70,0,1
69885,-100,4,2,1,70,0,1
70503,-100,4,1,1,70,0,1
70591,-100,4,2,1,70,0,1
71209,-100,4,1,1,70,0,1
71297,-100,4,2,1,70,0,1
71915,-100,4,1,1,70,0,1
72003,-100,4,2,1,70,0,1
72620,-100,4,1,1,70,0,1
72709,-100,4,2,1,70,0,1
73326,-100,4,1,1,70,0,1
73415,-100,4,2,1,70,0,1
74032,-100,4,1,1,70,0,1
74120,-100,4,2,1,70,0,1
74738,-100,4,1,1,70,0,1
75091,-100,4,2,1,70,0,1
75444,-100,4,1,1,70,0,1
75532,-100,4,2,1,70,0,1
76150,-100,4,1,1,70,0,1
76238,-100,4,2,1,70,0,1
76856,-100,4,1,1,70,0,1
76944,-100,4,2,1,70,0,1
77562,-100,4,1,1,70,0,1
77650,-100,4,2,1,70,0,1
78267,-100,4,1,1,70,0,1
78356,-100,4,2,1,70,0,1
78973,-100,4,1,1,70,0,1
79062,-100,4,2,1,70,0,1
79679,-100,4,1,1,70,0,1
79767,-100,4,2,1,70,0,1
80385,-100,4,1,1,70,0,1
80738,-100,4,2,1,70,0,1
81091,-100,4,1,1,70,0,1
81179,-100,4,2,1,70,0,1
81797,-100,4,1,1,70,0,1
81885,-100,4,2,1,70,0,1
82503,-100,4,1,1,70,0,1
82591,-100,4,2,1,70,0,1
83209,-100,4,1,1,70,0,1
83297,-100,4,2,1,70,0,1
83915,-100,4,1,1,70,0,1
84003,-100,4,2,1,70,0,1
84620,-100,4,1,1,70,0,1
84709,-100,4,2,1,70,0,1
84973,-100,4,2,2,70,0,1
85326,-100,4,1,1,70,0,1
85415,-100,4,2,2,80,0,1
86032,-100,4,1,1,70,0,1
86120,-100,4,2,1,70,0,1
86738,-100,4,1,1,70,0,1
86826,-100,4,2,1,70,0,1
87444,-100,4,1,1,70,0,1
87532,-100,4,2,1,70,0,1
88150,-100,4,1,1,70,0,1
88238,-100,4,2,1,70,0,1
88856,-100,4,1,1,70,0,1
88944,-100,4,2,1,70,0,1
89562,-100,4,1,1,70,0,1
89650,-100,4,2,1,70,0,1
90091,-100,4,1,1,70,0,1
90179,-100,4,2,1,70,0,1
90356,-100,4,1,1,70,0,1
90620,-100,4,2,1,80,0,1
90709,-100,4,1,1,70,0,1
91150,-100,4,2,1,80,0,1
91238,-100,4,1,1,70,0,1
91679,-100,4,2,1,80,0,1
91767,-100,4,1,1,70,0,1
92032,-100,4,2,1,70,0,1
92385,-100,4,1,1,70,0,1
92473,-100,4,2,1,70,0,1
93091,-100,4,1,1,70,0,1
93179,-100,4,2,1,70,0,1
93797,-100,4,1,1,70,0,1
93885,-100,4,2,1,70,0,1
94503,-100,4,1,1,70,0,1
94591,-100,4,2,1,70,0,1
95209,-100,4,1,1,70,0,1
95297,-100,4,2,1,70,0,1
95915,-100,4,1,1,70,0,1
96003,-100,4,2,1,70,0,1
96620,-100,4,1,1,70,0,1
96709,-100,4,2,1,70,0,1
97326,-100,4,1,1,70,0,1
97679,-100,4,2,1,70,0,1
98032,-100,4,1,1,70,0,1
98120,-100,4,2,1,70,0,1
98738,-100,4,1,1,70,0,1
98826,-100,4,2,1,70,0,1
99444,-100,4,1,1,70,0,1
99532,-100,4,2,1,70,0,1
100150,-100,4,1,1,70,0,1
100238,-100,4,2,1,70,0,1
100856,-100,4,1,1,70,0,1
100944,-100,4,2,1,70,0,1
101562,-100,4,1,1,70,0,1
101650,-100,4,2,1,70,0,1
102267,-100,4,1,1,70,0,1
102356,-100,4,2,1,70,0,1
102973,-100,4,1,1,70,0,1
103326,-100,4,2,1,70,0,1
103679,-100,4,1,1,70,0,1
103767,-100,4,2,1,70,0,1
104385,-100,4,1,1,70,0,1
104473,-100,4,2,2,70,0,1
105091,-100,4,1,1,70,0,1
105179,-100,4,2,1,70,0,1
105797,-100,4,1,1,70,0,1
105885,-100,4,2,1,70,0,1
106503,-100,4,1,1,70,0,1
106591,-100,4,2,1,70,0,1
107209,-100,4,1,1,70,0,1
107297,-100,4,2,1,70,0,1
107915,-100,4,1,1,70,0,1
108003,-100,4,2,1,70,0,1
108620,-100,4,1,1,70,0,1
108709,-100,4,2,1,70,0,1
109326,-100,4,1,1,70,0,1
109415,-100,4,2,1,70,0,1
110032,-100,4,1,1,70,0,1
110120,-100,4,2,1,70,0,1
110738,-100,4,1,1,70,0,1
110826,-100,4,2,1,70,0,1
111444,-100,4,1,1,70,0,1
111532,-100,4,2,1,70,0,1
111797,-100,4,2,2,70,0,1
111973,-100,4,1,1,70,0,1
112238,-100,4,2,1,70,0,1
113032,-100,4,1,1,70,0,1
113209,-100,4,2,1,70,0,1
113562,-100,4,1,1,70,0,1
113826,-100,4,2,1,70,0,1
114003,-100,4,1,1,80,0,1
114620,-100,4,2,2,85,0,0
114709,-133.333333333333,4,2,2,30,0,0
118856,426.136363636364,4,2,2,20,1,0
120560,681.818181818182,4,2,2,20,1,0

[Colours]
Combo1 : 68,71,196
Combo2 : 84,200,224
Combo3 : 18,123,228
Combo4 : 88,164,220
Combo5 : 234,234,234
Combo6 : 236,201,34
Combo7 : 242,136,66
Combo8 : 138,96,189

[HitObjects]
256,268,268,1,0
324,312,444,2,0,B|336:356,2,37.5
356,236,797,1,0
404,112,973,5,0
448,200,1150,1,0
356,236,1326,1,0
356,236,1679,6,0,B|272:248|224:168,1,150,4|0
168,120,2209,2,0,B|124:200|180:280,1,150,2|2
220,328,2738,1,0
220,328,3091,6,0,B|296:300|364:344,1,150,2|0
492,264,3620,2,0,B|416:292|348:248,1,150,2|0
276,212,4150,1,0
276,212,4503,70,0,B|240:196|196:200,1,75,4|0
128,88,4856,2,0,B|164:104|208:100,1,75,0|2
348,172,5385,1,2
372,92,5562,2,0,B|328:24|236:32,2,150,0|2|0
420,160,6444,2,0,B|384:176|340:172,1,75,2|0
268,152,6797,1,2
268,152,6973,2,0,B|196:112|112:144,1,150,0|4
122,140,7679,5,0
112,292,7856,2,0,B|184:332|268:300,1,150,2|2
324,256,8385,1,0
324,256,8562,1,0
388,204,8738,2,0,B|360:176|360:116,2,75,0|2|0
472,208,9267,2,0,B|488:292|428:356,1,150,2|2
352,344,9797,6,0,B|260:324,2,75,0|2|4
396,184,10503,1,0
396,184,10679,2,0,B|244:148,1,150,2|2
184,100,11209,2,0,B|236:40|336:60,2,150,0|2|0
128,160,12091,2,0,B|36:140,2,75,2|0|2
196,208,12620,2,0,B|216:264|172:324|172:324|204:364,1,150,2|4
194,351,13326,5,0
194,351,13503,2,0,B|257:302|349:342,1,150,2|2
412,220,14032,2,0,B|349:269|257:229,1,150,0|2
168,104,14738,1,0
108,160,14915,2,0,B|68:240|128:320,1,150,2|2
188,344,15444,1,0
188,344,15797,70,0,B|212:356|212:356|264:312|332:324,1,150,4|0
432,212,16326,2,0,B|460:288|404:356,1,150,2|2
330,327,16856,1,0
330,327,17209,6,0,B|240:292,1,75,0|2
212,168,17562,2,0,B|302:203,2,75,0|2|0
88,60,18267,2,0,B|32:120|56:212,1,150,0|4
96,272,18797,1,2
164,320,18973,2,0,B|256:304,1,75,0|2
237,307,19503,5,2
288,244,19679,1,0
372,236,19856,1,2
448,268,20032,2,0,B|472:280|472:280|520:232|476:152,1,150
420,108,20562,1,2
420,108,20915,5,2
344,138,21091,1,0
264,124,21267,1,2
204,68,21444,2,0,B|260:112|244:184|244:184|220:200,1,150,4|0
156,240,21973,1,2
60,104,22326,70,0,B|132:60,2,75,2|0|2
20,180,22856,2,0,B|-4:268|84:324,1,150
144,340,23385,1,2
256,144,23738,5,0
256,168,23915,1,0
256,192,24091,1,0
256,216,24267,6,0,B|248:252|264:268|256:300,1,75,4|0
258,291,25679,2,0,B|288:316|328:312,1,75,2|0
336,352,26209,2,0,B|280:376|220:352,1,112.5,2|0
128,300,27091,5,4
204,88,27797,1,0
376,232,28503,1,0
408,256,28679,2,0,B|448:240,2,37.5,2|2|2
292,292,29385,69,0
256,316,29562,2,0,B|216:320|176:296,1,75,2|4
64,240,30267,2,0,B|96:220|136:224,1,75,2|0
172,148,30973,53,2
212,264,31326,2,0,B|292:292|360:236,1,150,2|0
384,164,32385,1,2
344,92,32738,6,0,B|296:56|232:64,2,112.5,4|2|0
332,228,34150,2,0,B|256:260,1,75,2|0
252,296,34679,2,0,B|204:264|136:280,1,112.5,2|0
32,336,35562,69,4
120,192,35915,2,0,B|160:148|140:72,1,112.499996647239,0|0
44,232,36620,2,0,B|80:284|168:272,1,112.499996647239
260,228,37326,1,0
356,304,37679,6,0,B|472:292,2,112.499996647239
260,228,38738,1,0
260,228,39091,1,0
152,288,39444,6,0,B|92:304|32:264,2,112.499996647239
204,320,40326,2,0,B|256:292|320:316,1,112.499996647239
368,340,40856,2,0,B|388:376,3,28.1249991618097
368,340,41209,6,0,B|428:356|484:316,1,112.499996647239,4|0
444,228,41738,1,0
352,188,41915,2,0,B|292:172|236:212,1,112.499996647239
336,288,42444,1,0
444,228,42620,86,0,B|460:168|420:112,1,112.499996647239
304,100,43150,1,0
245,207,43326,2,0,B|229:267|269:323,1,112.499996647239
280,112,44032,5,4
160,84,44385,1,0
280,112,44738,1,0
160,216,45091,1,0
280,112,45444,5,0
252,300,45797,2,0,B|316:312,2,56.2499983236194
160,216,46503,1,0
52,340,46856,86,0,B|120:296|208:328,1,150,4|2
276,348,47385,2,0,B|316:288|308:204,1,150,0|0
268,132,47915,1,2
268,132,48268,54,0,B|116:96,1,150,0|2
172,240,48797,2,0,B|324:276,1,150
376,216,49326,2,0,B|408:240|420:280,1,75,2|0
368,340,49679,102,0,B|300:388|216:336,1,150,0|2
164,288,50209,2,0,B|212:220|160:136,1,150
100,96,50738,1,2
88,324,51091,6,0,B|18:353,2,75,0|0|2
164,288,51620,2,0,B|228:312|280:280|280:280|312:308,1,150
368,352,52150,1,2
368,352,52326,1,0
352,204,52503,102,0,B|280:152|196:204,1,150,4|2
140,152,53032,2,0,B|100:156|56:128,2,75
212,108,53562,1,2
212,108,53915,6,0,B|260:176|224:268,1,150,2|2
340,352,54444,2,0,B|292:284|328:192,1,150
368,140,54973,2,0,B|444:124,1,75,2|0
388,264,55326,102,0,B|232:296,1,150,0|2
176,348,55856,2,0,B|136:340|104:284,2,75,2|0|0
241,294,56385,1,2
384,68,56738,6,0,B|404:152|340:212,1,150,0|2
264,216,57268,2,0,B|172:240,2,75
320,280,57797,2,0,B|408:304,1,75,2|0
456,352,58150,6,0,B|501:288|473:208,1,150,4|0
338,137,58679,2,0,B|292:200|320:280,1,150,2|2
376,340,59209,1,0
436,284,59385,1,2
388,216,59562,6,0,B|236:196,1,150,0|0
239,196,60091,2,0,B|184:136|88:156,1,150,2|2
20,264,60620,2,0,B|58:263|87:234,1,75,0|2
152,84,60973,2,0,B|200:152|160:244,1,150,0|0
132,304,61503,2,0,B|196:352,2,75,2|0|2
132,304,62032,1,0
96,144,62385,22,0,B|160:100|244:128,1,150,2|0
312,168,62915,1,2
356,272,63091,1,0
244,260,63268,1,2
312,168,63444,6,0,B|344:188|384:184,1,75,0|0
460,156,63797,1,4
256,192,63885,12,4,66620
256,72,68032,54,0,B|224:120|284:168|252:224,1,150
208,288,68562,1,0
128,308,68738,2,0,B|100:348,2,37.5
208,288,69091,2,0,B|236:320|280:320,1,75
416,276,69444,6,0,B|364:212|264:228,1,150,4|0
204,196,69973,2,0,B|168:172|168:124,2,75,2|0|2
281,226,70503,1,0
240,296,70679,1,2
304,348,70856,2,0,B|368:320|368:248|368:248|396:228,1,150
388,234,71385,1,2
404,152,71562,6,0,B|480:116,2,75,0|2|0
328,116,72091,1,2
158,176,72268,2,0,B|226:228|300:192,1,150,4|0
244,132,72797,2,0,B|196:200|240:292,1,150,2|2
288,336,73326,1,0
444,220,73679,6,0,B|372:176|288:212,1,150
288,336,74209,2,0,B|360:380|444:344,1,150,2|2
480,248,74738,1,0
460,136,74915,1,0
380,60,75091,70,0,B|344:68|308:112,1,75,4|2
376,240,75444,2,0,B|387:204|366:151,1,75,0|2
248,32,75797,2,0,B|204:104|252:184,1,150
296,240,76326,1,2
272,320,76503,2,0,B|352:360,2,75,0|2|0
108,328,77209,6,0,B|28:288,2,75,0|2|0
192,324,77738,1,2
224,248,77915,2,0,B|288:200|380:244,1,150,4|0
412,308,78444,1,2
412,308,78620,1,0
300,332,78797,1,2
300,332,78973,2,0,B|288:296|296:256,1,75,0|2
405,161,79326,6,0,B|433:229|409:317,1,150
336,340,79856,2,0,B|260:368|184:312,1,150,2|0
136,260,80385,1,0
56,180,80562,1,0
136,260,80738,6,0,B|56:288,2,75,4|2|0
220,256,81268,2,0,B|276:188|240:104,1,150,2|2
180,60,81797,1,0
180,60,81973,1,2
90,181,82150,70,0,B|128:172|148:136,2,75,0|2|0
40,248,82679,2,0,B|80:320|192:320,1,150,2|2
244,348,83209,2,0,B|320:324,1,75,0|2
392,196,83562,6,0,B|316:220,2,75,4|2|0
428,120,84091,2,0,B|368:68|288:96,1,150,2|2
160,176,84620,2,0,B|196:192|240:168,1,75,0|2
100,96,84973,6,0,B|48:160|88:252,1,150,4|0
412,288,85679,2,0,B|464:224|424:132,1,150,4|0
188,104,86385,6,0,B|260:64,1,75,4|2
336,72,86738,1,0
392,132,86915,2,0,B|408:228|312:256,1,150,2|2
248,276,87444,1,0
248,276,87797,70,0,B|160:256,1,75,2|2
116,204,88150,1,0
196,192,88326,2,0,B|236:260|196:344,1,150,2|2
116,348,88856,1,0
116,348,89209,5,4
44,280,89385,1,2
36,184,89562,1,0
76,96,89738,2,0,B|140:48|224:72,1,150,2|0
328,176,90268,6,0,B|288:188|240:164,1,75
196,256,90620,2,0,B|236:244|284:268,1,75,0|0
400,172,90973,2,0,B|360:160|326:177,1,75
124,260,91326,5,0
52,172,91503,1,0
104,72,91679,1,0
104,72,92032,70,0,B|184:40|256:100,1,150,4|0
324,64,92562,2,0,B|336:104|312:152,1,75
252,184,92915,1,0
184,232,93091,2,0,B|172:272|196:320,1,75
304,236,93444,6,0,B|320:168|276:120|276:120|296:80,1,150
360,60,93973,1,2
432,100,94150,2,0,B|448:136|428:176,1,75,0|2
384,244,94503,1,0
384,244,94856,6,0,B|300:212|232:276,1,150,4|0
180,320,95385,2,0,B|200:356|248:372,2,75,2|0|2
96,324,95915,2,0,B|96:284|132:244,1,75,0|2
220,128,96268,6,0,B|232:196|200:240|200:240|236:264,1,150
340,264,96797,2,0,B|307:190|219:186,1,150,2|2
144,212,97326,2,0,B|112:240|56:228,1,75,0|0
16,108,97679,70,0,B|80:56|180:92,1,150,4|0
220,144,98209,2,0,B|216:184|240:228,2,75,2|0|2
260,72,98738,2,0,B|180:36|108:96,1,150
100,168,99268,1,2
40,224,99444,2,0,B|52:264|92:288,1,75,0|2
160,312,99797,6,0,B|228:264|316:312,1,150
352,72,100503,2,0,B|284:120|196:72,1,150,4|0
140,120,101032,2,0,B|100:116|56:132,2,75,2|0|2
200,176,101562,2,0,B|196:216|170:244,1,75,0|2
96,284,101915,6,0,B|160:268|212:312|212:312|248:288,1,150
312,272,102444,2,0,B|332:308|328:356,2,75,2|0|2
276,196,102973,2,0,B|336:148|436:180,2,150,0|4|0
192,184,103856,2,0,B|152:188|104:152,2,75,2|0|2
320,96,104385,6,0,B|240:64|168:112,2,150,0|2|0
360,168,105268,1,2
352,252,105444,1,0
312,324,105620,1,2
232,348,105797,1,0
152,328,105973,1,2
88,276,106150,70,0,B|36:216|64:124,1,150,4|0
204,108,106679,2,0,B|256:168|228:260,1,150,2|2
168,300,107209,1,0
168,300,107385,1,2
88,276,107562,6,0,B|152:228|240:252,1,150
300,208,108091,2,0,B|320:248|304:296,1,75,2|0
240,328,108444,1,2
240,328,108620,2,0,B|312:384|384:320,2,150,0|4|0
184,268,109503,1,2
184,268,109856,6,0,B|156:240|112:236,1,75,2|0
56,360,110209,2,0,B|94:349|116:318,1,75,2|0
84,156,110738,1,0
84,156,110915,2,0,B|136:108|204:132|204:132|228:104,1,150,2|2
356,56,111444,6,0,B|313:117,1,75,0|2
320,200,111797,2,0,B|360:280|464:256,1,150,4|0
488,188,112326,1,2
488,188,112679,69,0
445,260,112856,1,0
372,300,113032,1,0
292,316,113209,2,0,B|228:260|136:300,1,150,2|0
84,176,113738,6,0,B|116:200|156:196,1,75
252,180,114091,1,0
272,84,114268,1,0
184,44,114444,1,0
112,108,114620,5,4
112,108,116032,2,0,B|184:76|268:164|332:120,2,224.999993294478,2|0|0
40,240,118856,1,2
224,300,120560,5,2
264,316,120900,1,0
308,320,121241,1,0
352,304,121582,1,0
396,192,121923,70,0,B|472:164,2,75,2|0|0
296,220,123031,1,0
196,200,123457,1,4
