osu file format v9

[General]
AudioFilename: Tsukiko - EVERLASTING BLUE.mp3
AudioLeadIn: 2000
PreviewTime: 68032
Countdown: 0
SampleSet: Normal
StackLeniency: 0.7
Mode: 0
LetterboxInBreaks: 0

[Editor]
DistanceSpacing: 1
BeatDivisor: 4
GridSize: 4

[Metadata]
Title:EVERLASTING BLUE (Short Ver.)
Artist:Tsukiko
Creator:Kitsuneko
Version:Normal
Source:AQUA
Tags:SORAHANE TINKERBELL SOUND LABEL visual novel eroge hentai game opening Ryafuka kusano

[Difficulty]
HPDrainRate:4
CircleSize:3
OverallDifficulty:4
ApproachRate:5
SliderMultiplier:1
SliderTickRate:1

[Events]
//Background and Video events
0,0,"AQUA_BG.jpg"
Video,268,"AQUA_OP.avi"
//Break Periods
//Storyboard Layer 0 (Background)
//Storyboard Layer 1 (Fail)
//Storyboard Layer 2 (Pass)
//Storyboard Layer 3 (Foreground)
//Storyboard Sound Samples
//Background Colour Transformations
3,100,163,162,255

[TimingPoints]
268,352.941176470588,4,1,1,50,1,0
1679,-100,4,2,1,70,0,0
2032,-100,4,1,1,60,0,0
2120,-100,4,2,1,60,0,0
2738,-100,4,1,1,60,0,0
2826,-100,4,2,1,60,0,0
3444,-100,4,1,1,60,0,0
3532,-100,4,2,1,60,0,0
4150,-100,4,1,1,60,0,0
4238,-100,4,2,1,60,0,0
4856,-100,4,1,1,60,0,0
4944,-100,4,2,1,60,0,0
5562,-100,4,1,1,60,0,0
5650,-100,4,2,1,60,0,0
6267,-100,4,1,1,60,0,0
6356,-100,4,2,1,60,0,0
6973,-100,4,1,1,60,0,0
7062,-100,4,2,1,60,0,0
7679,-100,4,1,1,60,0,0
7767,-100,4,2,1,60,0,0
8385,-100,4,1,1,60,0,0
8473,-100,4,2,1,60,0,0
9091,-100,4,1,1,60,0,0
9179,-100,4,2,1,60,0,0
9797,-100,4,1,1,60,0,0
9885,-100,4,2,1,60,0,0
10503,-100,4,1,1,60,0,0
10591,-100,4,2,1,60,0,0
11209,-100,4,1,1,60,0,0
11297,-100,4,2,1,66,0,0
11915,-100,4,1,1,60,0,0
12003,-100,4,2,1,60,0,0
12267,-100,4,2,1,66,0,0
13326,-100,4,1,1,60,0,0
13415,-100,4,2,1,60,0,0
14032,-100,4,1,1,60,0,0
14120,-100,4,2,2,60,0,0
14738,-100,4,1,1,60,0,0
14826,-100,4,2,1,60,0,0
15444,-100,4,1,1,60,0,0
15532,-100,4,2,1,70,0,0
16150,-100,4,1,1,60,0,0
16238,-100,4,2,1,60,0,0
16856,-100,4,1,1,60,0,0
16944,-100,4,2,2,60,0,0
17562,-100,4,1,1,60,0,0
17650,-100,4,2,1,60,0,0
18267,-100,4,1,1,60,0,0
18356,-100,4,2,1,60,0,0
21091,-100,4,1,1,50,0,0
21444,-100,4,2,2,60,0,0
21532,-100,4,1,1,60,0,0
24267,-100,4,2,2,70,0,0
24356,-100,4,2,1,40,0,0
35562,-100,4,2,1,50,0,0
35915,-100,4,1,1,50,0,0
36003,-100,4,2,1,50,0,0
36620,-100,4,1,1,50,0,0
36709,-100,4,2,1,50,0,0
37326,-100,4,1,1,50,0,0
37415,-100,4,2,1,50,0,0
38032,-100,4,1,1,50,0,0
38120,-100,4,2,1,50,0,0
38738,-100,4,1,1,50,0,0
38826,-100,4,2,1,50,0,0
39444,-100,4,1,1,50,0,0
39532,-100,4,2,1,50,0,0
40150,-100,4,1,1,50,0,0
40238,-100,4,2,1,50,0,0
40856,-100,4,1,1,50,0,0
41209,-100,4,2,1,50,0,0
41562,-100,4,1,1,50,0,0
41650,-100,4,2,1,50,0,0
42267,-100,4,1,1,50,0,0
42356,-100,4,2,1,50,0,0
42973,-100,4,1,1,50,0,0
43062,-100,4,2,1,50,0,0
43679,-100,4,1,1,50,0,0
43767,-100,4,2,2,50,0,0
44385,-100,4,1,1,50,0,0
44473,-100,4,2,1,50,0,0
45091,-100,4,1,1,50,0,0
45179,-100,4,2,1,50,0,0
45797,-100,4,1,1,50,0,0
45885,-100,4,2,1,66,0,0
46326,-100,4,1,1,66,0,0
46591,-100,4,2,1,60,0,0
47562,-100,4,1,1,60,0,0
47650,-100,4,2,1,60,0,0
48973,-100,4,1,1,60,0,0
49062,-100,4,2,1,60,0,0
50385,-100,4,1,1,60,0,0
50473,-100,4,2,1,60,0,0
51267,-100,4,1,1,60,0,0
51356,-100,4,2,1,60,0,0
51797,-100,4,1,1,60,0,0
51885,-100,4,2,1,60,0,0
53209,-100,4,1,1,60,0,0
53297,-100,4,2,1,60,0,0
54091,-100,4,1,1,60,0,0
54179,-100,4,2,1,60,0,0
54620,-100,4,1,1,60,0,0
54709,-100,4,2,1,60,0,0
56032,-100,4,1,1,60,0,0
56120,-100,4,2,1,60,0,0
56562,-100,4,1,1,60,0,0
57003,-100,4,2,1,60,0,0
57444,-100,4,1,1,60,0,0
57532,-100,4,2,1,60,0,0
57797,-100,4,2,1,60,0,0
58150,-100,4,2,1,66,0,0
58503,-100,4,1,1,66,0,0
58591,-100,4,2,1,66,0,0
59209,-100,4,1,1,66,0,0
59297,-100,4,2,1,66,0,0
59915,-100,4,1,1,66,0,0
60003,-100,4,2,1,66,0,0
60620,-100,4,1,1,66,0,0
60709,-100,4,2,1,66,0,0
61326,-100,4,1,1,66,0,0
61415,-100,4,2,1,66,0,0
62032,-100,4,1,1,66,0,0
62120,-100,4,2,1,66,0,0
62738,-100,4,1,1,66,0,0
62826,-100,4,2,1,66,0,0
63444,-100,4,1,1,66,0,0
63532,-100,4,2,1,60,0,0
66620,-100,4,2,2,66,0,0
68032,-100,4,1,1,70,0,0
69091,-100,4,1,1,66,0,0
69444,-100,4,2,1,70,0,1
69797,-100,4,1,1,70,0,1
69885,-100,4,2,1,70,0,1
70503,-100,4,1,1,70,0,1
70591,-100,4,2,1,70,0,1
71209,-100,4,1,1,70,0,1
71297,-100,4,2,1,70,0,1
71915,-100,4,1,1,70,0,1
72003,-100,4,2,1,70,0,1
72620,-100,4,1,1,70,0,1
72709,-100,4,2,1,70,0,1
73326,-100,4,1,1,70,0,1
73415,-100,4,2,1,70,0,1
74032,-100,4,1,1,70,0,1
74120,-100,4,2,1,70,0,1
74738,-100,4,1,1,70,0,1
74826,-100,4,2,1,70,0,1
75444,-100,4,1,1,70,0,1
75532,-100,4,2,1,70,0,1
76150,-100,4,1,1,70,0,1
76238,-100,4,2,1,70,0,1
76856,-100,4,1,1,70,0,1
76944,-100,4,2,1,70,0,1
77562,-100,4,1,1,70,0,1
77650,-100,4,2,1,70,0,1
78267,-100,4,1,1,70,0,1
78356,-100,4,2,1,70,0,1
78973,-100,4,1,1,70,0,1
79062,-100,4,2,1,70,0,1
79679,-100,4,1,1,70,0,1
79767,-100,4,2,1,70,0,1
80385,-100,4,1,1,70,0,1
80738,-100,4,2,1,70,0,1
81091,-100,4,1,1,70,0,1
81179,-100,4,2,1,70,0,1
81797,-100,4,1,1,70,0,1
81885,-100,4,2,1,70,0,1
82503,-100,4,1,1,70,0,1
82591,-100,4,2,1,70,0,1
83209,-100,4,1,1,70,0,1
83297,-100,4,2,1,70,0,1
83915,-100,4,1,1,70,0,1
84003,-100,4,2,1,70,0,1
84620,-100,4,1,1,70,0,1
84709,-100,4,2,1,70,0,1
84973,-100,4,2,2,70,0,1
85326,-100,4,1,1,70,0,1
85415,-100,4,2,2,80,0,1
86032,-100,4,1,1,70,0,1
86120,-100,4,2,1,60,0,1
88856,-100,4,1,1,50,0,1
89209,-100,4,2,1,70,0,1
89738,-100,4,1,1,65,0,1
89826,-100,4,2,1,66,0,1
90620,-100,4,2,1,70,0,1
91150,-100,4,1,1,65,0,1
91238,-100,4,2,1,66,0,1
92032,-100,4,2,1,70,0,1
92385,-100,4,1,1,70,0,1
92473,-100,4,2,1,70,0,1
93091,-100,4,1,1,70,0,1
93179,-100,4,2,1,70,0,1
93797,-100,4,1,1,70,0,1
93885,-100,4,2,1,70,0,1
94503,-100,4,1,1,70,0,1
94591,-100,4,2,1,70,0,1
95209,-100,4,1,1,70,0,1
95297,-100,4,2,1,70,0,1
95915,-100,4,1,1,70,0,1
96003,-100,4,2,1,70,0,1
96620,-100,4,1,1,70,0,1
96709,-100,4,2,1,70,0,1
97326,-100,4,1,1,70,0,1
97415,-100,4,2,1,70,0,1
98032,-100,4,1,1,70,0,1
98120,-100,4,2,1,70,0,1
98738,-100,4,1,1,70,0,1
98826,-100,4,2,1,70,0,1
99444,-100,4,1,1,70,0,1
99532,-100,4,2,1,70,0,1
100150,-100,4,1,1,70,0,1
100238,-100,4,2,1,70,0,1
100856,-100,4,1,1,70,0,1
100944,-100,4,2,1,70,0,1
101562,-100,4,1,1,70,0,1
101650,-100,4,2,1,70,0,1
102267,-100,4,1,1,70,0,1
102356,-100,4,2,1,70,0,1
102973,-100,4,1,1,70,0,1
103326,-100,4,2,1,70,0,1
103679,-100,4,1,1,70,0,1
103767,-100,4,2,1,70,0,1
104385,-100,4,1,1,70,0,1
104473,-100,4,2,2,70,0,1
105091,-100,4,1,1,70,0,1
105179,-100,4,2,1,70,0,1
105797,-100,4,1,1,70,0,1
105885,-100,4,2,1,70,0,1
106503,-100,4,1,1,70,0,1
106591,-100,4,2,1,70,0,1
107209,-100,4,1,1,70,0,1
107297,-100,4,2,1,70,0,1
107915,-100,4,1,1,70,0,1
108003,-100,4,2,1,70,0,1
108620,-100,4,1,1,70,0,1
108709,-100,4,2,1,70,0,1
108973,-100,4,2,1,60,0,1
111444,-100,4,1,1,60,0,1
111532,-100,4,2,1,70,0,1
114267,-100,4,1,1,80,0,1
114356,-100,4,2,1,80,0,1
114620,-100,4,2,2,60,0,0
114709,-100,4,2,2,30,0,0
116120,-100,4,2,2,5,0,0
116738,-100,4,2,2,20,0,0
116826,-100,4,2,2,5,0,0
117444,-100,4,2,2,20,0,0
118856,426.136363636364,4,2,2,20,1,0
120560,681.818181818182,4,2,2,20,1,0

[Colours]
Combo1 : 68,71,196
Combo2 : 84,200,224
Combo3 : 18,123,228
Combo4 : 88,164,220
Combo5 : 234,234,234
Combo6 : 236,201,34
Combo7 : 242,136,66
Combo8 : 138,96,189

[HitObjects]
360,304,268,2,0,B|428:324|448:272|508:288,2,150
264,332,1679,5,4
192,264,2032,2,0,B|104:328|0:292,2,200
256,188,3797,2,0,B|364:188,1,100,2|0
448,148,4503,5,4
404,60,4856,2,0,B|308:104|208:60,1,200
112,84,5915,2,0,B|8:108,1,100,2|0
16,208,6620,2,0,B|120:184,1,100,2|0
212,164,7326,5,4
304,200,7679,2,0,B|324:252|300:304,2,100,0|2|0
380,136,8738,2,0,B|484:152,1,100,2|0
512,248,9444,1,2
444,320,9797,1,0
360,268,10150,69,4
292,340,10503,2,0,B|188:376|100:316,1,200
80,220,11562,5,4
176,244,11915,2,0,B|232:232,1,50,0|2
256,140,12444,2,0,B|196:124,1,50,0|2
136,56,12973,5,4
36,76,13326,2,0,B|-4:188|68:264,1,200
112,352,14385,2,0,B|220:328,1,100,4|0
288,272,15091,1,2
364,336,15444,1,0
452,284,15797,5,4
384,208,16150,2,0,B|280:232|192:156,1,200
220,64,17209,1,4
124,36,17562,2,0,B|72:48|72:48|48:88,2,100,0|2|0
256,192,18620,12,0,21091
184,316,21444,102,0,B|124:304,1,50,4|0
136,208,21973,2,0,B|76:196,1,50,0|0
56,104,22503,6,0,B|105:94,1,50,0|0
200,124,23032,2,0,B|249:114,1,50
328,52,23562,70,0,B|381:44|424:68,2,100,0|0|4
200,320,25679,6,0,B|108:376|0:340,2,200,2|2|4
432,72,28679,6,0,B|492:80,2,50,0|2|0
348,128,29385,2,0,B|288:120,2,50,0|2|0
388,156,29915,6,0,B|412:232|360:312,1,150,4|2
232,352,30973,1,2
144,304,31326,2,0,B|100:332|40:320,1,100,0|2
36,220,32032,2,0,B|80:192|140:204,1,100,0|2
224,244,32738,6,0,B|384:244,2,150,4|2|2
144,304,34150,1,0
48,272,34503,2,0,B|-4:252,1,50,0|2
40,160,35032,2,0,B|92:180,1,50,0|2
184,212,35562,5,4
256,144,35915,2,0,B|356:184|456:144,1,200
504,232,36973,2,0,B|516:288|484:336,1,100,0|0
396,364,37679,1,0
316,304,38032,2,0,B|272:284|216:300,1,100,0|4
128,340,38738,86,0,B|44:264|80:156,1,200
116,64,39797,2,0,B|220:48,1,100,0|0
296,104,40503,1,0
388,68,40856,2,0,B|440:84,2,50,0|0|4
380,168,41562,6,0,B|408:216|388:272,2,100,0|0|0
288,204,42620,2,0,B|244:176|188:188,1,100,0|0
100,224,43326,2,0,B|48:208,2,50,0|0|0
76,320,44032,6,0,B|128:332|168:296,1,100,4|0
248,360,44738,2,0,B|284:320|276:264,1,100,0|0
340,188,45444,2,0,B|392:200|392:200|416:240,2,100,0|0|0
240,172,46503,1,0
160,232,46856,86,0,B|152:308|56:332|8:264,1,200,4|0
12,168,47915,1,2
108,144,48268,2,0,B|320:180,1,200,0|0
360,264,49326,2,0,B|412:280|460:252,1,100,2|4
452,100,50209,54,0,B|400:92,1,50
312,132,50738,1,2
256,48,51091,2,0,B|204:80,1,50
116,56,51620,2,0,B|96:112,1,50,0|0
20,164,52150,1,2
56,256,52503,102,0,B|140:324|244:284,1,200,4|0
300,200,53562,1,2
252,112,53915,2,0,B|192:96,1,50,0|0
140,176,54444,2,0,B|80:160,1,50,0|0
8,220,54973,1,2
24,320,55326,6,0,B|124:364|212:296,1,200,4|0
236,200,56385,1,2
220,152,56562,2,0,B|160:136,2,50
296,88,57268,2,0,B|356:104,1,50,0|0
444,124,57797,1,2
488,212,58150,6,0,B|496:264|464:312,1,100,4|0
380,356,58856,2,0,B|333:379|277:364,1,100,2|0
188,332,59562,2,0,B|150:294|148:236,1,100,2|0
220,172,60268,2,0,B|332:196,1,100,2|0
404,140,60973,5,4
364,48,61326,2,0,B|280:100|168:64,1,200
80,104,62385,2,0,B|52:152|72:200,1,100,2|0
76,300,63091,2,0,B|188:324,1,100,2|0
256,192,63797,12,4,66620
156,296,68032,5,0
64,252,68385,2,0,B|4:264,1,50,0|0
16,160,68915,2,0,B|76:148,1,50,0|0
152,196,69444,5,4
216,120,69797,2,0,B|308:104|324:172|412:152,2,200
148,48,71562,2,0,B|28:68,1,100,2|0
16,160,72268,69,4
32,260,72620,2,0,B|112:336|216:308,1,200
188,212,73679,2,0,B|240:204|284:228,1,100,2|0
356,156,74385,2,0,B|396:192|384:248,1,100,2|0
320,324,75091,5,4
220,308,75444,2,0,B|144:244|160:124,1,200
216,44,76503,2,0,B|272:28|272:28|316:44,1,100,2|0
380,116,77209,2,0,B|440:124|480:88,2,100,2|0|4
304,180,78268,2,0,B|204:148|112:212,1,200
24,168,79326,5,2
52,72,79679,2,0,B|100:84|100:84|148:60,1,100,0|2
244,40,80385,2,0,B|296:52,2,50,0|0|4
224,140,81091,6,0,B|252:244|204:340,1,200
108,348,82150,1,2
12,320,82503,2,0,B|-16:216|32:120,1,200
128,100,83562,69,4
220,136,83915,2,0,B|280:120,1,50,0|2
356,72,84444,2,0,B|416:88,1,50,2|0
432,180,84973,6,0,B|444:232|412:276,1,100,4|0
332,216,85679,2,0,B|292:252|238:246,1,100,4|0
256,192,86385,12,0,88856
160,112,89209,6,0,B|96:64|8:84,2,150,4|0|6
256,144,90620,2,0,B|329:112|356:26,2,150,4|0|4
176,204,92032,5,4
204,300,92385,2,0,B|344:316|344:316|404:280,2,200
112,340,94150,2,0,B|60:360|16:328,1,100,2|0
76,248,94856,69,4
40,156,95209,2,0,B|140:116|232:172,1,200
248,272,96268,2,0,B|352:248,1,100,2|0
384,340,96973,2,0,B|488:316,1,100,2|0
504,220,97679,5,4
444,140,98032,2,0,B|348:180|252:124,1,200
192,44,99091,2,0,B|88:68,1,100,2|0
96,168,99797,2,0,B|40:172|8:124,2,100,2|0|4
184,212,100856,2,0,B|276:192|292:252|380:232,1,200
452,160,101915,5,2
428,64,102268,2,0,B|372:88,1,50,0|2
288,44,102797,2,0,B|268:104,1,50,2|0
292,188,103326,5,4
256,280,103679,2,0,B|172:348|64:308,1,200
16,224,104738,2,0,B|48:180|36:128,1,100,4|0
136,148,105444,2,0,B|141:93|105:54,2,100,2|0|4
124,248,106503,70,0,B|184:268,1,50,0|2
240,336,107032,2,0,B|296:320,1,50,2|0
336,236,107562,2,0,B|440:264,1,100,2|0
456,164,108268,2,0,B|352:136,1,100,2|0
256,192,108973,12,0,111444
172,136,111797,6,0,B|140:212|188:280,1,150,4|4
336,252,112856,2,0,B|368:176|320:108,1,150,4|4
172,136,113915,2,0,B|124:148|124:148|76:128,2,100,4|0|4
296,316,116032,6,0,B|392:368|492:316,2,200,2|2|0
256,192,118856,1,2
216,68,120560,6,0,B|152:56,1,50,2|0
124,84,121241,2,0,B|60:72,1,50,0|0
64,124,121923,70,0,B|128:136,1,50,2|0
140,176,122605,2,0,B|204:188,2,62.5,0|0|4
