osu file format v9

[General]
AudioFilename: Tsukiko - EVERLASTING BLUE.mp3
AudioLeadIn: 2000
PreviewTime: 68032
Countdown: 0
SampleSet: Soft
StackLeniency: 0.7
Mode: 0
LetterboxInBreaks: 0

[Editor]
Bookmarks: 114620
DistanceSpacing: 1.2
BeatDivisor: 4
GridSize: 4

[Metadata]
Title:EVERLASTING BLUE (Short Ver.)
Artist:Tsukiko
Creator:Kitsuneko
Version:LUKAS
Source:AQUA
Tags:SORAHANE TINKERBELL SOUND LABEL visual novel eroge hentai game opening Ryafuka kusano

[Difficulty]
HPDrainRate:7
CircleSize:4
OverallDifficulty:8
ApproachRate:9
SliderMultiplier:2
SliderTickRate:1

[Events]
//Background and Video events
0,0,"AQUA_BG.jpg"
Video,268,"AQUA_OP.avi"
//Break Periods
//Storyboard Layer 0 (Background)
//Storyboard Layer 1 (Fail)
//Storyboard Layer 2 (Pass)
//Storyboard Layer 3 (Foreground)
//Storyboard Sound Samples
//Background Colour Transformations
3,100,163,162,255

[TimingPoints]
268,352.941176470588,4,1,1,50,1,0
1679,-100,4,2,1,70,0,0
1767,-100,4,2,1,60,0,0
2032,-100,4,1,1,60,0,0
2120,-100,4,2,1,60,0,0
2738,-100,4,1,1,60,0,0
2826,-100,4,2,1,60,0,0
3444,-100,4,1,1,60,0,0
3532,-100,4,2,1,60,0,0
4150,-100,4,1,1,60,0,0
4238,-100,4,2,1,60,0,0
4856,-100,4,1,1,60,0,0
4944,-100,4,2,1,60,0,0
5562,-100,4,1,1,60,0,0
5650,-100,4,2,1,60,0,0
6267,-100,4,1,1,60,0,0
6356,-100,4,2,1,60,0,0
6973,-100,4,1,1,60,0,0
7062,-100,4,2,1,60,0,0
7679,-100,4,1,1,60,0,0
7767,-100,4,2,1,60,0,0
8385,-100,4,1,1,60,0,0
8473,-100,4,2,1,60,0,0
9091,-100,4,1,1,60,0,0
9179,-100,4,2,1,60,0,0
9797,-100,4,1,1,60,0,0
9885,-100,4,2,1,60,0,0
10503,-100,4,1,1,60,0,0
10591,-100,4,2,1,60,0,0
11209,-100,4,1,1,60,0,0
11297,-100,4,2,1,60,0,0
11562,-100,4,2,1,70,0,0
11650,-100,4,2,1,60,0,0
12091,-100,4,2,1,70,0,0
12179,-100,4,2,1,60,0,0
12620,-100,4,2,1,70,0,0
12709,-100,4,1,1,60,0,0
12973,-100,4,2,1,60,0,0
13326,-100,4,1,1,60,0,0
13415,-100,4,2,1,60,0,0
14032,-100,4,1,1,60,0,0
14120,-100,4,2,1,60,0,0
14385,-100,4,2,2,60,0,0
14738,-100,4,1,1,60,0,0
14826,-100,4,2,1,60,0,0
15444,-100,4,1,1,60,0,0
15532,-100,4,2,1,60,0,0
15797,-100,4,2,1,70,0,0
15885,-100,4,2,1,60,0,0
16150,-100,4,1,1,60,0,0
16238,-100,4,2,1,60,0,0
16856,-100,4,1,1,60,0,0
16944,-100,4,2,1,60,0,0
17209,-100,4,2,2,50,0,0
17297,-100,4,2,1,60,0,0
17562,-100,4,1,1,60,0,0
17650,-100,4,2,1,60,0,0
18267,-100,4,1,1,60,0,0
18356,-100,4,2,1,60,0,0
18973,-100,4,1,1,60,0,0
19062,-100,4,2,1,60,0,0
19679,-100,4,1,1,60,0,0
19767,-100,4,2,1,60,0,0
20385,-100,4,1,1,60,0,0
20473,-100,4,2,1,60,0,0
21091,-100,4,1,1,50,0,0
21444,-100,4,1,1,60,0,0
24267,-200,4,2,2,70,0,0
24356,-200,4,2,1,40,0,0
35562,-100,4,2,1,50,0,0
35915,-100,4,1,1,50,0,0
36003,-100,4,2,1,50,0,0
36620,-100,4,1,1,50,0,0
36709,-100,4,2,1,50,0,0
37326,-100,4,1,1,50,0,0
37415,-100,4,2,1,50,0,0
38032,-100,4,1,1,50,0,0
38120,-100,4,2,1,50,0,0
38738,-100,4,1,1,50,0,0
38826,-100,4,2,1,50,0,0
39444,-100,4,1,1,50,0,0
39532,-100,4,2,1,50,0,0
40150,-100,4,1,1,50,0,0
40238,-100,4,2,1,50,0,0
40856,-100,4,1,1,50,0,0
41209,-100,4,2,1,50,0,0
41562,-100,4,1,1,50,0,0
41650,-100,4,2,1,50,0,0
42267,-100,4,1,1,50,0,0
42356,-100,4,2,1,50,0,0
42973,-100,4,1,1,50,0,0
43062,-100,4,2,1,50,0,0
43679,-100,4,1,1,50,0,0
43767,-100,4,2,1,50,0,0
44032,-100,4,2,2,50,0,0
44385,-100,4,1,1,50,0,0
44473,-100,4,2,1,50,0,0
45091,-100,4,1,1,50,0,0
45179,-100,4,2,1,50,0,0
45797,-100,4,1,1,50,0,0
45885,-100,4,2,1,50,0,0
46150,-100,4,2,1,66,0,0
46326,-100,4,1,1,46,0,0
46503,-100,4,1,1,56,0,0
46856,-133.333333333333,4,2,1,60,0,0
47562,-133.333333333333,4,1,1,60,0,0
47650,-133.333333333333,4,2,1,60,0,0
48973,-133.333333333333,4,1,1,60,0,0
49062,-133.333333333333,4,2,1,60,0,0
50385,-133.333333333333,4,1,1,60,0,0
50473,-133.333333333333,4,2,1,60,0,0
51267,-133.333333333333,4,1,1,60,0,0
51356,-133.333333333333,4,2,1,60,0,0
51797,-133.333333333333,4,1,1,60,0,0
51885,-133.333333333333,4,2,1,60,0,0
53209,-133.333333333333,4,1,1,60,0,0
53297,-133.333333333333,4,2,1,60,0,0
54091,-133.333333333333,4,1,1,60,0,0
54179,-133.333333333333,4,2,1,60,0,0
54620,-133.333333333333,4,1,1,60,0,0
54709,-133.333333333333,4,2,1,60,0,0
56032,-133.333333333333,4,1,1,60,0,0
56120,-133.333333333333,4,2,1,60,0,0
56562,-133.333333333333,4,1,1,60,0,0
57003,-133.333333333333,4,2,1,60,0,0
57444,-133.333333333333,4,1,1,60,0,0
57532,-133.333333333333,4,2,1,60,0,0
58150,-100,4,2,1,66,0,0
58503,-100,4,1,1,66,0,0
58591,-100,4,2,1,66,0,0
59209,-100,4,1,1,66,0,0
59297,-100,4,2,1,66,0,0
59915,-100,4,1,1,66,0,0
60003,-100,4,2,1,66,0,0
60620,-100,4,1,1,66,0,0
60709,-100,4,2,1,66,0,0
61326,-100,4,1,1,66,0,0
61415,-100,4,2,1,66,0,0
62032,-100,4,1,1,66,0,0
62120,-100,4,2,1,66,0,0
62738,-100,4,1,1,66,0,0
62826,-100,4,2,1,66,0,0
63444,-100,4,1,1,66,0,0
63797,-100,4,2,1,66,0,0
64150,-100,4,1,1,66,0,0
64238,-100,4,2,1,66,0,0
64856,-100,4,1,1,66,0,0
64944,-100,4,2,1,66,0,0
65209,-100,4,2,2,66,0,0
65297,-100,4,2,1,66,0,0
65562,-100,4,1,1,66,0,0
65650,-100,4,2,1,66,0,0
66267,-100,4,1,1,66,0,0
66356,-100,4,2,1,66,0,0
66620,-100,4,2,2,66,0,0
66973,-100,4,1,1,66,0,0
67062,-100,4,2,1,66,0,0
67679,-100,4,1,1,66,0,0
67767,-100,4,2,1,66,0,0
68032,-100,4,1,1,70,0,0
69091,-100,4,1,1,66,0,0
69444,-100,4,2,1,70,0,1
69797,-100,4,1,1,70,0,1
69885,-100,4,2,1,70,0,1
70503,-100,4,1,1,70,0,1
70591,-100,4,2,1,70,0,1
71209,-100,4,1,1,70,0,1
71297,-100,4,2,1,70,0,1
71915,-100,4,1,1,70,0,1
72003,-100,4,2,1,70,0,1
72620,-100,4,1,1,70,0,1
72709,-100,4,2,1,70,0,1
73326,-100,4,1,1,70,0,1
73415,-100,4,2,1,70,0,1
74032,-100,4,1,1,70,0,1
74120,-100,4,2,1,70,0,1
74738,-100,4,1,1,70,0,1
75091,-100,4,2,1,70,0,1
75444,-100,4,1,1,70,0,1
75532,-100,4,2,1,70,0,1
76150,-100,4,1,1,70,0,1
76238,-100,4,2,1,70,0,1
76856,-100,4,1,1,70,0,1
76944,-100,4,2,1,70,0,1
77562,-100,4,1,1,70,0,1
77650,-100,4,2,1,70,0,1
78267,-100,4,1,1,70,0,1
78356,-100,4,2,1,70,0,1
78973,-100,4,1,1,70,0,1
79062,-100,4,2,1,70,0,1
79679,-100,4,1,1,70,0,1
79767,-100,4,2,1,70,0,1
80385,-100,4,1,1,70,0,1
80738,-100,4,2,1,70,0,1
81091,-100,4,1,1,70,0,1
81179,-100,4,2,1,70,0,1
81797,-100,4,1,1,70,0,1
81885,-100,4,2,1,70,0,1
82503,-100,4,1,1,70,0,1
82591,-100,4,2,1,70,0,1
83209,-100,4,1,1,70,0,1
83297,-100,4,2,1,70,0,1
83915,-100,4,1,1,70,0,1
84003,-100,4,2,1,70,0,1
84620,-100,4,1,1,70,0,1
84709,-100,4,2,1,70,0,1
84973,-100,4,2,2,70,0,1
85326,-100,4,1,1,70,0,1
85415,-100,4,2,2,80,0,1
86032,-100,4,1,1,70,0,1
86120,-100,4,2,1,60,0,1
88856,-100,4,1,1,50,0,1
89209,-100,4,2,1,70,0,1
89562,-100,4,1,1,70,0,1
89650,-100,4,2,1,70,0,1
90091,-100,4,1,1,70,0,1
90179,-100,4,2,1,70,0,1
90356,-100,4,1,1,70,0,1
90620,-100,4,2,1,80,0,1
90709,-100,4,1,1,70,0,1
91150,-100,4,2,1,80,0,1
91238,-100,4,1,1,70,0,1
91679,-100,4,2,1,80,0,1
91767,-100,4,1,1,70,0,1
92032,-100,4,2,1,70,0,1
92385,-100,4,1,1,70,0,1
92473,-100,4,2,1,70,0,1
93091,-100,4,1,1,70,0,1
93179,-100,4,2,1,70,0,1
93797,-100,4,1,1,70,0,1
93885,-100,4,2,1,70,0,1
94503,-100,4,1,1,70,0,1
94591,-100,4,2,1,70,0,1
95209,-100,4,1,1,70,0,1
95297,-100,4,2,1,70,0,1
95915,-100,4,1,1,70,0,1
96003,-100,4,2,1,70,0,1
96620,-100,4,1,1,70,0,1
96709,-100,4,2,1,70,0,1
97326,-100,4,1,1,70,0,1
97679,-100,4,2,1,70,0,1
98032,-100,4,1,1,70,0,1
98120,-100,4,2,1,70,0,1
98738,-100,4,1,1,70,0,1
98826,-100,4,2,1,70,0,1
99444,-100,4,1,1,70,0,1
99532,-100,4,2,1,70,0,1
100150,-100,4,1,1,70,0,1
100238,-100,4,2,1,70,0,1
100856,-100,4,1,1,70,0,1
100944,-100,4,2,1,70,0,1
101562,-100,4,1,1,70,0,1
101650,-100,4,2,1,70,0,1
102267,-100,4,1,1,70,0,1
102356,-100,4,2,1,70,0,1
102973,-100,4,1,1,70,0,1
103326,-100,4,2,1,70,0,1
103679,-100,4,1,1,70,0,1
103767,-100,4,2,1,70,0,1
104385,-100,4,1,1,70,0,1
104473,-100,4,2,2,70,0,1
105091,-100,4,1,1,70,0,1
105179,-100,4,2,1,70,0,1
105797,-100,4,1,1,70,0,1
105885,-100,4,2,1,70,0,1
106503,-100,4,1,1,70,0,1
106591,-100,4,2,1,70,0,1
107209,-100,4,1,1,70,0,1
107297,-100,4,2,1,70,0,1
107915,-100,4,1,1,70,0,1
108003,-100,4,2,1,70,0,1
108620,-100,4,1,1,70,0,1
108709,-100,4,2,1,70,0,1
108973,-100,4,2,1,60,0,1
111444,-100,4,1,1,60,0,1
111532,-100,4,2,1,70,0,1
111973,-100,4,1,1,70,0,1
112062,-100,4,2,1,70,0,1
112503,-100,4,1,1,70,0,1
112591,-100,4,2,1,70,0,1
113032,-100,4,1,1,70,0,1
113120,-100,4,2,1,70,0,1
113562,-100,4,1,1,70,0,1
113650,-100,4,2,1,70,0,1
114091,-100,4,1,1,80,0,1
114267,-100,4,2,1,80,0,1
114356,-100,4,1,1,80,0,1
114620,-100,4,2,2,60,0,0
114709,-200,4,2,2,30,0,0
118856,426.136363636364,4,2,2,20,1,0
120560,681.818181818182,4,2,2,20,1,0

[Colours]
Combo1 : 68,71,196
Combo2 : 84,200,224
Combo3 : 18,123,228
Combo4 : 88,164,220
Combo5 : 234,234,234
Combo6 : 236,201,34
Combo7 : 242,136,66
Combo8 : 138,96,189

[HitObjects]
136,296,268,1,0
212,216,444,1,0
212,216,532,1,0
212,216,620,1,0
112,172,797,1,0
196,104,973,1,0
196,104,1062,1,0
196,104,1150,1,0
300,144,1326,2,0,B|364:156|400:120|400:76|360:72,1,150
300,144,1679,6,0,B|304:264,1,100,4|0
380,324,2032,1,0
303,243,2209,2,0,B|196:196|120:288,2,200,2|2|0
388,188,3091,6,0,B|444:204|484:168,1,100,2|0
324,56,3444,1,0
252,124,3620,1,2
164,80,3797,1,0
68,108,3973,1,0
20,196,4150,1,0
32,296,4326,1,0
120,248,4503,6,0,B|232:296|299:206,1,200,4|0
364,132,5032,2,0,B|416:120,2,50,2|0|0
298,207,5385,1,2
192,84,5562,2,0,B|140:96|96:64,1,100
24,228,5915,70,0,B|76:216|120:248,1,100,2|0
164,336,6267,1,0
256,296,6444,2,0,B|308:308|352:276,1,100,2|0
380,100,6797,1,0
264,168,6973,2,0,B|308:200|360:188,1,100,0|0
176,64,7326,5,4
120,148,7503,1,0
40,92,7679,1,0
192,136,7856,1,2
156,260,8032,2,0,B|208:280|260:240,1,100,0|2
228,56,8385,2,0,B|176:36|124:76,1,100
330,187,8738,6,0,B|350:135|310:83,1,100,2|0
238,151,9091,2,0,B|218:203|258:255,1,100,0|2
416,300,9444,2,0,B|448:254|423:194,1,100,0|0
160,96,9797,2,0,B|127:141|152:201,1,100,0|0
316,92,10150,6,0,B|366:70|411:103,1,100,4|0
476,180,10503,1,0
476,180,10679,2,0,B|512:212,2,50,2|0|0
412,104,11032,1,2
352,184,11209,2,0,B|302:206|257:173,1,100,0|0
120,72,11562,70,0,B|170:50|215:83,1,100,2|0
258,173,11915,2,0,B|292:232|252:320|180:324,1,200,2|2
88,288,12444,1,0
136,200,12620,1,2
168,236,12709,1,0
212,256,12797,1,0
260,264,12885,1,0
308,260,12973,6,0,B|360:248|404:276,1,100,4|0
312,100,13326,1,0
312,100,13503,2,0,B|200:136|128:44,1,200,2|2
28,140,14032,2,0,B|80:128|124:156,1,100
200,220,14385,6,0,B|312:256|384:164,1,200,2|0
408,72,14915,1,2
312,100,15091,1,0
400,276,15267,1,0
332,204,15444,2,0,B|280:180,2,50
160,80,15797,6,0,B|104:64|64:100,1,100,4|0
144,252,16150,2,0,B|160:196|124:156,1,100,0|2
48,220,16503,1,0
216,164,16679,1,2
44,108,16856,1,0
156,192,17032,1,0
228,96,17209,70,0,B|340:60|408:148,1,200,2|0
480,212,17738,1,2
480,212,17826,1,0
480,212,17915,2,0,B|436:244|436:304,1,100
348,348,18268,2,0,B|312:312|256:312,1,100
208,224,18620,6,0,B|96:260|28:172,1,200,4|0
104,104,19150,1,2
104,104,19238,1,0
104,104,19326,2,0,B|144:72|200:72,1,100,0|2
272,140,19679,2,0,B|324:140|364:108,1,100
420,24,20032,5,2
272,140,20209,1,0
352,200,20385,1,0
260,236,20562,1,2
104,104,20738,2,0,B|68:144|72:196,1,100
100,292,21091,1,0
196,324,21268,5,0
196,324,21356,1,0
196,324,21444,1,0
340,288,21620,1,0
236,184,21797,1,0
260,280,21973,1,0
388,196,22150,2,0,B|424:156|408:96,1,100
176,120,22503,2,0,B|140:160|156:220,1,100
332,64,22856,70,0,B|292:28|232:44,1,100
176,120,23209,1,0
72,40,23385,1,0
4,152,23562,1,0
12,252,23738,1,0
72,332,23915,1,0
168,360,24091,1,0
268,360,24268,6,0,B|384:364|432:260,1,200,4|0
440,160,25326,1,0
288,208,25679,1,0
288,208,25856,2,0,B|244:176|188:180,1,100
144,192,26385,2,0,B|100:224|44:220,2,100,0|0|4
284,68,27444,5,0
308,112,27620,1,0
352,136,27797,2,0,B|408:144|444:104,1,100
252,32,28503,2,0,B|196:24|160:64,1,100
112,152,29209,1,0
200,108,29562,1,0
232,148,29738,1,0
264,188,29915,5,4
408,124,30268,1,0
408,124,30444,2,0,B|436:168|424:224,1,100
408,268,30973,1,0
264,328,31326,2,0,B|152:344|84:252,1,200
208,100,32385,2,0,B|236:144|220:200,1,100,0|4
356,132,33091,5,0
356,132,33268,2,0,B|341:79|369:35,1,100,0|0
416,16,33797,1,0
252,232,34150,2,0,B|308:224|348:256,2,100
176,260,35032,1,0
128,196,35209,2,0,B|72:204|32:168,1,100,0|4
228,56,35915,86,0,B|280:40|328:72,1,100,0|0
400,136,36268,2,0,B|440:244|360:320,1,200
112,248,36973,2,0,B|72:140|152:64,2,200
184,320,37856,1,0
284,336,38032,1,0
380,312,38209,1,0
444,232,38385,6,0,B|448:176|412:140,1,100
332,84,38738,2,0,B|224:124|144:44,1,200
168,248,39444,2,0,B|276:208|356:288,2,200
72,216,40326,1,0
72,216,40679,1,0
144,148,40856,2,0,B|156:92|120:56,1,100
119,55,41120,1,0
119,55,41209,1,0
248,152,41385,5,0
372,108,41562,1,0
372,108,41738,2,0,B|444:120|464:220|408:268,1,200
308,268,42268,2,0,B|264:244|208:252,1,100
144,176,42620,2,0,B|100:200|44:192,2,100
232,128,43150,1,0
320,80,43326,2,0,B|364:56|420:64,2,100
232,128,43856,1,0
176,44,44032,6,0,B|60:12|4:112,1,200,4|0
76,184,44562,1,0
76,184,44738,2,0,B|44:228|60:284,1,100
136,344,45091,1,0
288,216,45444,2,0,B|404:248|460:148,1,200
340,92,45973,1,0
340,92,46150,2,0,B|300:56|240:52,1,100
152,64,46503,1,0
152,64,46856,86,0,B|116:244,1,149.999995529652,4|0
32,208,47385,2,0,B|28:248|56:280,1,74.9999977648259,2|0
212,220,47738,2,0,B|216:180|188:148,1,74.9999977648259,0|2
148,296,48091,1,0
148,296,48268,38,0,B|312:316,1,149.999995529652,0|0
384,232,48797,2,0,B|309:222,1,74.9999977648259,2|0
264,136,49150,1,0
96,148,49326,2,0,B|170:138,1,74.9999977648259,2|0
212,52,49679,6,0,B|292:28|352:80,1,149.999995529652
444,80,50209,2,0,B|468:112|464:160,1,74.9999977648259,2|0
352,244,50562,1,0
352,244,50738,2,0,B|348:205|372:173,1,74.9999977648259,2|0
208,196,51091,102,0,B|232:276|180:340,1,149.999995529652
92,324,51620,1,2
4,304,51797,2,0,B|-20:224|32:160,1,149.999995529652,0|2
88,92,52326,1,0
88,92,52503,6,0,B|268:64,1,149.999995529652,4|0
312,120,53032,1,2
392,80,53209,1,0
240,272,53562,1,2
84,184,53915,102,0,B|44:248|68:332,1,149.999995529652
184,192,54444,2,0,B|188:152|168:120,1,74.9999977648259,2|0
240,272,54797,1,0
240,272,54973,2,0,B|316:280,1,74.9999977648259,2|0
424,180,55326,6,0,B|272:188,1,149.999995529652
184,192,55856,2,0,B|180:152|200:120,1,74.9999977648259,2|0
360,100,56209,1,0
360,100,56385,2,0,B|320:104|288:84,1,74.9999977648259,2|0
212,36,56738,101,0
212,36,56915,2,0,B|172:32|140:52,1,74.9999977648259,0|0
72,112,57268,2,0,B|80:196,1,74.9999977648259,2|0
216,304,57797,2,0,B|252:292|308:296,1,74.9999977648259,2|0
356,220,58150,22,0,B|404:240|460:232,2,100,4|0|0
292,144,58679,1,2
292,144,58768,1,0
292,144,58856,1,0
208,244,59032,1,2
144,168,59209,2,0,B|92:152|48:184,1,100,0|2
172,336,59562,5,0
172,336,59738,2,0,B|224:352|268:320,1,100,2|0
328,240,60091,1,2
328,240,60179,1,0
328,240,60268,2,0,B|380:224|424:256,1,100,0|2
348,104,60620,2,0,B|296:120|252:88,1,100,0|2
128,48,60973,5,4
128,48,61062,1,0
128,48,61150,1,2
36,144,61326,1,0
60,240,61503,2,0,B|112:252|156:216,1,100,2|0
292,144,61856,1,2
240,228,62032,2,0,B|228:280|264:324,1,100,0|2
400,180,62385,6,0,B|408:96|332:52,1,150
284,48,62738,1,0
168,124,62915,6,0,B|112:136|64:96,1,100,2|0
80,260,63268,1,2
80,260,63356,1,0
80,260,63444,2,0,B|136:248|184:288,1,100,0|0
280,200,63797,54,0,B|392:232|456:136,1,200,4|0
336,76,64326,1,2
336,76,64415,1,0
336,76,64503,2,0,B|296:40|236:36,1,100,0|2
148,184,64856,2,0,B|188:144|172:84,1,100,0|2
52,104,65209,6,0,B|-16:124|-24:232|24:272,1,200,4|0
124,276,65738,2,0,B|180:284|216:248,1,100,2|0
344,124,66091,1,2
344,124,66179,1,0
344,124,66268,2,0,B|288:116|252:152,1,100,0|2
292,276,66620,5,4
372,216,66797,1,0
372,216,66885,1,0
372,216,66973,1,0
244,128,67150,1,2
160,184,67326,2,0,B|104:196|64:156,1,100,0|2
216,36,67679,1,0
344,124,67856,1,2
428,52,68032,5,0
484,148,68209,1,0
484,148,68297,1,0
484,148,68385,1,0
304,292,68562,1,0
236,220,68738,1,0
216,216,68826,1,0
196,220,68915,1,0
176,216,69003,1,0
156,220,69091,1,0
136,216,69179,1,0
116,220,69268,1,0
96,216,69356,1,0
76,220,69444,70,0,B|8:212|-16:108|48:64,1,200,4|0
148,76,69973,2,0,B|256:120|336:40,1,200,2|2
428,76,70503,1,0
428,76,70679,1,0
360,148,70856,6,0,B|304:208|396:276|348:340,1,200,2|0
232,256,71385,1,2
232,256,71562,2,0,B|124:212|48:300,1,200
280,124,72268,6,0,B|388:168|464:80,2,200,4|0|2
208,56,73150,1,0
108,64,73326,2,0,B|60:96|60:160,1,100
208,264,73679,5,4
208,264,73768,1,0
208,264,73856,2,0,B|176:216|112:216,1,100,0|0
28,240,74209,2,0,B|-8:272,2,50,4|0|0
68,344,74562,1,2
208,264,74738,2,0,B|260:280|304:248,1,100,0|0
440,136,75091,70,0,B|388:120|344:152,1,100,4|2
376,280,75444,1,0
264,164,75620,1,2
176,116,75797,2,0,B|124:128|76:88,1,100,0|0
96,260,76150,2,0,B|147:248|196:288,1,100,0|0
360,188,76503,5,4
360,188,76591,1,0
360,188,76679,2,0,B|372:137|332:88,1,100,0|0
264,164,77032,1,0
452,136,77209,2,0,B|486:195|446:283|374:287,1,200,2|0
280,248,77738,1,2
216,172,77915,102,0,B|112:120|32:208,1,200,4|0
164,328,78444,2,0,B|172:272|136:232,1,100,2|0
9,112,78797,1,2
9,112,78973,2,0,B|1:168|37:208,1,100,0|0
216,172,79326,5,4
216,172,79415,1,0
216,172,79503,1,2
292,108,79679,2,0,B|336:80|392:84,1,100
460,204,80032,2,0,B|416:176|360:180,1,100,2|0
292,300,80385,2,0,B|348:312|387:275,1,100
216,172,80738,102,0,B|108:212|40:120,2,200,4|0|0
292,108,81620,1,2
392,192,81797,1,0
472,132,81973,5,2
472,132,82062,1,0
472,132,82150,2,0,B|480:76|448:36,1,100,2|0
196,84,82503,1,0
196,84,82679,2,0,B|188:140|220:180,1,100,2|0
348,36,83032,1,2
328,136,83209,2,0,B|304:252,1,100
220,284,83562,6,0,B|136:224|28:264,2,200,4|0|0
308,232,84444,1,2
372,308,84620,2,0,B|424:324|468:292,1,100,0|2
344,136,84973,6,0,B|292:120|248:152,1,100,0|0
164,204,85326,2,0,B|112:220|68:188,1,100,0|0
208,48,85679,1,0
268,200,85856,1,2
368,116,86032,1,0
384,116,86120,1,0
400,116,86209,1,0
416,116,86297,1,0
432,116,86385,1,4
256,192,86473,12,0,88856
76,108,89209,70,0,B|192:120,1,100,4|0
175,118,89562,1,0
136,244,89738,2,0,B|252:232,1,100,4|0
235,233,90091,1,0
308,168,90268,1,4
388,272,90444,1,0
484,144,90620,5,4
416,60,90797,1,0
416,60,90885,1,0
416,60,90973,2,0,B|364:68|316:36,1,100,0|4
232,84,91326,2,0,B|180:76|132:108,1,100,0|0
40,84,91679,1,4
40,104,91768,1,0
40,124,91856,1,0
40,144,91944,1,0
40,164,92032,6,0,B|36:236|120:284|188:244,1,200,4|0
260,180,92562,2,0,B|372:140|440:228,1,200,2|2
316,332,93091,2,0,B|264:312|212:344,1,100
180,248,93444,6,0,B|68:288|0:200,1,200,2|0
32,104,93973,1,2
128,132,94150,2,0,B|181:146|221:110,1,100
284,32,94503,1,0
372,80,94679,1,0
400,80,94768,1,0
432,80,94856,70,0,B|508:88|528:192|468:236,1,200,4|0
392,172,95385,2,0,B|288:124|208:208,1,200,2|2
332,336,95915,2,0,B|344:284|312:240,1,100,0|2
192,92,96268,5,4
192,92,96356,1,0
192,92,96444,2,0,B|140:104|96:72,1,100
28,212,96797,1,4
28,212,96885,1,0
28,212,96973,2,0,B|80:200|124:232,1,100,0|2
188,308,97326,2,0,B|240:320|284:288,1,100
416,184,97679,6,0,B|364:172|320:204,1,100,4|0
336,332,98032,2,0,B|296:228,1,100,0|2
224,132,98385,2,0,B|112:172|44:84,1,200,0|0
300,244,99091,6,0,B|412:204|480:292,2,200,2|0|4
212,296,99973,1,0
116,272,100150,2,0,B|68:240|72:184,1,100
88,88,100503,69,4
88,88,100591,1,0
88,88,100679,2,0,B|200:96,1,100
272,148,101032,2,0,B|384:140,1,100,2|0
472,132,101385,1,0
384,276,101562,2,0,B|332:292|288:260,1,100,0|0
112,196,101915,6,0,B|164:180|208:212,1,100,4|0
208,340,102268,1,0
208,340,102356,1,0
208,340,102444,2,0,B|252:224,1,100,4|0
312,176,102797,1,0
312,176,102973,2,0,B|324:120|288:84,1,100
196,40,103326,6,0,B|140:56|96:20,1,100,4|0
24,164,103679,1,0
24,164,103768,1,0
24,164,103856,2,0,B|80:148|124:184,1,100,0|0
168,268,104209,1,0
168,268,104385,2,0,B|224:284|268:248,1,100,0|0
372,108,104738,6,0,B|316:92|272:128,1,100,2|0
160,288,105091,2,0,B|216:304|260:268,1,100,0|0
376,88,105444,2,0,B|320:72|276:108,1,100,2|0
192,152,105797,1,0
172,152,105885,1,0
152,152,105973,1,0
132,152,106062,1,0
112,152,106150,70,0,B|8:152,2,100,4|0|0
156,244,106679,2,0,B|208:264|252:232,1,100,2|0
380,136,107032,1,2
380,136,107209,2,0,B|328:116|284:148,1,100,0|0
156,244,107562,5,0
60,220,107738,2,0,B|40:168|76:120,1,100,2|0
152,68,108091,2,0,B|264:108|332:20,1,200,2|2
475,125,108620,2,0,B|423:105|379:137,1,100,0|0
256,192,108973,12,0,111444
76,108,111797,102,0,B|192:120,1,100,4|0
175,118,112150,1,0
136,244,112326,2,0,B|252:232,1,100,4|0
235,233,112679,1,0
304,160,112856,2,0,B|356:144|404:180,1,100,4|0
320,336,113209,6,0,B|304:284|340:236,1,100,4|0
496,320,113562,2,0,B|444:336|396:300,1,100,0|0
480,144,113915,2,0,B|496:196|460:244,1,100,4|0
352,236,114268,1,4
252,152,114444,1,0
116,112,114620,1,4
120,288,116032,6,0,B|224:328|312:256,2,200,2|0|0
168,120,118856,5,2
188,92,120560,69,2
276,48,120900,2,0,B|320:72|384:64,1,100
440,140,121582,2,0,B|386:133|342:157,1,100,0|0
280,236,122264,2,0,B|324:260|388:252,1,100,0|0
228,136,123031,6,0,B|100:152,1,125,0|4
