osu file format v9

[General]
AudioFilename: Tsukiko - EVERLASTING BLUE.mp3
AudioLeadIn: 2000
PreviewTime: 68032
Countdown: 0
SampleSet: Soft
StackLeniency: 0.7
Mode: 0
LetterboxInBreaks: 0

[Editor]
DistanceSpacing: 1
BeatDivisor: 4
GridSize: 4

[Metadata]
Title:EVERLASTING BLUE (Short Ver.)
Artist:Tsukiko
Creator:Kitsuneko
Version:Easy
Source:AQUA
Tags:SORAHANE TINKERBELL SOUND LABEL visual novel eroge hentai game opening Ryafuka kusano

[Difficulty]
HPDrainRate:2
CircleSize:3
OverallDifficulty:2
ApproachRate:3
SliderMultiplier:0.8
SliderTickRate:1

[Events]
//Background and Video events
0,0,"AQUA_BG.jpg"
Video,268,"AQUA_OP.avi"
//Break Periods
//Storyboard Layer 0 (Background)
//Storyboard Layer 1 (Fail)
//Storyboard Layer 2 (Pass)
//Storyboard Layer 3 (Foreground)
//Storyboard Sound Samples
//Background Colour Transformations
3,100,163,162,255

[TimingPoints]
268,352.941176470588,4,1,1,50,1,0
1679,-100,4,2,1,70,0,0
1767,-100,4,2,1,60,0,0
2738,-100,4,1,1,60,0,0
2826,-100,4,2,1,60,0,0
3444,-100,4,1,1,60,0,0
3532,-100,4,2,1,60,0,0
4150,-100,4,1,1,60,0,0
4238,-100,4,2,1,60,0,0
5562,-100,4,1,1,60,0,0
5650,-100,4,2,1,60,0,0
6267,-100,4,1,1,60,0,0
6356,-100,4,2,1,60,0,0
7679,-100,4,1,1,60,0,0
7767,-100,4,2,1,60,0,0
8385,-100,4,1,1,60,0,0
8473,-100,4,2,1,60,0,0
9091,-100,4,1,1,60,0,0
9179,-100,4,2,1,60,0,0
9797,-100,4,1,1,60,0,0
9885,-100,4,2,1,60,0,0
11209,-100,4,1,1,60,0,0
11297,-100,4,2,1,70,0,0
11915,-100,4,1,1,60,0,0
12003,-100,4,2,1,60,0,0
12620,-100,4,1,1,60,0,0
12709,-100,4,2,1,60,0,0
13326,-100,4,1,1,60,0,0
13415,-100,4,2,1,60,0,0
14032,-100,4,1,1,60,0,0
14120,-100,4,2,2,60,0,0
14473,-100,4,2,1,60,0,0
15444,-100,4,1,1,60,0,0
15532,-100,4,2,1,70,0,0
15885,-100,4,2,1,60,0,0
16856,-100,4,1,1,60,0,0
16944,-100,4,2,2,60,0,0
17297,-100,4,2,1,60,0,0
18267,-100,4,1,1,60,0,0
18356,-100,4,2,2,60,0,0
24267,-100,4,2,2,50,0,0
24356,-100,4,2,1,40,0,0
35562,-100,4,2,1,50,0,0
35915,-100,4,1,1,50,0,0
36003,-100,4,2,1,50,0,0
36620,-100,4,1,1,50,0,0
37415,-100,4,2,1,50,0,0
38032,-100,4,1,1,50,0,0
38120,-100,4,2,1,50,0,0
38738,-100,4,1,1,50,0,0
38826,-100,4,2,1,50,0,0
39444,-100,4,1,1,50,0,0
39532,-100,4,2,1,50,0,0
40150,-100,4,1,1,50,0,0
40238,-100,4,2,1,50,0,0
40856,-100,4,1,1,50,0,0
41209,-100,4,2,1,50,0,0
44032,-100,4,2,2,50,0,0
44120,-100,4,2,1,50,0,0
45797,-100,4,1,1,50,0,0
46150,-100,4,2,1,66,0,0
46326,-100,4,1,1,66,0,0
46856,-100,4,2,1,60,0,0
47562,-100,4,1,1,60,0,0
47650,-100,4,2,1,60,0,0
48973,-100,4,1,1,60,0,0
49062,-100,4,2,1,60,0,0
50385,-100,4,1,1,60,0,0
50473,-100,4,2,1,60,0,0
51797,-100,4,1,1,60,0,0
51885,-100,4,2,1,60,0,0
53209,-100,4,1,1,60,0,0
53297,-100,4,2,1,60,0,0
54620,-100,4,1,1,60,0,0
54709,-100,4,2,1,60,0,0
56032,-100,4,1,1,60,0,0
56120,-100,4,2,1,60,0,0
57444,-100,4,1,1,60,0,0
57532,-100,4,2,1,60,0,0
58150,-100,4,2,1,66,0,0
58503,-100,4,1,1,66,0,0
58591,-100,4,2,1,66,0,0
59209,-100,4,1,1,66,0,0
59297,-100,4,2,1,66,0,0
59915,-100,4,1,1,66,0,0
60003,-100,4,2,1,66,0,0
60620,-100,4,1,1,66,0,0
60709,-100,4,2,1,66,0,0
61326,-100,4,1,1,66,0,0
61415,-100,4,2,1,66,0,0
62032,-100,4,1,1,66,0,0
62120,-100,4,2,1,66,0,0
62738,-100,4,1,1,66,0,0
62826,-100,4,2,1,66,0,0
63444,-100,4,1,1,66,0,0
63797,-100,4,2,1,66,0,0
66620,-100,4,2,2,66,0,0
68032,-100,4,1,1,70,0,0
69091,-100,4,1,1,66,0,0
69444,-100,4,2,1,70,0,1
69797,-100,4,1,1,70,0,1
69885,-100,4,2,1,70,0,1
70503,-100,4,1,1,70,0,1
71297,-100,4,2,1,70,0,1
71915,-100,4,1,1,70,0,1
72003,-100,4,2,1,70,0,1
72620,-100,4,1,1,70,0,1
72709,-100,4,2,1,70,0,1
73326,-100,4,1,1,70,0,1
73415,-100,4,2,1,70,0,1
74032,-100,4,1,1,70,0,1
74120,-100,4,2,1,70,0,1
74738,-100,4,1,1,70,0,1
75091,-100,4,2,1,70,0,1
75444,-100,4,1,1,70,0,1
75532,-100,4,2,1,70,0,1
76150,-100,4,1,1,70,0,1
76944,-100,4,2,1,70,0,1
77562,-100,4,1,1,70,0,1
77650,-100,4,2,1,70,0,1
78267,-100,4,1,1,70,0,1
78356,-100,4,2,1,70,0,1
78973,-100,4,1,1,70,0,1
79062,-100,4,2,1,70,0,1
79679,-100,4,1,1,70,0,1
79767,-100,4,2,1,70,0,1
80385,-100,4,1,1,70,0,1
80738,-100,4,2,1,70,0,1
81091,-100,4,1,1,70,0,1
81179,-100,4,2,1,70,0,1
81797,-100,4,1,1,70,0,1
81885,-100,4,2,1,70,0,1
82503,-100,4,1,1,70,0,1
82591,-100,4,2,1,70,0,1
83209,-100,4,1,1,70,0,1
83297,-100,4,2,1,70,0,1
83915,-100,4,1,1,70,0,1
84003,-100,4,2,1,70,0,1
84620,-100,4,1,1,70,0,1
84709,-100,4,2,1,70,0,1
84973,-100,4,2,2,70,0,1
85326,-100,4,1,1,70,0,1
85415,-100,4,2,2,80,0,1
86032,-100,4,1,1,70,0,1
86120,-100,4,2,1,60,0,1
89209,-100,4,2,1,70,0,1
90620,-100,4,2,1,80,0,1
90973,-100,4,1,1,65,0,1
91326,-100,4,2,1,80,0,1
91679,-100,4,1,1,65,0,1
92032,-100,4,2,1,70,0,1
92385,-100,4,1,1,70,0,1
92473,-100,4,2,1,70,0,1
93091,-100,4,1,1,70,0,1
93885,-100,4,2,1,70,0,1
94503,-100,4,1,1,70,0,1
94591,-100,4,2,1,70,0,1
95209,-100,4,1,1,70,0,1
96709,-100,4,2,1,70,0,1
97326,-100,4,1,1,70,0,1
97679,-100,4,2,1,70,0,1
98032,-100,4,1,1,70,0,1
98120,-100,4,2,1,70,0,1
98738,-100,4,1,1,70,0,1
98826,-100,4,2,1,70,0,1
99444,-100,4,1,1,70,0,1
99532,-100,4,2,1,70,0,1
100150,-100,4,1,1,70,0,1
100238,-100,4,2,1,70,0,1
100856,-100,4,1,1,70,0,1
100944,-100,4,2,1,70,0,1
101562,-100,4,1,1,70,0,1
101650,-100,4,2,1,70,0,1
102267,-100,4,1,1,70,0,1
102356,-100,4,2,1,70,0,1
102973,-100,4,1,1,70,0,1
103326,-100,4,2,1,70,0,1
103679,-100,4,1,1,70,0,1
103767,-100,4,2,1,70,0,1
104385,-100,4,1,1,70,0,1
104473,-100,4,2,2,70,0,1
105091,-100,4,1,1,70,0,1
105179,-100,4,2,1,70,0,1
105797,-100,4,1,1,70,0,1
105885,-100,4,2,1,70,0,1
106503,-100,4,1,1,70,0,1
107297,-100,4,2,1,70,0,1
107915,-100,4,1,1,70,0,1
108003,-100,4,2,1,70,0,1
108620,-100,4,1,1,70,0,1
108973,-100,4,2,1,60,0,1
111797,-100,4,2,1,70,0,1
113562,-100,4,1,1,70,0,1
114620,-100,4,2,2,60,0,0
114709,-100,4,2,2,30,0,0
116120,-100,4,2,2,5,0,0
116738,-100,4,2,2,20,0,0
116826,-100,4,2,2,5,0,0
117444,-100,4,2,2,20,0,0
118856,426.136363636364,4,2,2,20,1,0
118962,-100,4,2,2,5,0,0
119708,-100,4,2,2,10,0,0
120560,681.818181818182,4,2,2,20,1,0
122775,-100,4,2,2,5,0,0
123457,-100,4,2,2,20,0,0

[Colours]
Combo1 : 68,71,196
Combo2 : 84,200,224
Combo3 : 18,123,228
Combo4 : 88,164,220
Combo5 : 234,234,234
Combo6 : 236,201,34
Combo7 : 242,136,66
Combo8 : 138,96,189

[HitObjects]
476,296,268,2,0,B|372:368|240:312,1,240
168,332,1679,5,4
36,240,2385,2,0,B|112:220,1,80,2|0
140,144,3091,2,0,B|212:192|296:172,2,160,2|2|4
148,304,5209,6,0,B|228:324,1,80,2|0
304,304,5915,2,0,B|388:320|460:280,1,160,2|2
472,120,7326,6,0,B|352:148|256:44,1,240,4|0
176,44,8738,2,0,B|64:44|64:44|24:72,2,160,2|2|4
256,180,10856,70,0,B|340:180,1,80,2|0
416,180,11562,2,0,B|452:256|416:336,1,160,2|2
340,352,12620,1,0
276,304,12973,6,0,B|172:280|148:364|40:340,1,240,4|0
12,268,14385,1,4
144,176,15091,2,0,B|60:164,2,80,2|0|4
296,128,16503,6,0,B|380:140,2,80,2|0|4
196,252,17915,2,0,B|280:264,1,80,2|0
256,192,18620,12,4,21444
256,344,24267,5,4
408,152,25679,70,0,B|276:184|236:56|96:88,1,320,2|4
160,336,28503,2,0,B|-8:336,2,160,0|2|4
256,252,30620,5,0
352,336,31326,2,0,B|432:300|512:336,2,160,0|2|4
140,136,34150,6,0,B|80:164|20:136,2,120,0|2|2
184,68,35562,1,4
256,104,35915,6,0,B|424:104,1,160
416,264,37326,2,0,B|252:264,1,160
200,320,38385,5,4
120,320,38738,2,0,B|40:276|44:180,1,160
48,108,39797,2,0,B|116:60,1,80,2|0
176,112,40503,2,0,B|268:112,1,80,2|0
256,192,41209,12,4,44032
416,216,45444,6,0,B|404:176|416:136,1,80,2|0
492,168,46150,2,0,B|504:208|492:248,1,80,2|0
428,296,46856,86,0,B|348:328|272:272,1,160,4|0
164,164,48268,2,0,B|196:244|140:320,2,160,2|0|2
12,216,50385,53,0
60,64,51091,2,0,B|152:88,1,80,2|0
216,104,51797,1,0
152,252,52503,102,0,B|236:284|304:236,1,160,2|0
452,300,53915,2,0,B|484:216|436:148,2,160,2|0|2
300,348,56032,6,0,B|208:332,1,80
192,260,56738,2,0,B|120:304|32:280,1,160,2|0
100,136,58150,37,4
164,88,58503,2,0,B|328:88,1,160
396,52,59562,2,0,B|416:88|396:128,1,80,2|0
464,172,60268,2,0,B|442:207|398:209,1,80,2|0
328,172,60973,5,4
256,206,61326,2,0,B|184:218|176:154|100:166,1,160,0|0
44,217,62385,1,2
72,292,62738,2,0,B|142:280|150:344|222:332,1,160,0|0
256,192,63797,12,4,66620
256,324,68032,70,0,B|348:352,1,80
392,292,68738,2,0,B|476:276,1,80
496,200,69444,5,4
460,128,69797,2,0,B|380:148|304:100,1,160
160,40,71209,2,0,B|180:120|132:196,1,160
60,224,72268,5,4
56,304,72620,2,0,B|124:360|208:344,1,160
256,284,73679,2,0,B|352:272,1,80,2|0
376,204,74385,2,0,B|416:228|416:280,2,80,2|0|4
328,140,75444,6,0,B|244:156|172:104,1,160
36,184,76856,2,0,B|20:268|72:340,1,160
148,352,77915,69,4
216,308,78268,2,0,B|232:224|180:152,1,160
104,136,79326,2,0,B|64:152|24:144,2,80,2|0|2
160,76,80385,1,0
240,92,80738,5,4
276,164,81091,2,0,B|256:252|300:324,2,160
320,96,82856,2,0,B|360:80|400:88,2,80,2|0|4
256,48,83915,6,0,B|96:72,1,160
44,136,84973,2,0,B|20:176|40:224,1,80,2|0
112,184,85679,2,0,B|111:230|152:262,1,80,2|0
256,192,86385,12,4,89209
468,192,90620,6,0,B|492:232|472:280,1,80,2|0
400,240,91326,2,0,B|400:286|359:318,2,80,2|0|4
320,244,92385,70,0,B|248:284|164:264,1,160
144,104,93797,2,0,B|216:64|300:84,1,160
372,116,94856,6,0,B|468:104,1,80,4|0
428,264,95915,1,0
268,240,96620,2,0,B|196:196|112:224,1,160
80,296,97679,5,4
36,228,98032,2,0,B|8:146|52:74,2,160
152,344,100150,1,0
228,316,100503,6,0,B|312:332,1,80,4|0
436,232,101562,1,0
456,156,101915,2,0,B|412:144|380:176,1,80,2|0
300,176,102620,2,0,B|284:260,2,80,2|0|4
272,100,103679,70,0,B|200:56|116:76,1,160
72,140,104738,1,4
96,216,105091,2,0,B|168:260|252:240,1,160
304,300,106150,6,0,B|392:280,1,80,4|0
472,148,107209,1,0
408,100,107562,2,0,B|320:124,1,80,2|0
296,192,108268,2,0,B|212:176,1,80,2|0
256,192,108973,12,4,111797
52,80,113209,6,0,B|144:100,1,80,2|0
192,48,113915,2,0,B|220:84|204:124,1,80,0|0
144,176,114620,1,4
364,308,116032,6,0,B|416:236|368:156,2,160,2|2|0
148,308,118856,2,0,B|96:236|144:156,1,160,2|0
256,152,120560,70,0,B|256:68,2,80,2|0|0
256,232,122605,2,0,B|244:268|268:296|256:332,1,100,0|4
