osu file format v9

[General]
AudioFilename: Tsukiko - EVERLASTING BLUE.mp3
AudioLeadIn: 2000
PreviewTime: 68032
Countdown: 0
SampleSet: Normal
StackLeniency: 0.7
Mode: 0
LetterboxInBreaks: 0

[Editor]
DistanceSpacing: 1.1
BeatDivisor: 4
GridSize: 4

[Metadata]
Title:EVERLASTING BLUE (Short Ver.)
Artist:Tsukiko
Creator:Kitsuneko
Version:AQUA
Source:AQUA
Tags:SORAHANE TINKERBELL SOUND LABEL visual novel eroge hentai game opening Ryafuka kusano

[Difficulty]
HPDrainRate:8
CircleSize:4
OverallDifficulty:8
ApproachRate:9
SliderMultiplier:1.86
SliderTickRate:1

[Events]
//Background and Video events
0,0,"AQUA_BG.jpg"
Video,268,"AQUA_OP.avi"
//Break Periods
//Storyboard Layer 0 (Background)
//Storyboard Layer 1 (Fail)
//Storyboard Layer 2 (Pass)
//Storyboard Layer 3 (Foreground)
//Storyboard Sound Samples
//Background Colour Transformations
3,100,163,162,255

[TimingPoints]
268,352.941176470588,4,1,1,50,1,0
1679,-100,4,2,1,70,0,0
1767,-100,4,2,1,60,0,0
2032,-100,4,1,1,60,0,0
2120,-100,4,2,1,60,0,0
2738,-100,4,1,1,60,0,0
2826,-100,4,2,1,60,0,0
3444,-100,4,1,1,60,0,0
3532,-100,4,2,1,60,0,0
4150,-100,4,1,1,60,0,0
4238,-100,4,2,1,60,0,0
4856,-100,4,1,1,60,0,0
4944,-100,4,2,1,60,0,0
5562,-100,4,1,1,60,0,0
5650,-100,4,2,1,60,0,0
6267,-100,4,1,1,60,0,0
6356,-100,4,2,1,60,0,0
6973,-100,4,1,1,60,0,0
7062,-100,4,2,1,60,0,0
7679,-100,4,1,1,60,0,0
7767,-100,4,2,1,60,0,0
8385,-100,4,1,1,60,0,0
8473,-100,4,2,1,60,0,0
9091,-100,4,1,1,60,0,0
9179,-100,4,2,1,60,0,0
9797,-100,4,1,1,60,0,0
9885,-100,4,2,1,60,0,0
10503,-100,4,1,1,60,0,0
10591,-100,4,2,1,60,0,0
11209,-100,4,1,1,60,0,0
11297,-100,4,2,1,60,0,0
11562,-100,4,2,1,65,0,0
11650,-100,4,2,1,60,0,0
12091,-100,4,2,1,65,0,0
12179,-100,4,2,1,60,0,0
12620,-100,4,2,1,65,0,0
12709,-100,4,1,1,60,0,0
12973,-100,4,2,1,60,0,0
13326,-100,4,1,1,60,0,0
13415,-100,4,2,1,60,0,0
14032,-100,4,1,1,60,0,0
14120,-100,4,2,1,60,0,0
14385,-100,4,2,2,60,0,0
14738,-100,4,1,1,60,0,0
14826,-100,4,2,1,60,0,0
15444,-100,4,1,1,60,0,0
15532,-100,4,2,1,60,0,0
15797,-100,4,2,1,70,0,0
15885,-100,4,2,1,60,0,0
16150,-100,4,1,1,60,0,0
16238,-100,4,2,1,60,0,0
16856,-100,4,1,1,60,0,0
16944,-100,4,2,1,60,0,0
17209,-100,4,2,2,50,0,0
17297,-100,4,2,1,60,0,0
17562,-100,4,1,1,60,0,0
17650,-100,4,2,1,60,0,0
18267,-100,4,1,1,60,0,0
18356,-100,4,2,1,60,0,0
21091,-100,4,1,1,50,0,0
21444,-100,4,1,1,60,0,0
23562,-133.333333333333,4,1,1,60,0,0
24267,-133.333333333333,4,2,2,70,0,0
24356,-200,4,2,1,40,0,0
35562,-100,4,2,1,50,0,0
35915,-100,4,1,1,50,0,0
36003,-100,4,2,1,50,0,0
36620,-100,4,1,1,50,0,0
36709,-100,4,2,1,50,0,0
37326,-100,4,1,1,50,0,0
37415,-100,4,2,1,50,0,0
38032,-100,4,1,1,50,0,0
38120,-100,4,2,1,50,0,0
38738,-100,4,1,1,50,0,0
38826,-100,4,2,1,50,0,0
39444,-100,4,1,1,50,0,0
39532,-100,4,2,1,50,0,0
40150,-100,4,1,1,50,0,0
40238,-100,4,2,1,50,0,0
40856,-100,4,1,1,50,0,0
41209,-100,4,2,1,50,0,0
41562,-100,4,1,1,50,0,0
41650,-100,4,2,1,50,0,0
42267,-100,4,1,1,50,0,0
42356,-100,4,2,1,50,0,0
42973,-100,4,1,1,50,0,0
43062,-100,4,2,1,50,0,0
43679,-100,4,1,1,50,0,0
43767,-100,4,2,1,50,0,0
44032,-100,4,2,2,50,0,0
44385,-100,4,1,1,50,0,0
44473,-100,4,2,1,50,0,0
45091,-100,4,1,1,50,0,0
45179,-100,4,2,1,50,0,0
45797,-100,4,1,1,50,0,0
45885,-100,4,2,1,50,0,0
46150,-100,4,2,1,66,0,0
46326,-100,4,1,1,60,0,0
46503,-100,4,1,1,66,0,0
46591,-100,4,2,1,66,0,0
46856,-133.333333333333,4,2,1,60,0,0
47562,-133.333333333333,4,1,1,60,0,0
47650,-133.333333333333,4,2,1,60,0,0
48973,-133.333333333333,4,1,1,60,0,0
49062,-133.333333333333,4,2,1,60,0,0
50385,-133.333333333333,4,1,1,60,0,0
50473,-133.333333333333,4,2,1,60,0,0
51267,-133.333333333333,4,1,1,60,0,0
51356,-133.333333333333,4,2,1,60,0,0
51797,-133.333333333333,4,1,1,60,0,0
51885,-133.333333333333,4,2,1,60,0,0
53209,-133.333333333333,4,1,1,60,0,0
53297,-133.333333333333,4,2,1,60,0,0
54091,-133.333333333333,4,1,1,60,0,0
54179,-133.333333333333,4,2,1,60,0,0
54620,-133.333333333333,4,1,1,60,0,0
54709,-133.333333333333,4,2,1,60,0,0
56032,-133.333333333333,4,1,1,60,0,0
56120,-133.333333333333,4,2,1,60,0,0
56562,-133.333333333333,4,1,1,60,0,0
57003,-133.333333333333,4,2,1,60,0,0
57444,-133.333333333333,4,1,1,60,0,0
57797,-100,4,2,1,60,0,0
58150,-100,4,2,1,66,0,0
58503,-100,4,1,1,66,0,0
58591,-100,4,2,1,66,0,0
59209,-100,4,1,1,66,0,0
59297,-100,4,2,1,66,0,0
59915,-100,4,1,1,66,0,0
60003,-100,4,2,1,66,0,0
60620,-100,4,1,1,66,0,0
60709,-100,4,2,1,66,0,0
61326,-100,4,1,1,66,0,0
61415,-100,4,2,1,66,0,0
62032,-100,4,1,1,66,0,0
62120,-100,4,2,1,66,0,0
62738,-100,4,1,1,66,0,0
62826,-100,4,2,1,66,0,0
63444,-100,4,1,1,66,0,0
63797,-100,4,2,1,66,0,0
64150,-100,4,1,1,66,0,0
64238,-100,4,2,1,66,0,0
64856,-100,4,1,1,66,0,0
64944,-100,4,2,1,66,0,0
65562,-100,4,1,1,66,0,0
65650,-100,4,2,1,66,0,0
66267,-100,4,1,1,66,0,0
66356,-100,4,2,1,66,0,0
66620,-100,4,2,2,66,0,0
66973,-100,4,1,1,66,0,0
67062,-100,4,2,1,66,0,0
67679,-100,4,1,1,66,0,0
67767,-100,4,2,1,66,0,0
68032,-100,4,1,1,70,0,0
69091,-100,4,1,1,66,0,0
69444,-100,4,2,1,70,0,1
69797,-100,4,1,1,70,0,1
69885,-100,4,2,1,70,0,1
70503,-100,4,1,1,70,0,1
70591,-100,4,2,1,70,0,1
71209,-100,4,1,1,70,0,1
71297,-100,4,2,1,70,0,1
71915,-100,4,1,1,70,0,1
72003,-100,4,2,1,70,0,1
72620,-100,4,1,1,70,0,1
72709,-100,4,2,1,70,0,1
73326,-100,4,1,1,70,0,1
73415,-100,4,2,1,70,0,1
74032,-100,4,1,1,70,0,1
74120,-100,4,2,1,70,0,1
74738,-100,4,1,1,70,0,1
75091,-100,4,2,1,70,0,1
75444,-100,4,1,1,70,0,1
75532,-100,4,2,1,70,0,1
76150,-100,4,1,1,70,0,1
76238,-100,4,2,1,70,0,1
76856,-100,4,1,1,70,0,1
76944,-100,4,2,1,70,0,1
77562,-100,4,1,1,70,0,1
77650,-100,4,2,1,70,0,1
78267,-100,4,1,1,70,0,1
78356,-100,4,2,1,70,0,1
78973,-100,4,1,1,70,0,1
79062,-100,4,2,1,70,0,1
79679,-100,4,1,1,70,0,1
79767,-100,4,2,1,70,0,1
80385,-100,4,1,1,70,0,1
80738,-100,4,2,1,70,0,1
81091,-100,4,1,1,70,0,1
81179,-100,4,2,1,70,0,1
81797,-100,4,1,1,70,0,1
81885,-100,4,2,1,70,0,1
82503,-100,4,1,1,70,0,1
82591,-100,4,2,1,70,0,1
83209,-100,4,1,1,70,0,1
83297,-100,4,2,1,70,0,1
83915,-100,4,1,1,70,0,1
84003,-100,4,2,1,70,0,1
84620,-100,4,1,1,70,0,1
84709,-100,4,2,1,70,0,1
84973,-100,4,2,2,70,0,1
85326,-100,4,1,1,70,0,1
85415,-100,4,2,2,80,0,1
86032,-100,4,1,1,70,0,1
86120,-100,4,2,1,60,0,1
88856,-100,4,1,1,50,0,1
89209,-100,4,2,1,70,0,1
89562,-100,4,1,1,70,0,1
89650,-100,4,2,1,70,0,1
90091,-100,4,1,1,70,0,1
90179,-100,4,2,1,70,0,1
90356,-100,4,1,1,70,0,1
90620,-100,4,2,1,80,0,1
90709,-100,4,1,1,70,0,1
91150,-100,4,2,1,80,0,1
91238,-100,4,1,1,70,0,1
91679,-100,4,2,1,80,0,1
91767,-100,4,1,1,70,0,1
92032,-100,4,2,1,70,0,1
92385,-100,4,1,1,70,0,1
92473,-100,4,2,1,70,0,1
93091,-100,4,1,1,70,0,1
93179,-100,4,2,1,70,0,1
93797,-100,4,1,1,70,0,1
93885,-100,4,2,1,70,0,1
94503,-100,4,1,1,70,0,1
94591,-100,4,2,1,70,0,1
95209,-100,4,1,1,70,0,1
95297,-100,4,2,1,70,0,1
95915,-100,4,1,1,70,0,1
96003,-100,4,2,1,70,0,1
96620,-100,4,1,1,70,0,1
96709,-100,4,2,1,70,0,1
97326,-100,4,1,1,70,0,1
97679,-100,4,2,1,70,0,1
98032,-100,4,1,1,70,0,1
98120,-100,4,2,1,70,0,1
98738,-100,4,1,1,70,0,1
98826,-100,4,2,1,70,0,1
99444,-100,4,1,1,70,0,1
99532,-100,4,2,1,70,0,1
100150,-100,4,1,1,70,0,1
100238,-100,4,2,1,70,0,1
100856,-100,4,1,1,70,0,1
100944,-100,4,2,1,70,0,1
101562,-100,4,1,1,70,0,1
101650,-100,4,2,1,70,0,1
102267,-100,4,1,1,70,0,1
102356,-100,4,2,1,70,0,1
102973,-100,4,1,1,70,0,1
103326,-100,4,2,1,70,0,1
103679,-100,4,1,1,70,0,1
103767,-100,4,2,1,70,0,1
104385,-100,4,1,1,70,0,1
104473,-100,4,2,2,70,0,1
105091,-100,4,1,1,70,0,1
105179,-100,4,2,1,70,0,1
105797,-100,4,1,1,70,0,1
105885,-100,4,2,1,70,0,1
106503,-100,4,1,1,70,0,1
106591,-100,4,2,1,70,0,1
107209,-100,4,1,1,70,0,1
107297,-100,4,2,1,70,0,1
107915,-100,4,1,1,70,0,1
108003,-100,4,2,1,70,0,1
108620,-100,4,1,1,70,0,1
108709,-100,4,2,1,70,0,1
108973,-100,4,2,1,60,0,1
111444,-100,4,1,1,60,0,1
111532,-100,4,2,1,70,0,1
111973,-100,4,1,1,70,0,1
112238,-100,4,2,1,70,0,1
112503,-100,4,1,1,70,0,1
112767,-100,4,2,1,70,0,1
113032,-100,4,1,1,70,0,1
113297,-100,4,2,1,70,0,1
113562,-100,4,1,1,70,0,1
113826,-100,4,2,1,70,0,1
114003,-100,4,1,1,80,0,1
114620,-100,4,2,2,60,0,0
114709,-200,4,2,2,30,0,0
116120,-200,4,2,2,5,0,0
116738,-200,4,2,2,20,0,0
116826,-200,4,2,2,5,0,0
117444,-200,4,2,2,20,0,0
118856,426.136363636364,4,2,2,20,1,0
120560,681.818181818182,4,2,2,20,1,0

[Colours]
Combo1 : 68,71,196
Combo2 : 84,200,224
Combo3 : 18,123,228
Combo4 : 88,164,220
Combo5 : 234,234,234
Combo6 : 236,201,34
Combo7 : 242,136,66
Combo8 : 138,96,189

[HitObjects]
60,344,268,2,0,B|160:324,1,93
160,288,532,1,0
168,252,620,2,0,B|216:248|260:224,1,93
360,236,973,1,0
360,236,1062,1,0
360,236,1150,2,0,B|392:276|380:328,1,93,0|0
36,144,1679,6,0,B|4:108|16:52,1,93,4|2
116,80,2032,1,0
76,232,2209,2,0,B|156:164|252:192,1,186,2|2
196,340,2738,1,0
76,232,2915,1,2
248,192,3091,5,2
248,192,3179,1,0
248,192,3267,2,0,B|300:200|340:176,1,93,0|0
272,96,3620,1,2
148,160,3797,2,0,B|140:212|164:252,1,93,0|2
352,268,4150,2,0,B|360:216|336:176,1,93,0|2
240,96,4503,6,0,B|148:120|60:72,1,186,4|0
40,264,5032,2,0,B|132:240|220:288,1,186,2|2
296,200,5562,1,0
296,200,5738,1,2
372,60,5915,70,0,B|416:32|468:44,1,93,0|2
280,104,6267,1,0
440,140,6444,1,2
440,140,6532,1,0
440,140,6620,1,0
296,200,6797,1,2
372,60,6973,1,0
388,220,7150,1,2
360,120,7326,6,0,B|276:168|180:128,1,186,4|0
76,64,7856,2,0,B|124:148|84:244,1,186,2|2
24,328,8385,1,0
24,328,8562,1,2
12,172,8738,5,0
12,172,8826,1,0
12,172,8915,2,0,B|56:148|104:160,1,93,2|0
148,252,9267,1,2
256,216,9444,1,0
256,216,9532,1,0
256,216,9620,1,2
344,288,9797,2,0,B|404:336|476:316,1,139.5,0|2
448,360,10150,6,0,B|384:276|432:184,1,186,4|0
372,100,10679,2,0,B|416:68|468:88,1,93,2|0
488,268,11032,2,0,B|444:300|392:280,1,93,2|0
288,204,11385,69,2
288,204,11473,1,0
288,204,11562,1,4
216,132,11738,1,0
188,232,11915,1,0
124,68,12091,6,0,B|140:168|72:248,1,186,4|2
216,132,12620,1,4
240,128,12709,1,0
264,124,12797,1,0
288,120,12885,1,0
312,116,12973,5,4
392,52,13150,2,0,B|444:44|484:72,1,93,2|0
452,168,13503,2,0,B|420:240|460:308,1,139.5,2|0
484,260,13856,2,0,B|432:268|392:240,1,93,2|0
352,148,14209,1,2
256,184,14385,6,0,B|312:268|268:364,2,186,4|0|0
236,84,15267,2,0,B|140:60,1,93,2|0
145,61,15532,1,0
145,61,15620,1,2
20,28,15797,70,0,B|4:76|32:124,1,93,4|2
124,156,16150,1,0
56,232,16326,2,0,B|88:304|48:372,1,139.5,2|0
24,324,16679,2,0,B|76:332|116:304,1,93,2|0
188,236,17032,1,2
124,156,17209,6,0,B|72:148|32:176,2,93,4|2|0
188,236,17738,1,2
244,132,17915,1,0
312,244,18091,1,2
364,116,18267,1,0
364,116,18356,1,0
364,116,18444,1,2
256,192,18620,12,0,21091
164,328,21444,6,0,B|120:352|68:340,1,93
348,56,21973,2,0,B|392:32|444:44,1,93
120,252,22503,6,0,B|71:263|24:238,1,93,0|0
392,132,23032,2,0,B|440:120|487:145,1,93,0|0
230,242,23562,69,0
200,183,23738,1,0
247,136,23915,1,0
306,166,24091,1,0
296,232,24267,1,4
296,232,25679,6,0,B|252:248|200:224,1,93,2|0
176,200,26209,1,2
152,52,26562,1,0
116,33,26738,2,0,B|65:24|24:52,1,93,2|4
8,224,27444,5,2
28,192,27620,2,0,B|92:152|164:172,1,139.5,0|2
260,272,28503,1,0
296,280,28679,2,0,B|348:292|388:268,1,93,2|2
368,100,29385,2,0,B|316:88|276:112,1,93,2|2
248,136,29915,5,4
384,272,30267,1,0
364,304,30444,2,0,B|308:348|228:336,1,139.5,2|2
60,360,31326,2,0,B|12:340|4:292,1,93,0|2
36,120,32032,2,0,B|84:108,1,46.5
112,132,32385,2,0,B|164:140|200:112,1,93,2|4
336,28,33091,5,0
372,40,33267,2,0,B|448:12|508:56,1,139.5,2|2
456,236,34150,2,0,B|408:248|364:216,1,93,0|2
304,108,34679,5,0
416,160,34856,1,0
292,188,35032,1,0
380,88,35209,1,2
368,220,35385,1,0
348,144,35562,70,0,B|252:176|172:108,1,186,4|0
24,320,36268,2,0,B|124:288|200:356,1,186,0|0
440,348,36973,6,0,B|512:272|472:172,1,186
408,124,37503,1,0
344,180,37679,1,0
344,180,37768,1,0
344,180,37856,2,0,B|248:160,1,93,0|0
72,36,38385,6,0,B|0:112|40:212,1,186,4|0
232,284,39091,1,0
276,356,39268,1,0
344,308,39444,2,0,B|388:332|436:324,1,93
488,260,39797,6,0,B|440:208|464:128,1,139.5
476,88,40150,2,0,B|432:64|384:72,1,93
308,100,40503,1,0
332,180,40679,2,0,B|339:225|315:269,1,93
240,328,41032,85,0
208,332,41120,1,0
176,336,41209,1,4
96,360,41385,2,0,B|44:352|12:316,1,93,0|0
44,240,41738,2,0,B|148:260|224:200,1,186,0|0
252,124,42268,1,0
252,124,42444,1,0
172,92,42620,6,0,B|152:196|220:264,2,186
112,32,43503,1,0
40,76,43679,1,0
56,160,43856,1,0
140,168,44032,6,0,B|220:108|320:136,1,186,4|0
344,300,44562,2,0,B|264:360|164:332,1,186,0|0
124,256,45091,1,0
124,256,45268,1,0
224,228,45444,86,0,B|252:188|240:140,1,93,0|0
140,168,45797,2,0,B|112:208|124:256,1,93,0|0
239,139,46150,5,0
124,256,46326,1,0
140,168,46503,1,0
224,228,46679,1,0
320,196,46856,6,0,B|384:180|400:224|464:204,1,139.499995842576,4|2
436,120,47385,1,0
436,120,47562,1,0
340,280,47915,1,2
340,280,48091,1,0
252,256,48268,6,0,B|216:192|248:120,1,139.499995842576,0|2
336,108,48797,1,0
316,196,48973,2,0,B|256:236|180:216,2,139.499995842576,0|2|0
172,68,50032,5,2
172,68,50209,1,0
88,36,50385,2,0,B|107:109|67:169,1,139.499995842576,0|2
92,368,51091,1,0
92,368,51268,1,0
328,332,51620,1,2
328,332,51797,1,0
188,216,52150,1,2
208,212,52238,1,0
228,208,52326,1,0
248,204,52415,1,0
268,200,52503,102,0,B|312:132|280:64,1,139.499995842576,4|2
196,44,53032,1,0
168,128,53209,2,0,B|108:164|32:144,1,139.499995842576,0|2
0,324,53915,1,0
0,324,54091,2,0,B|60:288|136:308,1,139.499995842576,0|2
216,348,54620,1,0
428,276,54973,1,2
428,276,55150,1,0
508,232,55326,5,4
428,276,55503,1,0
364,212,55679,2,0,B|336:232|296:232,1,69.7499979212881,2|0
224,180,56032,2,0,B|164:232|192:308,1,139.499995842576,0|2
332,336,56562,2,0,B|392:284|364:208,1,139.499995842576
284,252,57091,2,0,B|248:260|212:236,2,69.7499979212881,2|0|0
440,60,57797,1,2
416,56,57885,1,0
392,52,57973,1,0
368,48,58062,1,0
344,44,58150,6,0,B|308:68|252:68,1,93,4|0
172,24,58503,1,0
124,104,58679,2,0,B|164:200|80:272,1,186,2|2
140,344,59209,2,0,B|100:376|52:364,1,93,0|2
20,204,59562,6,0,B|60:172|108:184,1,93,0|2
140,344,59915,1,0
140,344,60091,1,2
248,316,60268,2,0,B|348:332,1,93,0|2
276,216,60620,2,0,B|176:200,1,93,0|2
76,272,60973,6,0,B|156:200|116:104,1,186,4|0
28,124,61503,2,0,B|76:136|116:104,1,93,2|0
208,128,61856,1,2
256,44,62032,1,0
256,44,62120,1,0
256,44,62209,1,2
116,104,62385,6,0,B|104:152|136:192,1,93,0|2
129,297,62738,2,0,B|170:324|218:306,1,93,0|2
317,345,63091,2,0,B|355:313|353:262,1,93,0|2
420,180,63444,6,0,B|392:136,3,46.5,0|0|0|0
395,140,63797,54,0,B|296:128,1,93,4|2
208,168,64150,1,0
256,44,64326,2,0,B|184:100|76:76,1,186,2|2
8,152,64856,1,0
0,188,64944,1,0
4,224,65032,1,2
32,348,65209,6,0,B|76:328|128:332,1,93,0|2
172,252,65562,1,0
172,252,65738,1,2
288,192,65915,2,0,B|316:228|308:284,1,93,0|2
172,252,66268,2,0,B|144:216|152:160,1,93,0|2
244,64,66620,6,0,B|328:120|424:84,1,186,4|0
512,152,67150,1,2
400,216,67326,1,0
400,216,67415,1,0
400,216,67503,1,2
320,112,67679,1,0
320,112,67856,1,2
240,220,68032,5,0
208,236,68120,1,0
172,244,68209,1,0
132,244,68297,1,0
96,236,68385,1,0
48,104,68562,1,0
80,88,68650,1,0
116,80,68738,1,0
156,80,68826,1,0
192,88,68915,1,0
240,220,69091,2,0,B|340:236,1,93
260,308,69444,70,0,B|228:272|240:220,1,93,4|2
304,136,69797,1,0
400,180,69973,2,0,B|444:288|372:312|392:364,1,186,2|2
492,352,70503,1,0
492,352,70591,1,0
492,352,70679,1,2
432,268,70856,6,0,B|340:304|252:236,1,186,0|0
208,148,71385,1,2
184,316,71562,1,0
256,240,71738,1,2
100,168,71915,1,0
84,272,72091,1,2
184,316,72268,6,0,B|268:268|364:296,1,186,4|0
388,128,72797,2,0,B|304:176|208:148,1,186,2|2
136,76,73326,1,0
136,76,73415,1,0
136,76,73503,1,2
76,252,73679,5,0
76,252,73856,2,0,B|104:208|80:160,1,93,2|0
136,76,74209,2,0,B|220:56|248:108|320:88,1,186,2|2
464,72,74738,1,0
472,108,74826,1,0
472,144,74915,1,0
464,176,75003,1,0
448,212,75091,70,0,B|416:284|456:352,1,139.5,4|2
484,304,75444,2,0,B|436:316|392:288,1,93,0|2
320,220,75797,1,0
320,220,75973,2,0,B|224:232,2,93,2|0|2
400,116,76503,6,0,B|340:72|268:96,1,139.5,0|2
300,136,76856,2,0,B|324:88|292:48,1,93,0|2
152,108,77209,1,0
152,108,77297,1,0
152,108,77385,2,0,B|128:156|160:196,2,93,2|0|2
268,96,77915,5,4
160,196,78091,1,2
128,52,78268,1,0
268,96,78444,2,0,B|348:160|444:132,1,186,2|2
492,228,78973,1,0
492,228,79062,1,0
492,228,79150,1,2
408,296,79326,6,0,B|328:232|232:260,1,186,0|0
144,364,79856,2,0,B|88:316|108:236,1,139.5,2|0
140,276,80209,2,0,B|100:308|52:296,1,93,2|0
22,152,80562,69,0
22,152,80650,1,0
22,152,80738,2,0,B|62:120|110:132,1,93,4|2
197,69,81091,1,0
197,69,81268,1,2
92,43,81444,2,0,B|80:91|112:135,1,93,0|2
84,236,81797,2,0,B|119:270|173:264,1,93,0|2
236,184,82150,5,0
348,224,82326,1,2
256,300,82503,1,0
236,184,82679,2,0,B|308:212|372:184,1,139.5,2|0
396,144,83032,2,0,B|504:164,2,93,2|0|2
236,184,83562,6,0,B|188:196|144:164,1,93,4|2
212,84,83915,1,0
236,184,84091,2,0,B|268:256|228:324,1,139.5,2|0
204,276,84444,2,0,B|256:284|296:256,1,93,2|0
376,336,84797,1,2
472,280,84973,6,0,B|412:196|460:100,1,186,4|0
40,104,85679,2,0,B|100:188|52:284,1,186,4|0
256,192,86385,12,0,88856
304,368,89209,70,0,B|288:268|356:192,1,186,4|0
168,156,89738,2,0,B|184:256|116:332,1,186,4|0
20,296,90268,1,4
20,296,90356,1,0
20,296,90444,1,0
144,268,90620,6,0,B|236:288,1,93,4|0
234,287,90973,1,0
168,156,91150,2,0,B|76:136,1,93,4|0
78,137,91503,1,0
100,300,91679,2,0,B|192:320,1,93,4|0
352,204,92032,6,0,B|304:196|264:224,1,93,4|2
332,308,92385,1,0
472,356,92562,2,0,B|412:276|464:180,1,186,2|2
344,112,93091,1,0
344,112,93179,1,0
344,112,93268,1,2
264,224,93444,5,0
264,224,93620,2,0,B|280:272|260:320,1,93,2|0
160,312,93973,1,2
160,312,94062,1,0
160,312,94150,2,0,B|126:349|74:356,1,93,0|2
36,260,94503,1,0
160,312,94679,1,2
264,224,94856,70,0,B|352:172|448:200,1,186,4|0
464,340,95385,2,0,B|376:392|280:364,1,186,2|2
160,312,95915,1,0
264,224,96091,1,2
136,184,96268,5,0
136,184,96356,1,0
136,184,96444,2,0,B|96:212|40:208,1,93,2|0
8,112,96797,1,2
136,184,96973,1,0
216,104,97150,1,2
320,148,97326,1,0
320,148,97415,1,0
320,148,97503,1,0
320,148,97591,1,0
320,148,97679,6,0,B|380:192|456:172,1,139.5,4|2
416,136,98032,2,0,B|420:188|380:224,1,93,0|2
444,304,98385,2,0,B|400:333|349:316,1,93,0|2
280,244,98738,1,0
320,148,98915,1,2
216,104,99091,6,0,B|140:120|80:72,1,139.5,0|2
128,48,99444,2,0,B|152:88|140:140,1,93,0|2
60,208,99797,1,0
60,208,99885,1,0
60,208,99973,1,2
156,252,100150,2,0,B|140:304|168:344,1,93,0|2
156,252,100503,69,4
277,282,100679,1,2
166,341,100856,1,0
44,312,101032,2,0,B|104:228|64:136,1,186,2|2
128,56,101562,1,0
128,56,101650,1,0
128,56,101738,1,2
172,148,101915,5,0
252,80,102091,1,2
296,196,102268,1,0
372,84,102444,2,0,B|448:100|508:52,1,139.5,2|0
460,28,102797,2,0,B|436:72|448:120,1,93,2|0
480,248,103150,5,0
480,248,103238,1,0
480,248,103326,2,0,B|372:280,1,93,4|2
320,360,103679,1,0
224,308,103856,2,0,B|256:208|192:132,1,186,2|2
20,168,104385,2,0,B|-12:268|52:344,2,186,0|4|0
116,200,105268,1,2
192,136,105444,2,0,B|240:132|280:160,1,93,0|2
452,120,105797,2,0,B|404:124|364:96,1,93,0|2
280,160,106150,5,4
268,60,106326,1,2
364,96,106503,1,0
280,160,106679,2,0,B|312:232|272:300,1,139.5,2|0
248,252,107032,2,0,B|300:260|340:232,1,93,2|0
408,308,107385,1,2
392,152,107562,70,0,B|444:144|484:172,2,93,0|2|0
344,264,108091,2,0,B|256:316|168:264,1,186,2|2
60,288,108620,1,0
60,288,108709,1,0
60,288,108797,1,2
256,192,108973,12,0,111444
164,328,111797,6,0,B|120:352|68:340,2,93,4|0|0
348,56,112326,2,0,B|392:32|444:44,2,93,4|0|0
120,252,112856,6,0,B|71:263|24:238,2,93,4|0|0
392,132,113385,2,0,B|440:120|487:145,2,93,4|0|0
230,242,113915,5,4
200,183,114091,1,0
247,136,114268,1,0
306,166,114444,1,0
296,232,114620,1,4
296,232,116032,70,0,B|376:288|480:264,2,186,2|2|0
184,248,118856,1,2
184,248,120560,5,2
216,224,120900,1,0
256,216,121241,1,0
296,232,121582,1,0
256,316,121923,5,2
228,344,122264,1,0
188,356,122605,1,0
108,344,123031,1,0
56,276,123457,5,4
