osu file format v5

[General]
AudioFilename: Minagiru.mp3
AudioLeadIn: 2007
PreviewTime: -1
Countdown: 0
SampleSet: Soft
StackLeniency: 0.4
Mode: 0
LetterboxInBreaks: 1
EditorDistanceSpacing: 0.699999988079071

[Metadata]
Title:Minagiru
Artist:Tsukasa Syndrom
Creator:Zekira
Version:Enasni
Source:
Tags:hakurei reimu MAD touhou okami

[Difficulty]
HPDrainRate:7
CircleSize:5
OverallDifficulty:7
SliderMultiplier:1.5
SliderTickRate:2

[Events]
//Background and Video events
0,0,"video.avi_000000400.jpg"
1,0,"Minagiru.wmv"
//Break Periods
//Storyboard Layer 0 (Background)
//Storyboard Layer 1 (Failing)
//Storyboard Layer 2 (Passing)
//Storyboard Layer 3 (Foreground)
//Storyboard Sound Samples
//Background Colour Transformations
3,100,255,255,255

[TimingPoints]
61,375,4,2,0,69,1,0
9048,375,4,2,0,69,1,0
12061,375,4,2,0,69,1,0
16589,375,4,2,0,69,1,0
19568,375,4,2,0,69,1,0
19936,375,4,2,0,69,1,0
28842,-100,4,2,0,41,0,0
29592,-100,4,2,0,71,0,0
41712,375,4,2,0,71,1,0
45436,375,4,2,0,71,1,0
48333,-100,4,2,0,0,0,0
49458,-100,4,2,0,69,0,0
49833,-100,4,2,0,0,0,0
50958,-100,4,2,0,69,0,0
54333,-100,4,2,0,0,0,0
56779,-100,4,2,0,69,0,0

[Colours]
Combo1 : 218,79,230
Combo2 : 243,89,34
Combo3 : 112,196,193
Combo4 : 74,109,202

[HitObjects]
181,191,436,2,0,B|357:191,1,150
256,120,1186,5,4
181,191,1748,5,0
181,191,1842,1,0
181,191,1936,2,0,B|357:191,1,150
256,120,2686,5,4
408,192,3248,5,0
408,192,3342,1,0
408,192,3436,2,2,L|408:32,1,150
256,40,4092,5,0
256,40,4186,2,2,L|256:208,1,150
104,192,4936,5,2
104,192,5123,1,2
256,192,5311,1,2
256,192,5498,1,2
408,192,5686,1,4
144,40,6248,5,0
144,40,6342,1,2
144,40,6436,1,2
216,40,6623,1,2
256,40,6717,1,2
296,40,6811,1,2
296,112,6998,1,2
216,112,7186,1,0
216,264,7561,1,2
360,264,7936,5,2
360,192,8123,1,2
400,192,8217,1,0
440,192,8311,1,0
440,120,8498,2,4,B|440:216|440:352,1,225,4|4
368,344,9235,5,0
368,344,9329,1,2
368,344,9423,1,2
296,344,9610,1,2
256,344,9704,1,2
216,344,9798,1,2
216,272,9985,1,2
296,272,10173,1,0
296,120,10548,1,2
152,120,10923,5,2
152,192,11110,1,2
112,192,11204,1,0
72,192,11298,1,0
72,120,11485,2,4,B|72:216|72:345,1,225,4|4
144,344,12248,5,0
144,344,12342,1,2
144,344,12436,1,2
216,344,12623,1,2
256,344,12717,1,2
296,344,12811,1,2
296,272,12998,1,2
216,272,13186,1,0
216,120,13561,1,2
360,120,13936,5,2
360,192,14123,1,2
400,192,14217,1,0
440,192,14311,1,0
440,120,14498,2,4,B|440:216|440:345,1,225,4|4
360,344,15248,5,0
360,302,15342,2,0,B|360:264,1,37.5,0|2
136,264,15998,5,0
136,306,16092,2,0,B|136:343,1,37.5,0|2
256,352,16776,6,0,B|256:304,1,37.5
256,272,16964,1,2
256,192,17151,1,2
256,112,17339,1,2
256,32,17526,1,2
256,112,17714,2,2,B|304:112,4,37.5,2|2|2|2|2
440,40,18276,5,0
440,40,18370,1,2
440,40,18464,1,2
440,112,18651,1,2
440,112,18745,1,2
440,112,18839,1,2
440,184,19026,1,2
440,256,19214,1,0
288,256,19568,1,2
136,256,19936,5,2
136,176,20123,1,2
136,176,20217,1,0
136,176,20311,1,0
136,104,20498,2,4,B|136:24,2,75,0|0|4
72,344,21248,5,0
72,344,21342,1,2
72,344,21436,1,2
72,272,21623,1,2
72,272,21717,1,2
72,272,21811,1,2
72,200,21998,1,2
72,128,22186,1,0
224,128,22561,1,2
376,128,22936,5,2
376,208,23123,1,2
376,208,23217,1,0
376,208,23311,1,0
376,280,23498,2,4,B|376:360,1,75
376,283,23873,2,4,B|457:282,1,75
456,208,24248,5,0
456,168,24342,1,2
456,128,24436,1,2
456,48,24623,1,2
416,48,24717,1,2
376,48,24811,1,2
296,48,24998,1,2
224,48,25186,1,0
376,48,25561,1,2
376,200,25936,5,2
304,200,26123,2,2,B|264:200,1,37.5,2|0
224,200,26311,1,0
224,120,26498,1,0
80,120,26873,5,0
80,192,27061,1,0
80,264,27248,1,0
80,336,27436,2,2,B|240:336,1,150,2|4
304,336,27998,1,0
376,336,28186,2,2,B|376:176,1,150,2|4
376,112,28748,1,0
296,112,28936,6,2,C|240:112,6,37.5
256,192,29686,5,14
104,192,30342,5,2
184,112,30623,1,2
256,40,30811,1,2
256,40,30998,1,2
256,40,31186,1,2
408,192,31748,5,2
408,192,31842,1,2
408,192,31936,1,2
328,272,32123,1,2
256,344,32311,1,2
256,344,32498,1,2
256,344,32686,1,2
160,192,33248,6,2,B|160:152,1,37.5
160,120,33436,1,2
368,192,33998,6,2,B|368:152,1,37.5
368,120,34186,1,2
256,336,34748,6,2,B|256:296,1,37.5
256,272,34936,1,2
256,192,35123,6,2,B|256:152,1,37.5
256,128,35311,1,2
256,48,35498,6,2,B|440:32|320:168,1,225
408,192,36436,6,2,B|408:136,4,37.5,2|2|2|2|0
256,192,37186,6,2,B|256:136,4,37.5,2|2|2|2|0
104,192,37936,6,2,B|104:136,4,37.5,2|2|2|2|0
104,264,38498,5,2
144,264,38592,1,0
296,264,38873,1,2
256,264,38967,1,0
144,40,39436,5,2
216,40,39623,1,2
256,40,39717,1,2
296,40,39811,1,2
296,112,39998,1,2
216,112,40186,1,0
216,264,40561,1,2
368,264,40936,5,2
368,192,41123,1,2
408,192,41217,1,0
448,192,41311,1,0
448,112,41498,1,4
296,192,41899,5,2
256,192,41993,1,2
216,192,42087,1,2
136,192,42274,1,2
24,128,42462,6,2,B|184:128,1,150
174,128,43024,1,2
174,128,43212,2,2,B|328:128,1,150
324,128,43774,1,2
324,128,43962,1,2
400,128,44149,6,2,B|400:168,1,37.5
400,200,44337,1,2
400,272,44524,2,2,B|296:272,1,75
248,272,44899,1,2
248,272,45087,1,4
24,272,45436,6,2,B|184:272,1,150
174,272,45998,1,2
174,272,46186,2,2,B|328:272,1,150
324,272,46748,1,2
324,272,46842,1,2
324,272,46936,1,0
328,192,47123,1,2
328,192,47217,1,0
328,192,47311,1,0
328,112,47498,1,0
328,112,47686,2,0,B|272:112,4,37.5,0|0|0|0|0
256,192,48436,12,0,49373
256,192,49561,5,2
256,192,49936,12,0,50873
256,192,51061,5,2
408,336,51436,5,4
408,48,51811,5,4
104,48,52186,5,4
104,336,52561,5,4
256,192,52936,5,2
136,112,53123,5,0
176,112,53217,1,0
216,112,53311,1,0
256,112,53404,1,0
296,112,53498,1,0
336,112,53592,1,0
376,112,53686,1,0
256,192,54061,5,4
256,192,54436,12,2,56686
256,192,56873,5,0
256,192,56967,5,0
256,192,57061,5,14
