osu file format v5

[General]
AudioFilename: Minagiru.mp3
AudioLeadIn: 1974
PreviewTime: -1
Countdown: 0
SampleSet: Soft
StackLeniency: 0.4
Mode: 0
LetterboxInBreaks: 1
EditorBookmarks: 31204
EditorDistanceSpacing: 0.699999988079071

[Metadata]
Title:Minagiru
Artist:Tsukasa Syndrom
Creator:Zekira
Version:Drah
Source:
Tags:hakurei reimu MAD touhou okami

[Difficulty]
HPDrainRate:5
CircleSize:4
OverallDifficulty:6
SliderMultiplier:1.5
SliderTickRate:2

[Events]
//Background and Video events
0,0,"video.avi_000000400.jpg"
1,0,"Minagiru.wmv"
//Break Periods
//Storyboard Layer 0 (Background)
//Storyboard Layer 1 (Failing)
//Storyboard Layer 2 (Passing)
//Storyboard Layer 3 (Foreground)
//Storyboard Sound Samples
//Background Colour Transformations
3,100,255,255,255

[TimingPoints]
61,375,4,2,0,69,1,0
9048,375,4,2,0,69,1,0
12061,375,4,2,0,69,1,0
14686,-100,4,2,0,0,0,0
14967,-100,4,2,0,71,0,0
16589,375,4,2,0,69,1,0
19568,375,4,2,0,69,1,0
19936,375,4,2,0,69,1,0
41712,375,4,2,0,71,1,0
45436,375,4,2,0,71,1,0
53958,-100,4,2,0,0,0,0
56958,-100,4,2,0,71,0,0

[Colours]
Combo1 : 218,79,230
Combo2 : 243,89,34
Combo3 : 112,196,193
Combo4 : 74,109,202

[HitObjects]
256,192,1186,1,4
256,192,2686,5,4
104,192,3436,6,2,L|104:352,1,150
256,344,4186,2,2,L|256:176,1,150
408,192,4936,5,2
256,192,5311,1,2
104,192,5686,1,4
112,40,6436,5,2
184,40,6623,1,2
256,40,6811,1,2
328,40,6998,1,2
400,40,7186,1,0
256,40,7561,1,2
256,192,7936,5,2
256,192,8123,1,2
256,192,8311,1,2
256,192,8498,2,4,C|496:192,1,225
400,344,9423,5,2
328,344,9610,1,2
256,344,9798,1,2
184,344,9985,1,2
112,344,10173,1,0
256,344,10548,1,2
256,192,10923,5,2
256,192,11110,1,2
256,192,11298,1,2
256,192,11485,2,4,C|16:192,1,225,4|4
112,40,12436,5,2
184,40,12623,1,2
256,40,12811,1,2
328,40,12998,1,2
400,40,13186,1,0
256,40,13561,1,2
256,192,13936,5,2
256,192,14123,1,2
256,192,14311,1,2
256,192,14498,2,4,C|400:192,2,112.5,4|0|4
8,192,15436,5,2
504,192,16186,5,2
184,192,16964,5,2
184,192,17151,1,2
256,192,17339,1,2
256,192,17526,1,2
328,192,17714,2,2,C|328:248,4,37.5
112,40,18464,5,2
184,40,18651,1,2
256,40,18839,1,2
328,40,19026,1,2
400,40,19214,1,0
400,40,19568,1,2
400,192,19936,5,2
320,192,20123,1,2
248,192,20311,1,2
168,192,20498,2,4,C|344:40,1,225
112,344,21436,5,2
184,344,21623,1,2
256,344,21811,1,2
328,344,21998,1,2
400,344,22186,1,0
400,344,22561,1,2
408,192,22936,5,2
328,192,23123,1,2
256,192,23311,1,2
176,192,23498,1,4
176,192,23686,1,4
104,192,23873,1,4
104,192,24061,1,4
88,40,24436,6,2,C|176:40,1,75
240,40,24811,2,2,C|328:40,1,75
392,40,25186,2,2,C|392:224,1,150,0|2
256,192,25936,1,2
256,192,26123,1,2
256,192,26311,1,0
256,192,26498,1,0
160,344,26873,5,0
160,344,27061,1,0
160,344,27248,1,0
160,344,27436,2,2,C|336:344,1,150
384,344,27998,1,0
456,344,28186,2,2,C|456:160,1,150
456,120,28748,1,4
384,120,28936,6,2,B|256:264|128:112,1,300,2|14
352,304,30248,5,2
352,152,30623,1,2
352,72,30811,1,2
352,72,30998,1,2
352,72,31186,1,2
144,72,31748,6,2,C|144:176,1,75,0|2
144,224,32123,1,2
144,304,32311,1,2
144,304,32498,1,2
144,304,32686,1,2
512,192,33436,5,2
0,192,34186,5,2
256,64,34936,6,2,C|256:160,1,75,2|0
256,240,35311,2,2,C|256:352,1,75,2|4
408,192,36436,6,2,B|408:136,4,37.5,2|2|2|2|0
256,192,37186,6,2,B|256:136,4,37.5,2|2|2|2|0
104,192,37936,6,2,B|104:136,4,37.5,2|2|2|2|0
176,192,38498,6,2,B|176:136,6,37.5
112,40,39436,5,2
184,40,39623,1,2
256,40,39811,1,2
328,40,39998,1,2
400,40,40186,1,0
256,40,40561,1,2
256,192,40936,5,2
256,192,41123,1,2
256,192,41311,1,2
256,192,41498,1,4
368,296,41899,6,2,L|368:130,1,150,2|0
368,48,42462,6,2,C|120:48,2,225
368,336,43962,6,2,C|120:336,2,225,2|2|6
464,304,45436,6,2,C|464:56,2,225
48,304,46936,6,2,C|48:56,2,225,2|2|6
104,48,48436,5,2
256,48,48811,1,2
408,48,49186,1,0
448,192,49936,6,2,C|112:192,1,300,2|6
0,192,51436,5,2
256,24,51811,5,2
512,192,52186,5,2
256,360,52561,5,2
256,192,52936,5,2
256,192,53123,5,0
256,192,53311,5,2
256,192,53498,5,0
256,192,53686,5,2
256,192,54061,12,14,57061
