osu file format v14

[General]
AudioFilename: Cytus-Total Sphere.ampg.mp3
AudioLeadIn: 0
PreviewTime: -1
Countdown: 1
SampleSet: Normal
StackLeniency: 0.7
Mode: 0
LetterboxInBreaks: 1
WidescreenStoryboard: 0

[Editor]
DistanceSpacing: 1
BeatDivisor: 4
GridSize: 16
TimelineZoom: 1

[Metadata]
Title:Total sphere
TitleUnicode:Total sphere
Artist:Tsukasa
ArtistUnicode:Tsukasa
Creator:Beat Nitro
Version:Normal sphere
Source:
Tags:
BeatmapID:760245
BeatmapSetID:344101

[Difficulty]
HPDrainRate:3
CircleSize:3
OverallDifficulty:4
ApproachRate:4
SliderMultiplier:1.2
SliderTickRate:2

[Events]
//Background and Video events
0,0,"(totalsphere).png",0,0
//Break Periods
2,30990,37076
//Storyboard Layer 0 (Background)
//Storyboard Layer 1 (Fail)
//Storyboard Layer 2 (Pass)
//Storyboard Layer 3 (Foreground)
//Storyboard Sound Samples

[TimingPoints]
368,422.535211267606,4,1,0,100,1,0
18062,-90.9090909090909,4,1,0,100,0,0
30738,-100,4,1,0,100,0,0
32428,-98.0392156862745,4,1,0,100,0,0
34118,-96.1538461538461,4,1,0,100,0,0
35808,-94.3396226415094,4,1,0,100,0,0
37499,-92.5925925925926,4,1,0,100,0,0
38344,-90.9090909090909,4,1,0,100,0,0
44259,-111.111111111111,4,1,0,100,0,0
57780,-100,4,1,0,100,0,0
84823,-80,4,1,0,100,0,1
98344,-90.9090909090909,4,1,0,100,0,0

[HitObjects]
256,192,368,12,0,2903,0:0:0:0:
74,88,3748,5,0,0:0:0:0:
117,199,4170,2,0,P|173:212|247:179,3,120
254,74,5860,2,0,P|332:105|363:129,1,120
390,243,6706,1,0,0:0:0:0:
296,317,7128,5,0,0:0:0:0:
233,214,7551,2,0,P|185:176|116:149,3,120
238,99,9241,1,0,0:0:0:0:
350,140,9663,2,0,B|378:180|377:180|343:194|343:194|375:251,1,120
261,294,10508,6,0,L|384:220,1,120
246,206,11353,2,0,L|114:208,1,120
122,87,12198,2,0,L|267:95,1,120
356,131,13044,2,0,L|219:156,1,120
180,258,13889,6,0,P|118:216|115:154,1,120
219,125,14734,2,0,P|265:151|298:224,1,120
256,192,15579,12,0,17269,0:0:0:0:
232,97,18114,6,0,L|343:97,2,99.0000030212403
232,157,18959,2,0,L|122:157,2,99.0000030212403
234,223,19804,2,0,L|346:227,2,99.0000030212403
126,247,23607,6,0,L|260:170,1,132.00000402832
235,52,24875,6,0,L|134:54,2,99.0000030212403
269,108,25720,2,0,L|348:180,2,99.0000030212403
202,111,26565,2,0,L|131:216,2,99.0000030212403
238,166,27410,6,0,L|249:257,3,66.0000020141602
184,207,28255,2,0,L|137:267,3,66.0000020141602
141,192,29100,2,0,L|49:192,3,66.0000020141602
112,137,29945,2,0,P|155:108|333:210,1,264.000008056641
230,62,38396,6,0,L|365:103,1,132.00000402832
229,137,39241,2,0,L|349:208,1,132.00000402832
210,196,40086,2,0,L|280:318,1,132.00000402832
256,192,40931,12,0,44311,0:0:0:0:
184,97,44945,6,0,L|304:108,6,107.999996704102
173,162,47691,1,0,0:0:0:0:
165,227,47903,2,0,L|285:253,7,107.999996704102
291,199,51072,5,0,0:0:0:0:
411,90,51706,2,0,L|288:90,14,107.999996704102
403,143,57832,1,0,0:0:0:0:
380,198,58044,6,0,L|300:305,1,120
188,298,58889,2,0,L|111:182,1,120
189,98,59734,2,0,L|264:203,1,120
342,109,60579,2,0,L|275:224,1,120
239,256,61213,1,0,0:0:0:0:
290,287,61424,6,0,L|392:193,1,120
258,212,62269,2,0,L|348:112,1,120
255,210,63114,2,0,L|179:102,1,120
211,229,63959,2,0,L|86:178,1,120
105,123,64593,5,0,0:0:0:0:
151,84,64804,2,0,P|206:65|275:84,1,120
151,118,65649,2,0,P|206:138|290:123,1,120
273,192,66283,1,0,0:0:0:0:
267,251,66494,6,0,P|230:284|150:289,1,120
47,256,67339,2,0,P|70:217|151:187,1,120
170,137,67973,1,0,0:0:0:0:
227,121,68184,6,0,P|294:108|349:135,1,120
344,187,68818,1,0,0:0:0:0:
348,246,69029,6,0,P|312:281|231:264,1,120
256,192,69663,12,0,71353,0:0:0:0:
121,73,72198,5,0,0:0:0:0:
241,70,72621,1,0,0:0:0:0:
338,140,73044,2,0,L|383:234,2,90
277,143,73889,2,0,L|239:228,2,90
381,289,75156,5,0,0:0:0:0:
260,291,75579,1,0,0:0:0:0:
140,291,76001,1,0,0:0:0:0:
204,189,76424,2,0,L|138:118,2,90
264,189,77269,2,0,L|340:125,2,90
95,69,78959,5,0,0:0:0:0:
212,92,79382,1,0,0:0:0:0:
318,147,79804,2,0,L|380:238,2,90
257,151,80649,2,0,L|203:242,2,90
369,291,81917,5,0,0:0:0:0:
249,294,82339,1,0,0:0:0:0:
128,295,82762,1,0,0:0:0:0:
218,216,83184,2,0,L|148:132,2,90
278,218,84029,2,0,L|344:136,2,90
90,92,85297,6,0,L|196:90,1,75
152,164,85720,2,0,L|248:168,1,75
231,241,86142,2,0,L|313:242,1,75
374,211,86565,2,0,L|443:100,2,112.5
298,213,87410,2,0,L|231:112,2,112.5
291,287,88255,6,0,L|196:306,1,75
243,231,88677,2,0,L|156:237,1,75
209,173,89100,2,0,L|125:181,1,75
177,118,89522,2,0,L|89:122,1,75
105,196,89945,2,0,L|229:242,2,112.5
110,271,90790,2,0,L|206:176,2,112.5
335,278,92058,6,0,L|426:224,1,75
332,207,92480,2,0,L|245:189,1,75
322,152,92903,2,0,L|396:111,1,75
313,103,93325,2,0,L|193:146,2,112.5
275,168,94170,2,0,L|235:285,2,112.5
202,186,95015,6,0,P|171:227|59:244,1,150
89,100,95860,2,0,P|149:70|240:84,1,150
374,117,96706,2,0,P|388:188|376:266,1,150
292,139,97551,2,0,P|265:199|294:289,1,150
208,148,98396,5,0,0:0:0:0:
463,80,99241,6,0,L|418:167,1,66.0000020141602
369,121,99663,2,0,L|332:202,1,66.0000020141602
275,174,100086,1,0,0:0:0:0:
36,60,100931,6,0,L|72:123,1,66.0000020141602
129,90,101353,2,0,L|166:164,1,66.0000020141602
216,181,101776,1,0,0:0:0:0:
29,368,102621,6,0,L|86:307,1,66.0000020141602
140,324,103044,2,0,L|188:252,1,66.0000020141602
213,214,103466,1,0,0:0:0:0:
444,340,104311,6,0,L|371:294,1,66.0000020141602
329,335,104734,2,0,L|272:281,1,66.0000020141602
267,225,105156,1,0,0:0:0:0:
174,131,105579,6,0,P|215:88|297:100,1,132.00000402832
307,152,106213,2,0,L|385:144,3,66.0000020141602
302,257,107269,6,0,P|262:286|174:267,1,132.00000402832
216,217,107903,2,0,L|131:230,3,66.0000020141602
204,106,108959,6,0,P|275:71|335:72,1,132.00000402832
424,315,110227,5,0,0:0:0:0:
292,313,110649,1,0,0:0:0:0:
165,273,111072,1,0,0:0:0:0:
120,148,111494,1,0,0:0:0:0:
185,33,111917,1,0,0:0:0:0:
