osu file format v14

[General]
AudioFilename: Cytus-Total Sphere.ampg.mp3
AudioLeadIn: 0
PreviewTime: -1
Countdown: 1
SampleSet: Normal
StackLeniency: 0.7
Mode: 0
LetterboxInBreaks: 1
WidescreenStoryboard: 1

[Editor]
DistanceSpacing: 1
BeatDivisor: 4
GridSize: 16
TimelineZoom: 1

[Metadata]
Title:Total sphere
TitleUnicode:Total sphere
Artist:Tsukasa
ArtistUnicode:Tsukasa
Creator:Beat Nitro
Version:Hard sphere
Source:
Tags:
BeatmapID:760243
BeatmapSetID:344101

[Difficulty]
HPDrainRate:5
CircleSize:4
OverallDifficulty:5.1
ApproachRate:6
SliderMultiplier:1.5
SliderTickRate:2

[Events]
//Background and Video events
0,0,"(totalsphere).png",0,0
//Break Periods
//Storyboard Layer 0 (Background)
//Storyboard Layer 1 (Fail)
//Storyboard Layer 2 (Pass)
//Storyboard Layer 3 (Foreground)
//Storyboard Sound Samples

[TimingPoints]
368,422.535211267606,4,1,0,100,1,0
17639,-83.3333333333333,4,1,0,100,0,0
30738,-142.857142857143,4,1,0,100,0,0
44259,-100,4,1,0,100,0,0
71301,-76.9230769230769,4,1,0,100,0,1
84823,-86.9565217391304,4,1,0,100,0,0
91583,-83.3333333333333,4,1,0,100,0,0
98344,-100,4,1,0,100,0,0

[HitObjects]
256,192,368,12,0,2058,0:0:0:0:
104,60,2903,5,0,0:0:0:0:
168,97,3114,2,0,L|126:144,4,37.5
229,140,3748,1,0,0:0:0:0:
149,267,4170,5,0,0:0:0:0:
223,258,4382,1,0,0:0:0:0:
338,162,4804,1,0,0:0:0:0:
215,75,5227,1,0,0:0:0:0:
396,313,6072,5,0,0:0:0:0:
253,267,6494,1,0,0:0:0:0:
123,190,6917,1,0,0:0:0:0:
328,99,7551,5,0,0:0:0:0:
302,169,7762,1,0,0:0:0:0:
177,252,8184,1,0,0:0:0:0:
145,105,8607,1,0,0:0:0:0:
444,91,9452,5,0,0:0:0:0:
339,199,9875,1,0,0:0:0:0:
213,280,10297,1,0,0:0:0:0:
138,281,10508,1,0,0:0:0:0:
119,131,10931,5,0,0:0:0:0:
193,122,11142,1,0,0:0:0:0:
335,170,11565,1,0,0:0:0:0:
396,306,11987,1,0,0:0:0:0:
96,306,12832,5,0,0:0:0:0:
237,255,13255,1,0,0:0:0:0:
324,133,13677,1,0,0:0:0:0:
98,137,14311,5,0,0:0:0:0:
172,138,14522,1,0,0:0:0:0:
302,212,14945,1,0,0:0:0:0:
412,313,15368,1,0,0:0:0:0:
337,322,15579,2,0,P|271:322|185:280,1,150
120,158,16424,2,0,P|197:131|199:129,2,75
139,85,17058,1,0,0:0:0:0:
213,79,17269,1,0,0:0:0:0:
419,296,18114,6,0,L|366:329,3,44.999998626709
379,274,18537,2,0,L|315:295,3,44.999998626709
342,243,18959,2,0,L|281:249,3,44.999998626709
308,203,19382,2,0,L|232:205,3,44.999998626709
274,160,19804,2,0,L|199:160,3,44.999998626709
227,114,20227,2,0,L|165:144,4,44.999998626709
243,194,23607,6,0,L|300:193,4,44.999998626709
126,65,24875,6,0,L|199:67,3,44.999998626709
150,106,25297,2,0,L|223:85,3,44.999998626709
181,149,25720,2,0,L|212:112,3,44.999998626709
226,162,26142,2,0,L|238:111,3,44.999998626709
277,165,26565,2,0,L|254:108,3,44.999998626709
327,143,26987,2,0,L|273:92,3,44.999998626709
349,107,27410,6,0,L|421:190,3,89.9999972534181
401,248,28255,2,0,L|298:245,3,89.9999972534181
255,248,29100,2,0,L|215:209,3,44.999998626709
168,220,29522,2,0,L|170:151,3,44.999998626709
142,129,29945,2,0,P|213:85|445:205,1,359.999989013672
230,179,31635,6,0,L|222:210,3,26.2499991989136
196,205,32058,2,0,L|191:249,3,26.2499991989136
166,231,32480,1,0,0:0:0:0:
282,179,33325,6,0,L|290:210,3,26.2499991989136
316,205,33748,2,0,L|321:249,3,26.2499991989136
346,231,34170,1,0,0:0:0:0:
299,151,35015,6,0,L|307:120,3,26.2499991989136
333,125,35438,2,0,L|338:81,3,26.2499991989136
363,99,35860,1,0,0:0:0:0:
207,154,36706,6,0,L|199:123,3,26.2499991989136
173,128,37128,2,0,L|168:84,3,26.2499991989136
143,102,37551,1,0,0:0:0:0:
96,221,38396,5,0,0:0:0:0:
166,256,38713,2,0,L|201:228,1,26.2499991989136
235,259,39029,1,0,0:0:0:0:
284,276,39241,2,0,L|372:321,2,78.7499975967408
298,225,40086,2,0,L|372:187,2,78.7499975967408
252,198,40931,2,0,B|173:190|83:136|83:136|211:84|319:118,1,419.999987182618
256,192,42727,12,0,43889,0:0:0:0:
264,191,44311,5,0,0:0:0:0:
196,222,44522,1,0,0:0:0:0:
201,71,44945,1,0,0:0:0:0:
333,141,45368,1,0,0:0:0:0:
328,290,45790,1,0,0:0:0:0:
196,222,46213,1,0,0:0:0:0:
201,71,46635,1,0,0:0:0:0:
333,141,47058,1,0,0:0:0:0:
328,290,47480,5,0,0:0:0:0:
196,222,47903,1,0,0:0:0:0:
201,71,48325,1,0,0:0:0:0:
333,141,48748,1,0,0:0:0:0:
328,290,49170,1,0,0:0:0:0:
196,222,49593,1,0,0:0:0:0:
201,71,50015,1,0,0:0:0:0:
333,141,50438,1,0,0:0:0:0:
328,290,50860,1,0,0:0:0:0:
262,252,51072,1,0,0:0:0:0:
196,222,51283,5,0,0:0:0:0:
201,71,51706,1,0,0:0:0:0:
333,141,52128,1,0,0:0:0:0:
328,290,52551,1,0,0:0:0:0:
196,222,52973,1,0,0:0:0:0:
201,71,53396,1,0,0:0:0:0:
333,141,53818,1,0,0:0:0:0:
328,290,54241,1,0,0:0:0:0:
196,222,54663,5,0,0:0:0:0:
201,71,55086,1,0,0:0:0:0:
333,141,55508,1,0,0:0:0:0:
328,290,55931,1,0,0:0:0:0:
196,222,56353,1,0,0:0:0:0:
201,71,56776,1,0,0:0:0:0:
333,141,57198,1,0,0:0:0:0:
328,290,57621,1,0,0:0:0:0:
262,254,57832,1,0,0:0:0:0:
196,222,58044,5,0,0:0:0:0:
201,71,58466,1,0,0:0:0:0:
333,141,58889,1,0,0:0:0:0:
328,290,59311,1,0,0:0:0:0:
196,222,59734,1,0,0:0:0:0:
201,71,60156,1,0,0:0:0:0:
333,141,60579,1,0,0:0:0:0:
328,290,61001,1,0,0:0:0:0:
259,259,61213,1,0,0:0:0:0:
196,222,61424,5,0,0:0:0:0:
201,71,61846,1,0,0:0:0:0:
333,141,62269,1,0,0:0:0:0:
328,290,62691,1,0,0:0:0:0:
196,222,63114,1,0,0:0:0:0:
201,71,63537,1,0,0:0:0:0:
333,141,63959,1,0,0:0:0:0:
328,290,64382,1,0,0:0:0:0:
261,255,64593,1,0,0:0:0:0:
196,222,64804,5,0,0:0:0:0:
201,71,65227,1,0,0:0:0:0:
333,141,65649,1,0,0:0:0:0:
328,290,66072,1,0,0:0:0:0:
261,255,66283,1,0,0:0:0:0:
196,222,66494,5,0,0:0:0:0:
201,71,66917,1,0,0:0:0:0:
333,141,67339,1,0,0:0:0:0:
328,290,67762,1,0,0:0:0:0:
263,251,67973,1,0,0:0:0:0:
196,222,68184,5,0,0:0:0:0:
201,71,68607,1,0,0:0:0:0:
269,107,68818,1,0,0:0:0:0:
333,141,69029,5,0,0:0:0:0:
328,290,69452,1,0,0:0:0:0:
263,251,69663,1,0,0:0:0:0:
256,192,69769,12,0,71353,0:0:0:0:
114,159,71987,6,0,L|177:114,1,48.7499977684022
154,169,72198,2,0,L|227:150,3,48.7499977684022
187,198,72621,2,0,L|257:215,3,48.7499977684022
203,239,73044,2,0,L|269:275,3,48.7499977684022
232,294,73466,2,0,L|292:295,3,48.7499977684022
275,257,73889,2,0,L|327:237,3,48.7499977684022
287,212,74311,2,0,L|352:173,3,48.7499977684022
285,173,74734,1,0,0:0:0:0:
220,134,74945,6,0,L|162:157,1,48.7499977684022
212,174,75156,2,0,L|190:221,3,48.7499977684022
230,194,75579,2,0,L|251:251,3,48.7499977684022
263,197,76001,2,0,L|308:232,3,48.7499977684022
285,173,76424,2,0,L|362:176,3,48.7499977684022
301,143,76846,2,0,L|348:94,3,48.7499977684022
288,119,77269,2,0,L|303:61,3,48.7499977684022
265,102,77691,2,0,L|207:54,3,48.7499977684022
239,116,78114,1,0,0:0:0:0:
87,282,78748,6,0,L|149:298,1,48.7499977684022
132,254,78959,2,0,L|183:294,3,48.7499977684022
172,236,79382,2,0,L|203:299,3,48.7499977684022
214,240,79804,2,0,L|213:302,3,48.7499977684022
247,259,80227,2,0,L|293:201,3,48.7499977684022
235,214,80649,2,0,L|265:168,3,48.7499977684022
217,182,81072,2,0,L|254:119,3,48.7499977684022
196,157,81494,1,0,0:0:0:0:
108,200,81706,6,0,L|84:254,1,48.7499977684022
135,233,81917,2,0,L|154:300,3,48.7499977684022
179,242,82339,2,0,L|240:267,3,48.7499977684022
218,211,82762,2,0,L|272:210,3,48.7499977684022
233,174,83184,2,0,L|303:149,3,48.7499977684022
236,132,83607,2,0,L|285:91,3,48.7499977684022
224,102,84029,2,0,L|243:50,3,48.7499977684022
198,82,84452,2,0,L|167:37,3,48.7499977684022
157,89,84875,5,0,0:0:0:0:
155,261,85297,1,0,0:0:0:0:
320,311,85720,1,0,0:0:0:0:
375,194,86037,1,0,0:0:0:0:
328,121,86353,1,0,0:0:0:0:
251,80,86565,1,0,0:0:0:0:
134,136,86882,1,0,0:0:0:0:
112,216,87198,5,0,0:0:0:0:
163,285,87410,1,0,0:0:0:0:
288,315,87727,1,0,0:0:0:0:
368,282,88044,1,0,0:0:0:0:
429,221,88255,1,0,0:0:0:0:
309,96,88677,1,0,0:0:0:0:
137,114,89100,5,0,0:0:0:0:
141,243,89417,1,0,0:0:0:0:
210,295,89734,1,0,0:0:0:0:
295,305,89945,1,0,0:0:0:0:
409,245,90262,1,0,0:0:0:0:
440,164,90579,1,0,0:0:0:0:
392,91,90790,5,0,0:0:0:0:
262,90,91107,1,0,0:0:0:0:
180,117,91424,1,0,0:0:0:0:
108,164,91635,1,0,0:0:0:0:
209,312,92058,5,0,0:0:0:0:
388,307,92480,1,0,0:0:0:0:
381,172,92797,1,0,0:0:0:0:
282,172,93114,1,0,0:0:0:0:
183,206,93325,1,0,0:0:0:0:
65,139,93642,1,0,0:0:0:0:
178,115,93959,5,0,0:0:0:0:
281,96,94170,1,0,0:0:0:0:
374,193,94487,1,0,0:0:0:0:
351,278,94804,1,0,0:0:0:0:
266,304,95015,2,0,L|183:264,3,89.9999972534181
223,183,95860,2,0,L|325:140,3,89.9999972534181
222,111,96706,6,0,L|179:80,3,44.999998626709
187,129,97128,2,0,L|139:132,3,44.999998626709
168,168,97551,2,0,L|119:204,3,44.999998626709
174,210,97973,2,0,L|163:260,3,44.999998626709
206,236,98396,1,0,0:0:0:0:
448,60,99241,5,0,0:0:0:0:
420,84,99346,1,0,0:0:0:0:
385,98,99452,1,0,0:0:0:0:
350,112,99558,1,0,0:0:0:0:
324,139,99663,2,0,L|276:141,4,37.5
64,60,100931,5,0,0:0:0:0:
92,84,101037,1,0,0:0:0:0:
127,98,101142,1,0,0:0:0:0:
162,112,101248,1,0,0:0:0:0:
188,139,101353,2,0,L|236:141,4,37.5
64,324,102621,5,0,0:0:0:0:
92,300,102727,1,0,0:0:0:0:
127,286,102832,1,0,0:0:0:0:
162,272,102938,1,0,0:0:0:0:
188,245,103044,2,0,L|236:243,4,37.5
448,324,104311,5,0,0:0:0:0:
420,300,104417,1,0,0:0:0:0:
385,286,104522,1,0,0:0:0:0:
350,272,104628,1,0,0:0:0:0:
324,245,104734,2,0,L|276:243,4,37.5
235,192,106846,5,0,0:0:0:0:
235,192,108537,5,0,0:0:0:0:
235,192,109382,1,0,0:0:0:0:
235,192,110227,5,0,0:0:0:0:
235,192,110649,1,0,0:0:0:0:
235,192,111072,1,0,0:0:0:0:
235,192,111494,1,0,0:0:0:0:
235,192,111917,1,0,0:0:0:0:
