osu file format v14

[General]
AudioFilename: Cytus-Total Sphere.ampg.mp3
AudioLeadIn: 0
PreviewTime: -1
Countdown: 1
SampleSet: Normal
StackLeniency: 0.7
Mode: 0
LetterboxInBreaks: 1
WidescreenStoryboard: 1

[Editor]
DistanceSpacing: 1
BeatDivisor: 4
GridSize: 16
TimelineZoom: 1

[Metadata]
Title:Total sphere
TitleUnicode:Total sphere
Artist:Tsukasa
ArtistUnicode:Tsukasa
Creator:Beat Nitro
Version:Easy sphere
Source:
Tags:
BeatmapID:760242
BeatmapSetID:344101

[Difficulty]
HPDrainRate:1.1
CircleSize:2.5
OverallDifficulty:1
ApproachRate:2
SliderMultiplier:1
SliderTickRate:2

[Events]
//Background and Video events
0,0,"(totalsphere).png",0,0
//Break Periods
2,30990,36836
//Storyboard Layer 0 (Background)
//Storyboard Layer 1 (Fail)
//Storyboard Layer 2 (Pass)
//Storyboard Layer 3 (Foreground)
//Storyboard Sound Samples

[TimingPoints]
368,422.535211267606,4,1,0,100,1,0
18062,-90.9090909090909,4,1,0,100,0,0
30738,-100,4,1,0,100,0,0
32428,-98.0392156862745,4,1,0,100,0,0
34118,-96.1538461538461,4,1,0,100,0,0
35808,-94.3396226415094,4,1,0,100,0,0
37499,-92.5925925925926,4,1,0,100,0,0
38344,-90.9090909090909,4,1,0,100,0,0
44259,-111.111111111111,4,1,0,100,0,0
57780,-100,4,1,0,100,0,0
84823,-80,4,1,0,100,0,1
98344,-90.9090909090909,4,1,0,100,0,0

[HitObjects]
256,192,368,12,0,2903,0:0:0:0:
62,130,3748,6,0,P|121:104|175:97,1,100
129,194,4593,2,0,P|196:168|231:174,1,100
215,271,5438,2,0,P|267:273|330:284,1,100
384,208,6283,2,0,L|304:134,1,100
210,132,7128,6,0,L|100:151,1,100
131,247,7973,2,0,L|240:216,1,100
326,230,8818,2,0,L|436:275,1,100
453,173,9663,2,0,L|346:125,1,100
277,78,10508,6,0,L|239:180,1,100
212,267,11353,2,0,P|265:294|406:255,2,200
185,170,13466,1,0,0:0:0:0:
137,81,13889,6,0,L|255:84,1,100
336,75,14734,2,0,P|355:133|312:263,3,200
86,51,18114,6,0,P|118:109|334:274,2,330.000010070801
252,188,24029,5,0,0:0:0:0:
426,51,24875,6,0,P|394:109|178:274,2,330.000010070801
255,191,29100,5,0,0:0:0:0:
255,191,30790,5,0,0:0:0:0:
116,130,38396,6,0,P|169:106|243:100,1,110.000003356934
329,92,39241,2,0,P|366:147|146:339,1,440.000013427735
256,192,41353,12,0,44311,0:0:0:0:
148,104,45156,5,0,0:0:0:0:
324,140,46001,5,0,0:0:0:0:
188,258,46846,5,0,0:0:0:0:
276,276,47269,1,0,0:0:0:0:
365,276,47691,1,0,0:0:0:0:
376,96,48537,5,0,0:0:0:0:
209,163,49382,5,0,0:0:0:0:
133,326,50227,5,0,0:0:0:0:
126,236,50649,1,0,0:0:0:0:
146,148,51072,1,0,0:0:0:0:
315,87,51917,5,0,0:0:0:0:
325,266,52762,5,0,0:0:0:0:
166,351,53607,5,0,0:0:0:0:
225,283,54029,1,0,0:0:0:0:
168,212,54452,1,0,0:0:0:0:
101,44,55297,5,0,0:0:0:0:
245,151,56142,5,0,0:0:0:0:
325,311,56987,5,0,0:0:0:0:
235,300,57409,1,0,0:0:0:0:
153,241,57832,1,0,0:0:0:0:
167,192,58044,6,0,L|271:144,7,100
283,192,61213,5,0,0:0:0:0:
318,226,61424,6,0,L|226:302,7,100
201,258,64593,5,0,0:0:0:0:
178,213,64804,6,0,P|181:157|219:135,3,100
264,131,66283,5,0,0:0:0:0:
309,150,66494,2,0,P|331:193|333:262,3,100
288,260,67973,5,0,0:0:0:0:
238,258,68184,2,0,L|133:218,1,100
147,172,68818,1,0,0:0:0:0:
194,156,69029,2,0,L|292:134,1,100
256,192,69663,12,0,71353,0:0:0:0:
85,54,72198,6,0,L|202:88,1,100
229,94,72832,2,0,P|263:134|281:198,1,100
188,222,73677,2,0,P|207:272|261:304,1,100
292,306,74311,2,0,L|400:306,1,100
395,205,75156,6,0,L|314:138,1,100
278,109,75790,2,0,L|164:111,1,100
144,204,76635,2,0,L|246:224,1,100
254,271,77269,2,0,L|368:263,1,100
433,203,78114,5,0,0:0:0:0:
282,70,78959,6,0,L|399:104,1,100
339,130,79593,2,0,P|373:170|344:218,1,100
259,190,80438,2,0,P|278:240|319:232,1,100
290,277,81072,2,0,L|185:271,1,100
395,205,81917,6,0,L|314:138,1,100
268,135,82551,2,0,L|154:137,1,100
138,232,83396,2,0,L|246:224,1,100
255,271,84030,2,0,L|309:169,1,100
365,290,84875,5,0,0:0:0:0:
230,79,85720,6,0,L|302:83,3,62.5
271,141,86565,2,0,L|341:148,3,62.5
312,206,87410,2,0,P|266:229|172:235,1,125
91,310,88255,1,0,0:0:0:0:
77,185,88677,6,0,L|123:113,3,62.5
158,173,89522,2,0,L|200:102,3,62.5
252,128,90368,2,0,P|308:158|362:201,1,125
360,320,91213,1,0,0:0:0:0:
236,336,91635,1,0,0:0:0:0:
29,195,92480,6,0,P|68:151|154:114,1,125
250,113,93325,2,0,L|333:134,2,62.5
232,173,93959,2,0,L|165:158,3,62.5
129,206,94804,2,0,L|213:233,1,62.5
299,283,95438,6,0,P|346:248|366:180,1,125
366,124,96072,2,0,L|289:130,11,62.5
89,78,99241,6,0,P|86:151|161:285,1,220.000006713867
423,78,100931,6,0,P|426:151|351:285,1,220.000006713867
423,306,102621,6,0,P|426:233|351:99,1,220.000006713867
89,306,104311,6,0,P|86:233|161:99,1,220.000006713867
254,188,106846,5,0,0:0:0:0:
254,188,108537,5,0,0:0:0:0:
254,188,109382,5,0,0:0:0:0:
254,188,110227,6,0,L|376:191,4,110.000003356934
