osu file format v6

[General]
AudioFilename: TECKNIKA MIXING 02 The Clear Blue Sky.MP3
AudioLeadIn: 1500
PreviewTime: -1
Countdown: 1
SampleSet: Normal
StackLeniency: 0.7
Mode: 0
LetterboxInBreaks: 1

[Editor]
DistanceSpacing: 0.800000011920929
BeatDivisor: 4
GridSize: 8

[Metadata]
Title:The Clear Blue Sky
Artist:Tsukasa
Creator:vvvf1000
Version:Hard
Source:djmax technika
Tags:

[Difficulty]
HPDrainRate:5
CircleSize:5
OverallDifficulty:6
SliderMultiplier:1.3
SliderTickRate:2

[Events]
//Background and Video events
Video,0,"clear blue.avi"
0,0,"23_pupplestorm_lovewave17.jpg"
//Break Periods
//Storyboard Layer 0 (Background)
//Storyboard Layer 1 (Fail)
//Storyboard Layer 2 (Pass)
//Storyboard Layer 3 (Foreground)
//Storyboard Sound Samples
//Background Colour Transformations
3,100,0,0,0

[TimingPoints]
250,337.078651685393,4,1,1,50,1,0
23232,-100,4,1,1,50,0,1
34006,-100,4,1,1,50,0,0
50084,-100,4,1,1,50,0,1
56649,-100,4,1,1,50,0,0
69949,-100,4,1,1,50,0,1
78536,-100,4,1,1,0,0,0
86457,-100,4,1,1,0,0,0
88311,-100,4,1,1,50,0,0
89309,-100,4,1,1,50,0,0

[Colours]
Combo1 : 255,255,255
Combo2 : 255,128,255
Combo3 : 128,255,255

[HitObjects]
256,256,1598,1,0
216,224,1766,1,0
216,120,2103,1,0
256,88,4294,5,0
296,120,4463,1,0
296,224,4800,1,0
136,224,5305,1,0
136,328,5643,1,0
136,120,6317,1,0
344,120,6992,1,0
312,160,7160,1,0
312,264,7497,1,0
280,120,9688,5,0
280,168,9856,1,0
176,168,10193,1,0
176,272,10530,1,0
280,272,10867,1,0
152,72,12384,6,0,B|232:72,2,65
96,72,12890,1,0
64,112,13058,2,0,B|152:112,3,65
232,112,13901,1,0
320,168,14238,2,0,B|320:192|296:208|272:208,4,65
368,168,15081,2,0,B|464:168,2,65
400,208,15587,1,0
256,192,16008,12,0,17186
416,144,17778,6,0,B|416:224,2,65
360,144,18283,1,0
360,192,18452,2,0,B|360:272,3,65
272,192,19294,1,0
176,152,19632,2,0,B|152:152|152:112|128:112,4,65
144,192,20474,2,0,B|240:192,2,65
96,208,20980,1,0
256,336,21654,6,0,B|256:296,2,32.5
256,280,21991,1,0
256,176,22328,2,0,B|256:136,6,32.5
256,120,23002,1,0
256,16,23339,5,0
296,48,23508,2,0,B|336:80|336:136|408:160,1,130
416,176,24014,1,0
416,280,24351,1,0
296,280,24688,2,0,B|216:304|176:240|152:280,3,130
256,208,26036,5,0
304,208,26205,2,0,B|344:240|352:120|312:104,1,130
288,64,26710,1,0
184,64,27047,1,0
160,160,27384,2,0,B|128:152|64:176|40:208,3,130
144,224,28733,5,0
192,216,28901,2,0,B|240:224|296:176|328:184,1,130
280,144,29407,1,0
176,152,29744,1,0
128,240,30081,2,0,B|96:248|32:224|8:192,3,130
120,152,31429,5,0
168,152,31598,1,0
264,112,31935,1,0
312,112,32103,1,0
408,152,32441,1,0
480,224,32778,1,0
408,304,33115,2,0,B|368:264|304:248|264:296|224:320|152:304|80:264,1,325
56,248,34126,5,0
96,216,34294,1,0
200,216,34632,1,0
240,184,34800,1,0
344,184,35137,1,0
440,144,35474,1,0
488,56,35811,2,0,B|152:56|152:56|152:48,1,325
112,56,36823,5,0
80,96,36991,1,0
184,96,37328,1,0
152,136,37497,1,0
256,136,37834,1,0
256,240,38171,1,0
152,240,38508,2,0,B|464:136|464:136|464:128,1,325
456,88,39519,5,0
400,88,39688,1,0
304,120,40025,1,0
248,120,40193,1,0
144,144,40530,1,0
48,184,40867,1,0
144,216,41205,2,0,B|472:216|472:216,1,325
464,56,42553,5,0
304,56,43058,1,0
392,184,43564,1,0
232,184,44070,1,0
336,184,44407,1,0
440,184,44744,6,0,B|440:232|440:232,3,32.5
416,232,45081,1,0
368,256,45250,1,0
320,272,45418,6,0,B|240:272|240:272,1,65
200,272,45755,1,0
152,256,45924,1,0
104,232,46092,6,0,B|104:184|104:184,3,32.5
104,176,46429,1,0
152,152,46598,1,0
200,136,46766,6,0,B|240:136|280:136,1,65
312,136,47103,1,0
360,112,47272,1,0
360,56,47441,6,0,B|312:56|312:56,3,32.5
304,56,47778,1,0
256,32,47946,1,0
200,32,48115,6,0,B|120:32,1,65
80,32,48452,1,0
120,56,48620,1,0
168,72,48789,6,0,B|168:120|168:120,3,32.5
168,128,49126,1,0
216,144,49294,1,0
264,144,49463,6,0,B|304:144|344:144,1,65
376,144,49800,1,0
424,144,49969,1,0
424,192,50137,5,0
424,240,50306,1,0
424,288,50474,1,0
424,336,50643,1,0
376,312,50811,5,0
376,256,50980,1,0
376,200,51148,1,0
376,144,51317,1,0
328,168,51485,5,0
328,216,51654,1,0
328,264,51823,1,0
328,312,51991,1,0
280,288,52160,5,0
280,232,52328,1,0
280,176,52497,1,0
280,120,52665,1,0
280,64,52834,6,0,B|376:112,1,97.5
392,120,53171,2,0,B|488:168,1,97.5
480,192,53508,6,0,B|376:232,1,97.5
360,232,53845,2,0,B|256:272,1,97.5
248,280,54182,6,0,B|208:304,3,32.5
200,312,54519,2,0,B|176:328,6,16.25
176,328,54856,1,0
136,296,55025,1,0
96,256,55193,1,0
56,216,55362,1,0
256,192,55699,12,0,56541
352,136,57047,5,0
392,168,57216,2,0,B|432:200|432:256|384:288,1,130
352,312,57721,1,0
272,240,58058,1,0
256,136,58396,2,0,B|208:104|208:48|272:8,3,130
136,232,59744,5,0
96,200,59912,2,0,B|56:168|56:112|104:80,1,130
144,64,60418,1,0
224,128,60755,1,0
240,232,61092,2,0,B|288:264|288:320|224:360,3,130
328,280,62441,5,0
360,320,62609,2,0,B|392:360|448:360|480:312,1,130
496,272,63115,1,0
432,192,63452,1,0
328,176,63789,2,0,B|296:128|240:128|200:192,3,130
120,144,65137,5,0
80,176,65306,2,0,B|40:208|40:264|88:296,1,130
128,312,65811,1,0
208,248,66148,1,0
224,144,66485,2,0,B|272:112|272:56|208:16,3,130
256,192,67665,12,0,70025
304,128,70362,5,0
360,136,70530,1,0
400,168,70699,2,0,B|440:200|432:232,1,65
408,264,71036,1,0
360,288,71205,1,0
304,296,71373,2,0,B|272:304|224:272,1,65
152,232,71879,2,0,B|104:200|216:176|168:104,2,130
144,272,72721,2,0,B|168:312|208:320,2,65
192,264,73227,5,0
216,216,73396,2,0,B|176:184|176:160,1,65
208,128,73733,1,0
248,96,73901,1,0
296,80,74070,2,0,B|328:72|376:104,1,65
448,144,74575,2,0,B|496:176|384:200|432:272,2,130
424,96,75418,2,0,B|400:56|360:48,2,65
376,120,75924,5,0
328,104,76092,2,0,B|296:64|240:64|208:112,1,130
168,128,76598,1,0
136,168,76766,2,0,B|128:200|160:248,1,65
224,304,77272,2,0,B|256:352|280:240|352:288,2,130
184,264,78115,5,0
152,224,78283,1,0
120,176,78452,2,0,B|104:128|56:96|8:16|88:-24|184:-8|248:72|272:120,1,390
320,104,79632,2,0,B|336:152|384:184|432:264|352:304|256:288|192:208|168:160,1,390
152,120,80811,5,0
104,144,80980,1,0
80,192,81148,2,0,B|88:224|152:240|240:240|240:168|272:112|312:120|360:208|360:208|360:200,1,325
336,248,82160,1,0
360,296,82328,2,0,B|400:264|424:192|328:136|312:88|192:64,1,325
160,80,83339,5,0
112,104,83508,1,0
72,136,83676,2,0,B|56:168|48:264|96:344|136:360|184:352|192:336|216:304|256:240|256:184|256:128|272:104|312:104|344:136|360:160|360:200|384:320|424:352|424:352|424:344,1,715
320,352,85867,5,0
280,312,86036,1,0
240,272,86205,1,0
208,312,86373,2,0,B|184:352|160:360|136:344|112:328|96:288|88:240|128:216|176:200|216:200|264:192|312:184|336:168|376:136|384:80|368:48|336:32|296:24|248:32|192:56|176:96|168:128|152:160|112:160|80:128|80:128|80:120,1,715
