osu file format v8

[General]
AudioFilename: Tsukasa - the clear blue sky.mp3
AudioLeadIn: 1000
PreviewTime: 56047
Countdown: 0
SampleSet: Soft
StackLeniency: 0.7
Mode: 0
LetterboxInBreaks: 1

[Editor]
Bookmarks: 23180,33966
DistanceSpacing: 0.6
BeatDivisor: 4
GridSize: 8

[Metadata]
Title:The Clear Blue Sky
Artist:Tsukasa
Creator:Natteke
Version:Insane
Source:DJMax TECHNIKA
Tags:Garven La Cataline yeahyeahyeahhh yyy

[Difficulty]
HPDrainRate:7
CircleSize:4
OverallDifficulty:8
ApproachRate:8
SliderMultiplier:1.4
SliderTickRate:0.5

[Events]
//Background and Video events
0,0,"bg.jpg"
//Break Periods
//Storyboard Layer 0 (Background)
//Storyboard Layer 1 (Fail)
//Storyboard Layer 2 (Pass)
//Storyboard Layer 3 (Foreground)
//Storyboard Sound Samples
//Background Colour Transformations
3,100,163,162,255

[TimingPoints]
260,337.078651685393,4,2,1,60,1,0
4303,-200,4,2,1,60,0,0
5315,-100,4,2,1,60,0,0
7507,-200,4,2,1,60,0,0
7591,-200,4,2,1,0,0,0
8602,-100,4,2,1,60,0,0
44753,-100,4,1,1,55,0,0
56889,-100,4,1,1,55,0,1
56890,-100,4,1,1,55,0,0
78462,-100,4,1,1,55,0,1
78463,-100,4,1,1,55,0,0

[Colours]
Combo1 : 17,254,176
Combo2 : 173,255,95
Combo3 : 255,88,100
Combo4 : 255,94,55

[HitObjects]
56,104,1607,1,0
144,88,1777,1,0
232,112,1946,1,2
288,184,2114,1,2
128,320,3463,6,0,B|112:232|208:192,1,140,0|2
246,267,3968,2,0,B|248:288|304:304,1,70,0|2
271,193,4305,2,0,B|312:160|304:96,2,105,0|2|0
304,98,5653,1,2
304,98,6327,1,2
304,96,7002,5,0
232,144,7171,1,0
208,224,7339,1,2
224,304,7508,2,0,B|328:312|360:208,1,175,2|0
296,88,8856,6,0,B|234:139|260:232,2,140,2|2|0
344,168,9699,2,0,B|368:256|288:312,1,140,2|0
168,128,10204,2,0,B|248:136|272:232,2,140,2|2|2
168,128,11047,1,2
40,352,11553,6,2,B|40:296|40:296|56:264|56:264|56:192,1,140
24,144,12058,2,2,B|64:120|120:160,1,70
144,208,12395,5,8
208,264,12564,1,2
272,208,12732,1,2
208,152,12901,1,8
208,152,13238,1,2
432,64,13575,1,2
432,64,13744,6,0,B|432:88|432:88|440:120|440:120|440:160,2,70,0|2|0
432,320,14249,2,0,B|432:296|432:296|440:264|440:264|440:224,2,70,0|2|8
432,320,14755,6,0,B|384:320|384:320|344:336|344:336|280:336,1,140,8|8
320,256,15260,1,2
232,256,15429,1,2
144,256,15598,2,0,B|208:128,2,140,8|0|0
64,256,16440,2,0,B|96:184,2,70,0|2|0
64,256,16946,1,0
128,112,17114,6,0,B|200:112|200:72|272:72,1,140,8|0
264,160,17620,1,8
264,160,17789,2,0,B|232:232|264:304,1,140,8|0
327,233,18294,2,0,B|360:161|329:89,2,140,8|0|0
248,256,19137,1,0
224,168,19305,1,2
304,144,19474,1,2
328,232,19642,5,0
360,312,19811,1,2
440,288,19980,1,10
416,208,20148,1,8
416,208,20485,6,0,B|344:176|272:208,1,140,8|0
281,205,20991,2,0,B|216:233|144:201,2,140,8|0|0
281,205,21834,6,0,B|313:133|281:61,1,140,0|0
200,88,22339,1,8
200,88,22423,1,8
200,88,22508,1,8
128,176,22676,1,8
144,288,22845,1,8
232,352,23013,1,8
336,320,23182,6,0,B|368:288|360:248,1,70,12|0
368,168,23519,1,2
368,168,23856,2,0,B|296:168,1,70,2|8
298,168,24193,1,2
208,168,24362,6,0,B|208:256|320:256,2,140,8|8|2
256,32,25373,1,8
256,32,25540,1,2
298,112,25710,1,0
400,288,25878,6,0,B|424:256|416:216,1,70,8|0
328,240,26216,2,0,B|280:240|280:240|240:256|240:256|184:256,1,140,2|0
136,320,26721,2,0,B|80:256|136:184,2,140,8|8|8
192,256,27564,2,0,B|240:184|192:112,2,140,2|0|2
104,256,28407,1,8
280,256,28575,6,0,B|264:296|296:344,1,70,8|0
368,288,28912,1,2
408,208,29081,1,0
440,128,29249,1,0
480,48,29418,1,8
256,112,29755,1,8
32,48,30092,5,8
72,128,30260,1,2
112,208,30429,1,0
112,208,30598,1,0
112,208,30766,1,8
112,208,30935,1,2
160,280,31103,1,0
256,152,31272,6,0,B|272:112|256:72,1,70,8|0
256,224,31609,2,0,B|240:264|256:304,1,70,2|0
400,192,31946,2,0,B|304:192,1,70,0|8
256,136,32283,1,2
184,192,32451,2,2,B|128:192|128:192|104:208|104:208|48:208,2,140
200,192,33210,1,2
216,192,33294,5,2
296,232,33463,1,0
384,152,33631,1,2
432,280,33800,1,0
512,184,33968,6,0,B|512:104|512:104|472:48,1,140,8|0
357,95,34474,2,0,B|341:157|301:171|257:192|199:170|158:147|154:85,1,280
224,79,35317,2,0,B|256:106|288:80,2,70
256,8,35822,2,0,B|256:232,1,210
256,218,36496,1,8
168,216,36665,6,0,B|152:144|152:144|176:72,1,140,8|0
344,168,37171,2,0,B|360:240|360:240|336:312,2,140
256,136,38013,1,0
256,48,38182,1,0
256,336,38519,2,0,B|232:272|232:272|208:224|256:192|304:224|264:272,1,210
263,272,39193,1,8
263,272,39362,6,2,B|216:272|216:272|160:288|160:288|112:288,1,140,8|2
248,272,39867,2,2,B|296:272|296:272|352:288|352:288|400:288,2,140
200,200,40710,1,0
288,184,40878,2,0,B|344:128|320:40,2,140,0|0|8
32,192,41890,1,10
32,192,42058,6,0,B|96:136,1,70,12|0
160,200,42395,1,2
160,200,42564,2,0,B|224:256,1,70,12|0
296,200,42901,1,2
296,200,43069,2,0,B|360:144,1,70,12|0
432,200,43407,1,2
432,200,43574,2,0,B|496:256,1,70,12|0
352,88,43912,5,0
352,88,44081,2,8,B|312:96|288:144,1,70
160,296,44418,2,8,B|200:288|224:240,1,70,8|0
176,112,44755,6,0,B|216:120|232:160,1,70,4|0
368,192,45092,2,2,B|320:184|280:208,1,70,2|0
216,240,45429,1,2
264,320,45598,1,0
344,280,45766,1,0
296,200,45935,6,2,B|296:152|296:152|312:104|312:104|312:48,2,140
344,280,46777,2,0,B|384:272|424:280,2,70,2|0|2
344,280,47451,5,0
256,296,47620,1,0
168,264,47789,2,2,B|152:224|176:176,1,70,2|0
344,120,48126,2,2,B|360:160|336:208,1,70,2|0
256,192,48463,1,0
256,192,48631,6,2,B|256:128|256:128|248:104|248:104|248:40,2,140
208,272,49474,1,2
304,272,49642,1,0
304,272,49727,1,0
304,272,49811,1,2
256,352,49980,1,2
168,352,50148,5,4
120,272,50317,1,0
168,192,50485,1,0
256,192,50654,1,0
304,272,50822,1,0
256,352,50991,1,0
168,352,51159,1,0
120,272,51328,1,0
256,192,51496,5,4
344,192,51664,1,0
392,112,51833,1,0
344,32,52001,1,0
256,32,52170,1,0
208,112,52338,1,0
256,192,52508,1,0
152,192,52676,1,0
40,184,52845,5,4
40,208,52929,1,0
40,232,53013,1,0
48,256,53098,1,0
64,280,53182,1,0
88,296,53266,1,0
112,304,53350,1,0
144,304,53435,1,0
168,304,53519,5,4
192,288,53603,1,0
208,264,53687,1,0
224,240,53772,1,0
224,216,53856,1,0
224,192,53940,1,0
232,168,54025,1,0
256,152,54109,1,0
280,168,54193,5,4
288,192,54276,1,0
288,216,54362,1,0
288,240,54446,1,0
304,264,54529,1,4
320,288,54613,1,0
344,304,54699,1,0
368,304,54783,1,0
392,304,54866,6,0,B|480:304,3,70
256,192,55541,12,0,56553
256,192,56721,5,0
160,232,56890,6,0,B|176:272|232:272,1,70,4|0
392,240,57227,2,0,B|376:200|320:200,1,70,8|0
264,64,57564,2,0,B|224:80|224:136,1,70
304,264,57901,1,8
304,264,58069,2,0,B|360:200|328:112,2,140
232,216,58912,2,0,B|176:280|208:368,1,140,0|8
296,344,59418,1,0
232,216,59586,6,0,B|288:152|256:64,1,140,0|8
184,32,60092,1,0
120,96,60260,1,0
168,176,60429,1,0
265,163,60598,1,8
344,56,60766,2,0,B|336:136|256:168,1,140
256,256,61272,1,8
246,163,61440,2,0,B|176:136|168:56,1,140
168,56,61946,1,8
184,280,62283,6,0,B|216:256|224:216,1,70,0|0
320,120,62620,2,0,B|288:144|280:184,1,70,8|0
304,264,62957,1,0
304,264,63041,1,0
304,264,63126,1,0
432,192,63294,1,8
432,192,63463,6,8,B|480:248|456:336|376:352|328:320,1,210,0|8
368,248,64137,2,8,B|320:192|344:104|424:88|472:120,1,210,0|8
443,108,64811,1,0
432,192,64980,6,0,B|352:176|336:64,1,140,0|8
256,192,65485,1,0
192,264,65654,1,0
256,336,65822,1,0
320,264,65991,1,8
256,192,66159,2,0,B|232:120|288:40,1,140
276,58,66581,1,0
276,58,66665,5,8
352,104,66834,1,0
376,192,67002,1,0
352,280,67171,1,0
288,344,67339,1,8
200,344,67508,1,0
136,280,67676,6,0,B|120:192,1,70,0|0
224,120,68013,2,0,B|200:208,1,70,8|0
136,120,68350,2,0,B|120:40,1,70
224,120,68687,1,8
176,200,68856,6,0,B|176:272|224:256|216:352,2,140
176,200,69614,1,0
176,200,69699,1,0
256,152,69867,1,0
336,200,70036,1,8
336,200,70204,1,0
312,288,70373,6,0,B|248:240|152:296,1,140,0|8
248,344,70878,2,0,B|248:192,1,140
176,152,71384,1,8
256,104,71553,2,0,B|256:256,1,140
328,304,72058,1,8
400,248,72227,1,0
400,248,72395,2,0,B|416:208|400:168,1,70
112,136,72732,2,0,B|96:176|112:216,1,70,8|0
176,368,73069,6,0,B|224:288|168:216,1,140,0|8
112,288,73575,2,0,B|192:336|264:280,1,140
184,192,74081,1,8
112,96,74249,2,0,B|192:48|264:104,1,140
256,192,74755,1,8
264,288,74923,2,0,B|344:336|416:280,1,140
328,192,75429,1,8
224,120,75598,6,0,B|248:80|256:56|256:56|264:80|288:128,1,140
256,192,76103,1,8
288,264,76272,2,0,B|264:304|256:328|256:328|248:304|224:256,1,140
72,192,76946,1,4
440,192,77283,1,4
280,120,77620,5,0
272,264,77789,1,0
192,144,77957,1,0
336,200,78126,1,0
184,232,78294,1,0
256,192,78463,1,4
