osu file format v6

[General]
AudioFilename: The Clear Blue Sky.mp3
AudioLeadIn: 996
PreviewTime: 56018
Countdown: 0
SampleSet: Normal
StackLeniency: 0.7
Mode: 0
LetterboxInBreaks: 1

[Editor]
DistanceSpacing: 0.800000011920929
BeatDivisor: 4
GridSize: 8

[Metadata]
Title:The Clear Blue Sky
Artist:Tsukasa
Creator:MoonFragrance
Version:Hard
Source:DJMAX
Tags:DJMAX Kkuem Aki Misawa Djpop HooN

[Difficulty]
HPDrainRate:5
CircleSize:5
OverallDifficulty:7
SliderMultiplier:1.8
SliderTickRate:2

[Events]
//Background and Video events
Video,-1300,"video.flv"
0,0,"e0091406_4a9d44150f596.jpg"
//Break Periods
2,36869,41162
//Storyboard Layer 0 (Background)
//Storyboard Layer 1 (Fail)
//Storyboard Layer 2 (Pass)
//Storyboard Layer 3 (Foreground)
//Storyboard Sound Samples
//Background Colour Transformations
3,100,163,162,255

[TimingPoints]
12400,337.078651685393,4,1,0,100,1,0
13212,-100,4,2,0,100,0,0
14898,-100,4,1,0,100,0,0
15740,-100,4,2,0,100,0,0
17594,-100,4,1,0,100,0,0
18437,-100,4,2,0,100,0,0
20291,-100,4,1,0,100,0,0
21134,-100,4,1,0,20,0,0
21501,-100,4,1,0,35,0,0
21669,-100,4,1,0,50,0,0
21838,-100,4,1,0,60,0,0
22175,-100,4,1,0,70,0,0
22428,-100,4,1,0,80,0,0
23144,-100,4,1,0,100,0,0
44561,-100,4,2,0,100,0,0
49954,-100,4,1,0,100,0,0
56557,-100,4,1,0,0,0,0
56725,-100,4,1,0,100,0,0
56894,-100,4,1,0,100,0,1
75993,-100,4,1,0,80,0,1
76330,-100,4,1,0,60,0,1
76330,-100,4,1,0,60,0,1
76697,-100,4,1,0,40,0,1
77961,-100,4,2,0,70,0,0
78467,-200,4,2,0,70,0,0
89253,-100,4,2,0,0,0,0

[Colours]
Combo1 : 255,128,64
Combo2 : 255,128,192
Combo3 : 128,210,255
Combo4 : 128,128,255

[HitObjects]
96,80,12400,1,4
312,80,12905,1,0
312,296,13411,2,0,B|208:296,2,90,0|2|0
312,224,13916,1,0
312,152,14085,2,0,B|368:152|408:208,2,90,2|0|2
240,152,14591,2,0,B|240:248,1,90
240,96,15096,5,0
240,312,15602,1,0
456,312,16107,2,0,B|456:120,1,180
384,128,16613,2,0,B|288:128,1,90
288,200,16950,1,0
360,200,17119,2,0,B|360:296,2,90,2|0|2
216,200,17793,5,0
432,200,18298,1,0
216,200,18804,2,0,B|216:96,2,90
288,200,19310,1,2
288,272,19478,2,0,B|288:376,1,90
224,320,19815,2,0,B|128:320,2,90,2|0|0
152,192,20489,5,0
368,192,20995,1,0
240,128,21332,2,0,B|240:184,14,45
200,64,22680,1,0
128,88,22849,1,0
184,136,23017,1,0
192,168,23102,1,0
168,192,23186,6,0,B|96:192|96:120,2,90,4|0|8
256,96,23860,2,0,B|304:96|304:160,1,90
304,158,24197,1,8
304,158,24366,1,0
208,264,24703,1,0
240,200,24871,1,8
288,256,25040,2,0,B|368:320|464:240,1,180
452,248,25546,1,8
344,144,25883,5,0
272,144,26051,2,0,B|216:144|216:72,1,90,0|8
136,208,26557,2,0,B|240:208,2,90,0|0|8
136,208,27062,1,0
280,208,27400,2,0,B|344:208|344:144,2,90,0|8|0
136,208,28074,2,0,B|136:264|200:264,1,90,0|8
224,120,28579,6,0,B|272:120|304:168,2,90,0|0|8
232,264,29253,2,0,B|264:224|312:232,2,90,0|0|8
296,296,29759,2,0,B|416:296|416:184,1,180
415,192,30265,1,8
360,144,30433,2,0,B|264:96|184:136,1,180
186,134,30939,1,8
56,208,31276,6,0,B|99:228|126:170,2,90,0|0|8
200,232,31950,2,0,B|213:185|275:202,3,90,0|0|8|0
368,96,32793,2,0,B|336:56|280:88,2,90,0|8|0
240,168,33467,1,0
280,224,33635,1,8
256,192,33973,12,4,36669
88,88,42062,5,4
88,88,42231,2,0,B|192:88,1,90
248,88,42568,1,4
248,88,42737,2,0,B|248:192,1,90
248,248,43074,2,0,B|344:248,1,90,4|0
338,248,43411,1,0
408,248,43579,2,0,B|408:152,1,90,4|0
408,158,43916,1,0
352,112,44085,1,12
304,168,44253,1,0
248,120,44422,1,8
104,128,44759,5,0
160,80,44928,1,0
168,152,45096,2,0,B|208:192,2,45,8|0|2
120,208,45433,2,0,B|152:256|208:256,1,90,0|2
248,208,45770,2,0,B|280:168,2,45,8|0|2
288,263,46107,6,0,B|340:250|346:183,2,90,0|2|8
232,304,46613,1,0
168,264,46782,2,0,B|120:216,2,45,0|0|2
216,208,47119,1,8
272,160,47287,2,2,B|312:200,2,45,2|2|0
200,136,47624,6,2,B|152:104|112:152,2,90,2|8|2
168,200,48130,2,0,B|200:240|264:240,2,90,0|0|8
112,248,48635,6,0,B|72:288,2,45,2|0|0
96,176,48973,1,2
112,104,49141,1,8
184,80,49310,2,0,B|216:40,2,45,2|0|0
248,112,49647,2,0,B|304:112|320:168,1,90,2|8
176,112,50152,6,0,B|80:112,1,90,4|0
136,208,50489,2,0,B|136:304,1,90,0|0
232,248,50826,2,0,B|336:248,1,90,4|0
280,144,51164,2,0,B|280:48,1,90
376,104,51501,2,0,B|480:104,1,90,4|0
432,208,51838,2,0,B|432:304,1,90
328,256,52175,2,0,B|232:256,1,90,4|0
280,152,52512,2,0,B|280:56,1,90,4|0
176,152,52849,6,0,B|136:112,2,45,4|0|0
176,288,53186,2,0,B|136:328,2,45
312,288,53523,2,0,B|352:328,2,45
312,152,53860,2,0,B|352:112,2,45,4|0|0
176,152,54197,2,0,B|136:112,2,45,4|0|0
176,288,54534,2,0,B|136:328,2,45,4|0|0
312,288,54871,2,0,B|352:328,2,45,4|0|0
312,152,55208,1,0
256,248,55377,1,0
256,192,55714,12,4,56557
136,128,56894,5,0
136,128,57062,2,0,B|184:128|216:80,1,90,0|8
352,96,57568,2,0,B|352:144|304:168,1,90
305,167,57905,1,8
232,160,58074,2,0,B|80:136|96:232,1,180
96,224,58579,1,8
152,264,58748,2,0,B|208:280|224:224|224:224|288:256|288:184,1,180
288,200,59253,1,8
104,104,59591,5,0
152,152,59759,2,0,B|200:152|240:104,1,90,0|8
368,144,60265,2,0,B|432:176|384:232,1,90,0|0
320,216,60602,1,8
248,216,60770,2,0,B|184:120|96:208,1,180
160,240,61276,1,8
216,288,61444,2,0,B|272:312|352:304|352:304|384:248|376:160,1,270,0|8
264,72,62287,5,0
192,80,62456,2,0,B|136:112|160:160,1,90,0|8
232,152,62793,1,0
304,136,62961,2,0,B|368:152|360:216,1,90
336,264,63298,1,8
272,296,63467,2,0,B|144:296|144:176,1,180,0|0
152,128,63973,1,8
216,104,64141,2,0,B|256:72|312:64|312:64|336:104|328:144,1,180
280,192,64647,1,8
144,248,64984,5,0
144,248,65152,2,0,B|168:280|240:248,1,90,0|8
360,208,65658,2,0,B|336:168|288:152,2,90,0|0|8
360,208,66164,1,0
256,112,66501,2,0,B|216:88|176:136,2,90,0|8|0
256,256,67175,1,0
320,224,67343,1,8
256,184,67512,1,8
192,144,67680,5,0
136,192,67849,2,0,B|96:240|168:264,1,90,0|8
208,216,68186,1,0
256,272,68355,2,0,B|288:312,2,45
320,240,68692,2,0,B|384:256|400:208,2,90,8|0|0
344,168,69197,1,0
296,112,69366,1,8
224,104,69534,2,0,B|168:96|152:152,2,90
224,176,70040,1,8
168,224,70208,1,0
152,152,70377,5,0
80,128,70546,1,0
72,200,70714,2,0,B|80:248|128:272,1,90,8|0
176,224,71051,2,0,B|216:184,2,45
224,280,71388,2,8,B|264:304|280:240|320:272,1,90,8|0
376,240,71725,2,0,B|424:216|376:192|408:152,1,90
408,88,72062,1,8
408,88,72147,1,0
408,88,72231,1,0
336,88,72399,2,0,B|280:64|264:120,1,90
320,160,72737,1,8
264,200,72905,1,0
208,152,73074,6,0,B|192:104|128:96,1,90
128,168,73411,1,8
72,216,73579,1,0
136,248,73748,2,0,B|176:208,2,45
200,288,74085,2,0,B|256:288|280:232,1,90,8|0
336,208,74422,1,0
336,208,74506,1,0
336,208,74591,1,0
384,152,74759,2,0,B|376:104|328:80,1,90,8|0
280,128,75096,1,0
280,128,75180,1,0
280,128,75265,1,0
216,88,75433,1,8
144,72,75602,1,0
96,120,75770,6,0,B|64:168|112:216,1,90
160,240,76107,1,0
160,168,76276,1,0
224,200,76444,2,0,B|248:256|320:248,1,90
312,176,76782,1,0
376,144,76950,2,0,B|400:200|384:288|352:320,1,180
288,336,77456,2,0,B|120:376|248:184|56:224,1,270
24,176,78130,5,0
88,144,78298,1,0
32,96,78467,2,0,B|80:72|128:72|128:72|112:128|128:168|128:168|184:160|208:136,1,270,2|2
264,120,79647,2,2,B|312:144|360:144|360:144|344:88|368:48|368:48,1,180
440,184,80658,1,2
368,192,80826,1,0
416,248,80995,1,2
352,280,81164,6,2,B|328:208|280:192|280:192|224:280|160:176,1,270
112,128,82343,2,2,B|160:64|224:160|224:160|288:88,1,225
352,112,83355,5,2
416,80,83523,1,0
408,152,83692,2,0,B|424:192|376:264|376:264|320:224|344:168|344:168|296:128|248:168|248:168|272:224|224:264|224:264|144:200|192:136,1,585,0|2
192,64,86051,5,0
264,40,86220,1,2
248,112,86388,1,0
256,192,86557,12,0,89253
