osu file format v6

[General]
AudioFilename: The Clear Blue Sky.mp3
AudioLeadIn: 996
PreviewTime: 56018
Countdown: 0
SampleSet: Normal
StackLeniency: 0.7
Mode: 0
LetterboxInBreaks: 1

[Editor]
DistanceSpacing: 0.800000011920929
BeatDivisor: 4
GridSize: 8

[Metadata]
Title:The Clear Blue Sky
Artist:Tsukasa
Creator:MoonFragrance
Version:Easy
Source:DJMAX
Tags:DJMAX Kkuem Aki Misawa Djpop HooN

[Difficulty]
HPDrainRate:2
CircleSize:3
OverallDifficulty:1
SliderMultiplier:1
SliderTickRate:1

[Events]
//Background and Video events
Video,-1300,"video.flv"
0,0,"e0091406_4a9d44150f596.jpg"
//Break Periods
2,34173,40382
2,78666,81506
//Storyboard Layer 0 (Background)
//Storyboard Layer 1 (Fail)
//Storyboard Layer 2 (Pass)
//Storyboard Layer 3 (Foreground)
//Storyboard Sound Samples
//Background Colour Transformations
3,100,163,162,255

[TimingPoints]
12400,337.078651685393,4,1,0,100,1,0
56894,-100,4,1,0,100,0,1
78467,-100,4,1,0,100,0,0
78605,-200,4,2,0,70,0,0
89253,-200,4,2,0,0,0,0

[Colours]
Combo1 : 255,128,64
Combo2 : 255,128,192
Combo3 : 128,210,255
Combo4 : 128,128,255

[HitObjects]
96,80,12400,1,4
216,80,12905,1,0
416,304,15096,5,0
296,304,15602,1,0
392,72,17793,5,0
392,192,18298,1,0
120,312,20489,5,0
120,192,20995,1,0
392,80,23355,5,0
328,184,23860,1,0
224,120,24366,1,0
96,216,25040,2,0,B|80:328|200:296,1,150,0|8
264,216,26051,5,0
344,128,26557,1,0
232,80,27062,1,0
88,152,27737,2,0,B|72:264|192:232,1,150,0|8
200,120,28748,5,0
272,216,29253,1,0
344,120,29759,1,0
448,240,30433,2,0,B|464:352|344:320,1,150,0|8
280,240,31444,5,0
208,144,31950,1,0
136,240,32456,1,0
256,192,32793,12,4,33973
88,72,42062,5,4
168,160,42568,1,0
272,96,43074,1,4
352,184,43579,1,0
432,272,44085,2,8,B|392:320|336:288,1,100
192,240,45096,5,8
192,80,45770,1,8
352,80,46444,1,8
352,240,47119,1,8
264,104,47793,5,8
144,208,48467,1,8
264,320,49141,1,8
384,208,49815,1,8
328,152,50152,5,4
168,152,50826,1,4
168,312,51501,1,4
328,312,52175,1,4
328,152,52849,6,4,B|256:80,2,100,4|0|4
272,208,53860,1,0
336,256,54197,2,4,B|416:336,2,100,4|0|4
272,208,55208,2,0,B|224:160,1,50
88,96,56894,6,0,B|152:208|256:152,1,200,0|8
368,104,58074,1,0
280,240,58748,2,0,B|192:272|152:176,1,150,0|8
256,120,59759,6,0,B|304:56|392:88,2,150,0|8|0
352,248,61444,2,0,B|312:320|200:272,1,150,0|8
160,176,62456,6,0,B|216:120|312:128,1,150,0|8
296,240,63467,1,0
400,120,64141,2,0,B|448:192|400:264,1,150,0|8
280,264,65152,6,0,B|200:320|120:256,2,150,0|8|0
328,112,66838,2,0,B|232:40|208:160,1,150,0|8
160,248,67849,6,0,B|232:280|320:248,1,150,0|8
352,144,68860,2,0,B|336:88|256:96,2,100
256,216,70040,1,8
200,112,70546,6,0,B|112:152|168:240,2,150,0|8|0
264,160,71894,1,0
328,112,72231,2,0,B|416:152|360:240,1,150,0|8
248,264,73242,6,0,B|288:352|376:296,2,150,0|8|0
296,200,74591,1,0
344,136,74928,2,0,B|304:48|216:104,1,150,0|8
136,184,75939,5,0
200,280,76444,1,0
288,200,76950,1,0
344,144,77287,1,0
288,88,77624,2,0,B|144:48|80:200,1,250,0|4
72,72,83186,5,2
112,152,83692,2,0,B|112:280|336:280,1,275
368,240,85883,1,2
384,184,86220,1,0
256,192,86557,12,0,89253
