osu file format v9

[General]
AudioFilename: Tsukasa - the clear blue sky.mp3
AudioLeadIn: 1000
PreviewTime: 56047
Countdown: 0
SampleSet: Soft
StackLeniency: 0.7
Mode: 0
LetterboxInBreaks: 1

[Editor]
Bookmarks: 23180,27057,33966
DistanceSpacing: 1.5
BeatDivisor: 2
GridSize: 16

[Metadata]
Title:The Clear Blue Sky
Artist:Tsukasa
Creator:DaRRi MIx
Version:DaRRiStyle
Source:DJMAX TECHNIKA
Tags:

[Difficulty]
HPDrainRate:6
CircleSize:5
OverallDifficulty:7
ApproachRate:8
SliderMultiplier:1.4
SliderTickRate:0.5

[Events]
//Background and Video events
0,0,"DJMAX TECHNIKA.jpg"
//Break Periods
//Storyboard Layer 0 (Background)
//Storyboard Layer 1 (Fail)
//Storyboard Layer 2 (Pass)
//Storyboard Layer 3 (Foreground)
//Storyboard Sound Samples
//Background Colour Transformations
3,100,0,0,0

[TimingPoints]
260,337.078651685393,4,2,1,60,1,0
2113,-200,4,2,1,60,0,0
2956,-200,4,2,1,0,0,0
3125,-200,4,2,1,60,0,0
8349,-200,4,2,1,0,0,0
8518,-200,4,2,1,60,0,0
12310,-200,4,1,1,100,0,0
17198,-200,4,1,1,50,0,0
17451,-200,4,1,1,100,0,0
20821,-200,4,1,1,40,0,0
21158,-200,4,1,1,50,0,0
21495,-200,4,1,1,60,0,0
21833,-200,4,1,1,70,0,0
22170,-200,4,1,1,80,0,0
22507,-200,4,1,1,90,0,0
22675,-100,4,1,1,100,0,0
33125,-133.333333333333,4,1,1,100,0,0
33967,-200,4,1,1,100,0,0
39698,-125,4,2,1,100,0,0
41552,-200,4,1,1,100,0,0
41889,-100,4,1,1,100,0,0
44753,-100,4,1,1,55,0,1
56890,-100,4,1,1,55,0,0
78462,-100,4,1,1,55,0,1

[Colours]
Combo1 : 223,208,240
Combo2 : 255,255,255

[HitObjects]
480,256,1608,5,2
448,320,1776,1,0
224,352,2113,2,0,B|156:288|176:192,1,175,2|0
128,32,4304,5,2
64,64,4472,1,0
288,96,4810,2,0,B|352:112|368:176,1,105,2|0
192,320,5653,2,0,B|112:288|128:208,1,140,2|2
384,32,7001,5,2
448,64,7169,1,0
224,96,7507,2,0,B|156:160|176:256,1,175,2|0
32,256,9698,5,2
64,320,9866,1,0
288,288,10203,2,0,B|352:320,1,70,2|0
320,96,10877,1,2
480,192,11552,6,0,B|464:224|464:224|480:256|480:256|464:288|464:288|480:320,1,140
478,317,12394,5,4
224,352,12900,1,0
64,320,14585,5,0
32,256,14754,1,0
32,64,15091,5,0
288,32,15597,1,0
480,128,17113,5,0
448,64,17282,1,0
448,256,17619,1,0
478,317,17788,5,0
224,352,18294,1,0
64,320,19979,5,0
32,256,20148,1,0
32,64,20485,5,0
288,32,20990,2,0,B|320:96,1,70,0|0
480,64,21664,6,0,B|448:128,1,70,0|0
480,192,22170,1,0
448,256,22338,1,0
464,272,22422,1,0
480,288,22507,1,0
448,352,22675,2,0,B|384:320,1,70,0|0
320,288,23012,2,0,B|288:352,1,70,0|4
256,256,23349,5,0
224,160,23518,1,0
0,32,23855,1,0
32,128,24024,1,0
0,320,24361,5,0
128,288,24698,1,0
256,256,25035,2,0,B|448:208,1,140
512,192,25540,1,0
416,160,25709,1,0
432,144,25793,1,0
448,128,25877,1,0
416,64,26046,5,0
512,32,26215,1,0
208,192,26552,1,0
304,224,26721,1,0
0,352,27057,5,0
32,192,27394,1,0
96,352,27731,2,0,B|128:288|128:288|64:256,1,140
160,224,28237,1,0
192,320,28406,1,0
288,352,28574,1,0
256,256,28743,5,0
288,160,28912,1,0
512,32,29249,1,0
480,128,29418,1,0
512,320,29755,5,0
384,288,30092,1,0
256,256,30429,2,0,B|64:208,1,140
0,192,30934,5,0
96,160,31103,1,0
80,144,31187,1,0
64,128,31271,1,0
96,64,31440,1,0
0,32,31609,1,0
304,192,31945,1,0
208,224,32114,1,0
512,352,32451,5,0
256,288,32788,1,0
0,352,33125,6,0,B|44:320|44:320|4:288|4:288|44:256|44:256|0:224,1,209.999993741512,0|0
0,96,33967,6,4,B|12:96|20:92|20:92|44:76|44:76|52:72|60:72|60:72|68:72|76:76|76:76|100:92|100:92|108:96|116:96|116:96|124:96|132:92|132:92|156:76|156:76|164:72|172:72|172:72|180:72|188:76|188:76|212:92|212:92|220:96|228:96|228:96|236:96|244:92|244:92|268:76|268:76|276:72|284:72|284:72|292:72|300:76|300:76|324:92|324:92|332:96|340:96|340:96|348:96|356:92|356:92|380:76|380:76|388:72|396:72|396:72|404:72|412:76|412:76|436:92|436:92|444:96|452:96|452:96|460:96|468:92|468:92|492:76|492:76|500:72|512:72,1,560
416,352,39192,5,0
512,320,39361,1,4
0,320,41384,5,2
0,224,41552,2,0,B|0:128,1,70,4|0
0,64,42057,6,0,B|64:32,1,70,4|0
62,32,42394,1,0
96,304,42563,6,0,B|160:336,1,70,4|0
158,335,42900,1,0
192,96,43068,6,0,B|256:64,1,70,4|0
254,64,43406,1,0
288,272,43574,6,0,B|352:304,1,70,4|0
350,303,43911,1,0
416,96,44080,6,0,B|416:0,1,70,4|0
512,64,44417,2,0,B|512:160,1,70,4|0
512,256,44754,5,4
256,352,45091,6,0,B|416:352,1,140
256,32,45765,6,0,B|96:32,1,140
0,320,46439,6,0,B|160:320,1,140
512,64,47113,6,0,B|352:64,1,140
352,320,47788,6,0,B|492:320,1,140
160,64,48462,6,0,B|20:64,1,140
84,352,49136,6,0,B|224:352,1,140
428,32,49810,6,0,B|288:32,1,140,0|4
288,128,50316,5,0
224,64,50484,1,0
224,160,50653,1,0
160,96,50821,1,0
160,192,50990,1,0
96,128,51158,1,0
96,224,51327,1,0
32,160,51495,5,4
32,256,51664,1,0
96,192,51833,1,0
96,288,52001,1,0
160,224,52170,1,0
160,320,52338,1,0
224,256,52507,1,0
224,352,52675,1,0
320,320,52844,5,4
336,312,52928,1,0
352,304,53012,1,0
368,296,53097,1,0
368,272,53181,5,0
352,264,53265,1,0
336,256,53349,1,0
320,248,53434,1,0
320,224,53518,5,4
336,216,53602,1,0
352,208,53686,1,0
368,200,53771,1,0
368,176,53855,5,0
352,168,53939,1,0
336,160,54023,1,0
320,152,54108,1,0
320,128,54192,5,4
336,120,54276,1,0
352,112,54360,1,0
368,104,54445,1,0
368,80,54529,5,0
352,72,54613,1,0
336,64,54697,1,0
320,56,54782,1,0
304,48,54866,5,4
272,144,55035,1,4
240,240,55203,1,4
208,336,55372,1,4
256,192,55540,12,0,56552
20,53,57057,5,0
35,157,57226,2,0,B|51:256,1,70
141,181,57563,2,0,B|223:198,1,70
167,98,57900,1,0
251,35,58068,5,0
460,12,58406,1,0
508,216,58743,2,0,B|491:344|318:327,1,210
311,234,59417,1,0
258,324,59585,1,0
161,282,59754,5,0
70,333,59922,2,0,B|51:248,1,70
109,174,60259,1,0
23,112,60428,2,0,B|89:78,1,70
182,38,60765,5,0
112,236,61102,1,0
293,341,61439,2,0,B|370:358|433:327,1,140
486,239,61945,1,0
388,199,62113,1,4
445,111,62282,1,4
371,36,62451,6,0,B|320:119,1,70
229,101,62788,1,0
148,33,62956,1,0
43,48,63125,2,0,B|37:141,1,70
31,222,63462,5,0
238,190,63799,1,0
445,159,64136,2,0,B|492:275|401:352,1,210
301,325,64810,2,0,B|213:304,1,70,0|4
129,287,65147,5,0
182,196,65316,2,0,B|292:182,1,70,0|4
356,176,65653,1,0
406,84,65821,2,0,B|308:59,1,70,0|4
235,43,66158,6,0,B|218:117,1,70
123,67,66495,2,0,B|47:11,1,70,4|0
37,127,66833,2,0,B|2:220|72:286,1,140
135,319,67338,1,4
216,252,67507,2,0,B|311:236,1,70,0|4
348,324,67844,5,0
451,336,68012,1,0
497,59,68349,1,0
394,71,68517,1,0
246,309,68855,5,0
4,167,69192,1,0
245,24,69529,2,0,B|332:102|287:220,1,210
185,236,70203,2,0,B|175:155,1,70
164,60,70540,5,0
61,48,70708,1,0
15,325,71045,1,0
118,313,71213,1,0
266,75,71551,5,0
508,217,71888,1,0
267,360,72225,2,0,B|180:282|225:164,1,210
317,120,72900,1,0
396,187,73068,1,0
483,128,73237,5,0
453,26,73406,1,0
272,132,73743,1,0
243,233,73912,1,0
57,330,74248,5,0
17,123,74585,1,0
218,65,74922,2,0,B|288:106|274:184,1,140
229,277,75428,2,4,B|386:320,1,140
465,341,75934,5,0
472,236,76102,2,0,B|478:151,1,70,0|4
485,61,76439,1,0
380,75,76608,2,0,B|374:160,1,70,0|4
272,159,76945,2,0,B|283:238|365:249,2,140
270,47,77788,5,4
151,35,77956,1,4
168,160,78125,1,4
46,212,78293,1,4
83,347,78462,1,4
