osu file format v5

[General]
AudioFilename: 16 The Clear Blue Sky.mp3
AudioLeadIn: 1000
PreviewTime: -1
Countdown: 1
SampleSet: Soft
StackLeniency: 0.7
Mode: 0
LetterboxInBreaks: 1

[Metadata]
Title:The Clear Blue Sky
Artist:Tsukasa
Creator:Blythe
Version:Normal
Source:DJmax
Tags:djmax tsukasa

[Difficulty]
HPDrainRate:6
CircleSize:5
OverallDifficulty:6
SliderMultiplier:1.2
SliderTickRate:2

[Events]
//Background and Video events
0,0,"131131132W8.jpg"
//Break Periods
//Storyboard Layer 0 (Background)
//Storyboard Layer 1 (Failing)
//Storyboard Layer 2 (Passing)
//Storyboard Layer 3 (Foreground)
//Storyboard Sound Samples
//Background Colour Transformations
3,100,163,162,255

[TimingPoints]
12302.5718952424,337.078651685393,4,2,0,100,1

[HitObjects]
128,96,12302,1,0
192,256,14996,1,0
256,96,17690,1,0
320,256,20385,1,4
256,192,21732,12,0,23079
416,288,24437,5,2
416,192,25785,1,2
320,192,27134,1,2
224,192,28482,1,2
128,192,29830,1,2
128,96,31178,1,2
224,96,32508,1,2
384,96,33855,6,2,B|352:320|0:288,1,360,4|0
96,256,35055,1,0
96,192,35392,1,0
128,224,35729,1,0
128,96,36572,6,2,B|256:320|480:288|416:288,1,360
448,256,37752,1,0
448,192,38089,1,0
416,224,38426,1,0
128,128,39244,6,2,B|160:320|384:288|352:320,1,240
320,256,40111,1,0
320,192,40448,1,0
320,128,40785,1,0
320,64,41122,2,0,B|96:288|96:288,1,300
96,96,42471,5,2
96,288,42976,1,2
224,192,43650,2,0,B|384:192,2,120
288,96,44662,5,0
352,160,45336,1,0
352,256,46010,1,0
288,320,46684,1,0
192,320,47358,1,0
128,256,48032,1,0
128,160,48707,1,0
192,96,49381,2,2,B|320:320|320:320,4,240
256,192,52583,12,0,55448
64,256,56965,5,0
96,192,57134,1,0
192,256,57471,1,0
224,192,57639,1,0
320,256,57976,1,0
384,192,58313,1,0
448,128,58650,1,0
384,64,59662,5,0
352,128,59830,1,0
256,64,60167,1,0
224,128,60336,1,0
128,64,60673,1,0
96,160,61010,1,0
64,256,61347,1,0
96,96,62358,6,0,B|160:64,1,60
128,160,62864,2,0,B|192:128,1,60
160,224,63369,1,0
256,224,63707,1,0
352,224,64044,2,0,B|352:96,1,180
128,96,65055,6,0,B|192:128,1,60
256,160,65560,2,0,B|320:192,1,60
384,224,66066,1,0
320,288,66403,1,0
224,288,66740,2,0,B|128:224,1,180
192,64,67752,5,0
192,64,67920,1,0
288,64,68257,1,0
288,64,68426,1,0
384,64,68763,1,0
384,160,69100,1,0
384,256,69437,1,0
256,256,70448,5,0
256,256,70617,1,0
160,256,70954,1,0
160,256,71122,1,0
64,256,71459,1,0
64,160,71796,1,0
64,64,72134,1,0
192,256,73145,5,0
224,224,73313,1,0
320,256,73650,1,0
352,224,73819,1,0
352,128,74156,1,0
256,128,74662,1,0
224,96,74830,1,0
160,128,75167,1,0
256,192,75504,12,0,78032
256,192,78369,5,2
352,160,79381,1,0
320,128,79549,1,0
192,96,80223,1,2
96,192,80560,1,0
128,224,80729,1,0
192,288,81066,2,2,B|256:192|352:288|320:288,1,120
352,288,82077,1,0
384,256,82246,2,0,B|448:192|352:64,1,180
288,128,83089,5,0
256,128,83257,1,0
224,128,83426,1,0
256,128,83594,2,2,B|256:320,1,180
128,288,85785,5,0
192,288,85954,1,0
256,288,86122,1,0
256,192,86291,12,0,88482
