osu file format v14

[General]
AudioFilename: Tsukasa - The Clear Blue Sky.mp3
AudioLeadIn: 0
PreviewTime: 55882
Countdown: 0
SampleSet: Soft
StackLeniency: 0.7
Mode: 3
LetterboxInBreaks: 0
SpecialStyle: 0
WidescreenStoryboard: 0

[Editor]
DistanceSpacing: 1.5
BeatDivisor: 4
GridSize: 16
TimelineZoom: 1.9

[Metadata]
Title:The Clear Blue Sky
TitleUnicode:The Clear Blue Sky
Artist:Tsukasa
ArtistUnicode:Tsukasa
Creator:[ A v a l o n ]
Version:Hard
Source:DJMAX Technika
Tags:Yatoki Kkuem Aki Misawa HooN Portable Clazziquai Edition Artcore Aste- Pharos21 Brian_Ex Bray-
BeatmapID:654324
BeatmapSetID:290440

[Difficulty]
HPDrainRate:8
CircleSize:4
OverallDifficulty:7
ApproachRate:5
SliderMultiplier:1.4
SliderTickRate:1

[Events]
//Background and Video events
0,0,"bg.jpg",0,0
Video,-1511,"video.avi"
//Break Periods
//Storyboard Layer 0 (Background)
//Storyboard Layer 1 (Fail)
//Storyboard Layer 2 (Pass)
//Storyboard Layer 3 (Foreground)
//Storyboard Sound Samples
Sample,13579,0,"hihat.wav",50
Sample,13748,0,"hihat.wav",50
Sample,13916,0,"hihat.wav",50
Sample,16276,0,"hihat.wav",50
Sample,16444,0,"hihat.wav",50
Sample,16613,0,"hihat.wav",50
Sample,18972,0,"hihat.wav",50
Sample,19141,0,"hihat.wav",50
Sample,19309,0,"hihat.wav",50
Sample,21669,0,"bass.wav",40
Sample,21753,0,"bass.wav",40
Sample,21838,0,"bass.wav",40
Sample,21922,0,"bass.wav",40
Sample,22006,0,"bass.wav",40
Sample,22090,0,"bass.wav",40
Sample,22259,0,"bass.wav",40
Sample,23186,0,"snare.wav",65
Sample,23691,0,"hihat.wav",50
Sample,24534,0,"hihat.wav",50
Sample,25208,0,"hihat.wav",50
Sample,27231,0,"hihat.wav",50
Sample,27905,0,"hihat.wav",50
Sample,29927,0,"hihat.wav",50
Sample,30602,0,"hihat.wav",50
Sample,32624,0,"hihat.wav",50
Sample,33467,0,"hihat.wav",50
Sample,33635,0,"snare.wav",65
Sample,33804,0,"hihat.wav",50
Sample,34478,0,"hihat.wav",50
Sample,34984,0,"snare.wav",65
Sample,35321,0,"hihat.wav",50
Sample,35658,0,"snare.wav",65
Sample,37175,0,"hihat.wav",50
Sample,37680,0,"snare.wav",65
Sample,38017,0,"hihat.wav",50
Sample,38354,0,"snare.wav",65
Sample,39871,0,"hihat.wav",50
Sample,40377,0,"snare.wav",65
Sample,40714,0,"hihat.wav",50
Sample,41051,0,"snare.wav",65
Sample,41725,0,"hihat.wav",50
Sample,42062,0,"bass.wav",65
Sample,44675,0,"bass.wav",65
Sample,50152,0,"bass.wav",65
Sample,51500,0,"bass.wav",65
Sample,52849,0,"bass.wav",65
Sample,53523,0,"snare.wav",65
Sample,53523,0,"bass.wav",65
Sample,54197,0,"bass.wav",65
Sample,54197,0,"cymbal.wav",60
Sample,54534,0,"cymbal.wav",60
Sample,78298,0,"hihat.wav",50

[TimingPoints]
265,337.078651685393,4,2,1,40,1,0
23186,-100,4,2,1,40,0,1
33972,-100,4,2,1,40,0,0
44759,-100,4,2,1,40,0,1
50152,-100,4,2,1,40,0,0
56894,-100,4,2,1,40,0,1
75770,-100,4,2,1,40,0,0

[HitObjects]
192,192,1613,5,0,0:0:0:0:
64,192,1781,1,0,0:0:0:0:
192,192,1950,1,0,0:0:0:0:
320,192,2118,1,0,0:0:0:0:
448,192,2287,1,0,0:0:0:0:
320,192,2456,1,0,0:0:0:0:
320,192,4309,1,0,0:0:0:0:
192,192,4478,1,0,0:0:0:0:
320,192,4647,1,0,0:0:0:0:
448,192,4815,1,0,0:0:0:0:
64,192,4984,1,0,0:0:0:0:
192,192,5152,1,0,0:0:0:0:
448,192,5321,1,0,0:0:0:0:
320,192,5489,1,0,0:0:0:0:
192,192,5658,1,0,0:0:0:0:
320,192,6332,1,0,0:0:0:0:
192,192,7006,1,0,0:0:0:0:
64,192,7175,1,0,0:0:0:0:
192,192,7343,1,0,0:0:0:0:
320,192,7512,1,0,0:0:0:0:
448,192,7680,1,0,0:0:0:0:
320,192,7849,1,0,0:0:0:0:
320,192,9703,1,0,0:0:0:0:
192,192,9871,1,0,0:0:0:0:
64,192,10040,1,0,0:0:0:0:
320,192,10208,1,0,0:0:0:0:
192,192,10377,1,0,0:0:0:0:
448,192,10545,1,0,0:0:0:0:
320,192,10714,1,0,0:0:0:0:
64,192,10882,1,0,0:0:0:0:
192,192,11051,1,0,0:0:0:0:
320,192,11220,1,0,0:0:0:0:
192,192,11557,128,0,11725:0:0:0:0:
448,192,11725,128,0,11894:0:0:0:0:
64,192,11894,128,0,12062:0:0:0:0:
320,192,12062,128,0,12231:0:0:0:0:
192,192,12231,128,0,12399:0:0:0:0:
448,192,12399,1,0,0:0:0:65:bass.wav
64,192,12399,1,0,0:0:0:60:cymbal.wav
64,192,12736,1,0,0:0:0:65:snare.wav
192,192,12736,1,0,0:0:0:0:
320,192,12905,1,0,0:0:0:65:bass.wav
448,192,12905,1,0,0:0:0:0:
192,192,14253,1,0,0:0:0:50:hihat.wav
64,192,14422,1,0,0:0:0:50:hihat.wav
448,192,14590,1,0,0:0:0:65:snare.wav
320,192,14590,1,0,0:0:0:0:
64,192,14759,1,0,0:0:0:65:bass.wav
192,192,14759,1,0,0:0:0:0:
448,192,14927,1,0,0:0:0:0:
64,192,15096,1,0,0:0:0:65:bass.wav
320,192,15096,1,0,0:0:0:0:
448,192,15264,1,0,0:0:0:0:
192,192,15433,1,0,0:0:0:65:snare.wav
64,192,15433,1,0,0:0:0:0:
448,192,15602,1,0,0:0:0:65:bass.wav
320,192,15602,1,0,0:0:0:0:
448,192,16950,1,0,0:0:0:65:snare.wav
320,192,17118,1,0,0:0:0:65:bass.wav
192,192,17118,1,0,0:0:0:0:
64,192,17287,1,0,0:0:0:65:bass.wav
448,192,17287,1,0,0:0:0:0:
192,192,17456,1,0,0:0:0:65:bass.wav
320,192,17624,1,0,0:0:0:65:snare.wav
64,192,17624,1,0,0:0:0:0:
192,192,17793,1,0,0:0:0:65:bass.wav
448,192,17793,1,0,0:0:0:0:
320,192,17961,1,0,0:0:0:0:
192,192,18130,1,0,0:0:0:65:snare.wav
64,192,18130,1,0,0:0:0:0:
320,192,18298,1,0,0:0:0:65:bass.wav
448,192,18298,1,0,0:0:0:0:
64,192,19647,1,0,0:0:0:65:bass.wav
64,192,19815,1,0,0:0:0:65:bass.wav
320,192,19984,1,0,0:0:0:50:hihat.wav
192,192,19984,1,0,0:0:0:0:
64,192,20152,1,0,0:0:0:65:bass.wav
448,192,20152,1,0,0:0:0:0:
320,192,20321,1,0,0:0:0:0:
448,192,20489,1,0,0:0:0:65:bass.wav
192,192,20489,1,0,0:0:0:0:
320,192,20658,1,0,0:0:0:0:
64,192,20826,1,0,0:0:0:65:snare.wav
192,192,20826,1,0,0:0:0:0:
320,192,20995,1,0,0:0:0:65:bass.wav
448,192,20995,1,0,0:0:0:0:
192,192,22006,1,0,0:0:0:65:snare.wav
64,192,22175,1,0,0:0:0:65:bass.wav
320,192,22343,1,0,0:0:0:65:snare.wav
448,192,22343,1,0,0:0:0:65:bass.wav
64,192,22427,1,0,0:0:0:65:snare.wav
192,192,22427,1,0,0:0:0:0:
320,192,22512,1,0,0:0:0:65:snare.wav
448,192,22512,1,0,0:0:0:65:bass.wav
192,192,22680,1,0,0:0:0:65:snare.wav
64,192,22680,1,0,0:0:0:65:bass.wav
320,192,22849,1,0,0:0:0:65:bass.wav
448,192,22849,1,0,0:0:0:0:
64,192,23017,1,0,0:0:0:65:bass.wav
192,192,23017,1,0,0:0:0:65:snare.wav
320,192,23102,1,0,0:0:0:65:snare.wav
448,192,23102,1,0,0:0:0:0:
64,192,23186,1,0,0:0:0:65:bass.wav
192,192,23186,128,0,23354:0:0:0:60:cymbal.wav
320,192,23354,128,0,23523:0:0:0:50:hihat.wav
448,192,23523,128,0,23691:0:0:0:65:snare.wav
64,192,23523,1,0,0:0:0:0:
320,192,23860,128,0,24029:0:0:0:50:hihat.wav
64,192,24029,1,0,0:0:0:65:bass.wav
192,192,24029,128,0,24197:0:0:0:0:
448,192,24197,1,0,0:0:0:65:snare.wav
320,192,24197,1,0,0:0:0:0:
192,192,24366,1,0,0:0:0:65:bass.wav
64,192,24366,128,0,24534:0:0:0:0:
64,192,24703,128,0,24871:0:0:0:65:bass.wav
192,192,24703,1,0,0:0:0:0:
448,192,24871,1,0,0:0:0:65:snare.wav
320,192,24871,1,0,0:0:0:0:
192,192,25040,128,0,25882:0:0:0:50:hihat.wav
320,192,25377,1,0,0:0:0:65:bass.wav
448,192,25545,1,0,0:0:0:65:snare.wav
64,192,25545,1,0,0:0:0:0:
320,192,25714,1,0,0:0:0:50:hihat.wav
64,192,25882,1,0,0:0:0:65:bass.wav
448,192,25882,1,0,0:0:0:0:
192,192,26051,1,0,0:0:0:50:hihat.wav
448,192,26220,1,0,0:0:0:65:snare.wav
320,192,26220,1,0,0:0:0:0:
64,192,26388,1,0,0:0:0:50:hihat.wav
192,192,26557,128,0,26725:0:0:0:50:hihat.wav
448,192,26725,128,0,26894:0:0:0:65:bass.wav
320,192,26725,1,0,0:0:0:0:
64,192,26894,1,0,0:0:0:65:snare.wav
192,192,26894,1,0,0:0:0:0:
448,192,27062,1,0,0:0:0:50:hihat.wav
320,192,27062,128,0,27231:0:0:0:65:bass.wav
192,192,27399,128,0,27568:0:0:0:65:bass.wav
64,192,27399,1,0,0:0:0:0:
448,192,27568,1,0,0:0:0:65:snare.wav
320,192,27568,1,0,0:0:0:0:
64,192,27736,128,0,28579:0:0:0:50:hihat.wav
192,192,28073,1,0,0:0:0:65:bass.wav
448,192,28242,1,0,0:0:0:65:snare.wav
320,192,28242,1,0,0:0:0:0:
192,192,28411,1,0,0:0:0:65:bass.wav
448,192,28579,1,0,0:0:0:65:bass.wav
320,192,28579,1,0,0:0:0:60:cymbal.wav
64,192,28748,1,0,0:0:0:50:hihat.wav
320,192,28916,1,0,0:0:0:65:snare.wav
192,192,28916,1,0,0:0:0:0:
448,192,29085,1,0,0:0:0:50:hihat.wav
64,192,29253,128,0,29422:0:0:0:50:hihat.wav
320,192,29422,128,0,29590:0:0:0:65:bass.wav
192,192,29422,1,0,0:0:0:0:
448,192,29590,1,0,0:0:0:65:snare.wav
64,192,29590,1,0,0:0:0:0:
192,192,29759,128,0,29927:0:0:0:65:bass.wav
320,192,29759,1,0,0:0:0:0:
192,192,30096,128,0,30264:0:0:0:65:bass.wav
448,192,30096,1,0,0:0:0:0:
64,192,30264,1,0,0:0:0:65:snare.wav
320,192,30264,1,0,0:0:0:0:
448,192,30433,128,0,31276:0:0:0:50:hihat.wav
64,192,30770,1,0,0:0:0:65:bass.wav
192,192,30939,1,0,0:0:0:65:snare.wav
320,192,30939,1,0,0:0:0:0:
64,192,31107,1,0,0:0:0:50:hihat.wav
320,192,31276,1,0,0:0:0:65:bass.wav
192,192,31276,1,0,0:0:0:0:
64,192,31444,1,0,0:0:0:50:hihat.wav
320,192,31613,1,0,0:0:0:65:snare.wav
448,192,31613,1,0,0:0:0:0:
192,192,31781,1,0,0:0:0:50:hihat.wav
64,192,31950,128,0,32118:0:0:0:50:hihat.wav
320,192,32118,128,0,32287:0:0:0:65:bass.wav
448,192,32118,1,0,0:0:0:0:
64,192,32287,1,0,0:0:0:65:snare.wav
192,192,32287,1,0,0:0:0:0:
448,192,32456,128,0,32624:0:0:0:50:hihat.wav
320,192,32793,128,0,32961:0:0:0:65:bass.wav
64,192,32961,1,0,0:0:0:65:snare.wav
192,192,33130,128,0,33972:0:0:0:50:hihat.wav
320,192,33298,128,0,33972:0:0:0:65:bass.wav
64,192,33972,1,0,0:0:0:65:bass.wav
448,192,33972,1,0,0:0:0:0:
192,192,34141,1,0,0:0:0:50:hihat.wav
64,192,34309,1,0,0:0:0:65:snare.wav
448,192,34309,1,0,0:0:0:0:
320,192,34647,128,0,34815:0:0:0:50:hihat.wav
64,192,34815,128,0,34984:0:0:0:50:hihat.wav
192,192,35152,128,0,35321:0:0:0:50:hihat.wav
320,192,35489,128,0,35658:0:0:0:50:hihat.wav
448,192,35826,128,0,36669:0:0:0:50:hihat.wav
192,192,35995,1,0,0:0:0:50:hihat.wav
64,192,36163,1,0,0:0:0:50:hihat.wav
320,192,36332,1,0,0:0:0:50:hihat.wav
64,192,36500,1,0,0:0:0:65:bass.wav
192,192,36500,1,0,0:0:0:0:
192,192,36669,1,0,0:0:0:65:bass.wav
64,192,36669,1,0,0:0:0:0:
320,192,36838,1,0,0:0:0:50:hihat.wav
64,192,37006,1,0,0:0:0:65:snare.wav
448,192,37006,1,0,0:0:0:0:
192,192,37343,128,0,37512:0:0:0:50:hihat.wav
448,192,37512,128,0,37680:0:0:0:50:hihat.wav
320,192,37849,128,0,38017:0:0:0:50:hihat.wav
192,192,38186,128,0,38354:0:0:0:50:hihat.wav
64,192,38523,128,0,39366:0:0:0:50:hihat.wav
320,192,38691,1,0,0:0:0:50:hihat.wav
448,192,38860,1,0,0:0:0:50:hihat.wav
192,192,39029,1,0,0:0:0:50:hihat.wav
320,192,39197,1,0,0:0:0:65:bass.wav
448,192,39197,1,0,0:0:0:0:
448,192,39366,1,0,0:0:0:65:bass.wav
320,192,39366,1,0,0:0:0:0:
192,192,39534,1,0,0:0:0:50:hihat.wav
448,192,39703,1,0,0:0:0:65:snare.wav
64,192,39703,1,0,0:0:0:0:
320,192,40040,128,0,40208:0:0:0:50:hihat.wav
64,192,40208,128,0,40377:0:0:0:50:hihat.wav
448,192,40545,128,0,40714:0:0:0:50:hihat.wav
320,192,40882,128,0,41051:0:0:0:50:hihat.wav
192,192,41220,128,0,42062:0:0:0:50:hihat.wav
64,192,41388,1,0,0:0:0:50:hihat.wav
320,192,41557,1,0,0:0:0:65:bass.wav
448,192,41557,1,0,0:0:0:0:
320,192,41894,1,0,0:0:0:65:bass.wav
448,192,41894,1,0,0:0:0:0:
64,192,42062,1,0,0:0:0:65:snare.wav
448,192,42062,1,0,0:0:0:60:cymbal.wav
320,192,42231,1,0,0:0:0:50:hihat.wav
448,192,42399,1,0,0:0:0:50:hihat.wav
192,192,42399,1,0,0:0:0:0:
64,192,42568,1,0,0:0:0:65:bass.wav
320,192,42568,1,0,0:0:0:65:snare.wav
192,192,42736,1,0,0:0:0:50:hihat.wav
320,192,42905,1,0,0:0:0:50:hihat.wav
448,192,43073,1,0,0:0:0:65:snare.wav
64,192,43073,1,0,0:0:0:65:bass.wav
192,192,43242,1,0,0:0:0:50:hihat.wav
320,192,43411,1,0,0:0:0:50:hihat.wav
64,192,43579,1,0,0:0:0:65:snare.wav
192,192,43579,1,0,0:0:0:65:bass.wav
448,192,43748,1,0,0:0:0:50:hihat.wav
320,192,43916,128,0,44422:0:0:0:50:hihat.wav
192,192,44085,1,0,0:0:0:65:snare.wav
64,192,44085,1,0,0:0:0:65:bass.wav
192,192,44253,1,0,0:0:0:65:bass.wav
64,192,44253,1,0,0:0:0:0:
448,192,44422,1,0,0:0:0:65:bass.wav
64,192,44422,128,0,44590:0:0:0:65:snare.wav
192,192,44590,128,0,44759:0:0:0:65:bass.wav
320,192,44590,1,0,0:0:0:0:
64,192,44759,1,0,0:0:0:65:bass.wav
448,192,44759,1,0,0:0:0:60:cymbal.wav
320,192,44927,1,0,0:0:0:50:hihat.wav
448,192,45096,1,0,0:0:0:65:snare.wav
64,192,45096,1,0,0:0:0:0:
192,192,45264,1,0,0:0:0:50:hihat.wav
448,192,45433,1,0,0:0:0:65:bass.wav
320,192,45433,1,0,0:0:0:0:
64,192,45602,1,0,0:0:0:50:hihat.wav
320,192,45770,1,0,0:0:0:65:snare.wav
192,192,45770,1,0,0:0:0:0:
448,192,45939,1,0,0:0:0:50:hihat.wav
192,192,46107,1,0,0:0:0:65:bass.wav
64,192,46107,1,0,0:0:0:0:
320,192,46276,1,0,0:0:0:50:hihat.wav
448,192,46444,1,0,0:0:0:65:snare.wav
64,192,46444,1,0,0:0:0:0:
192,192,46613,1,0,0:0:0:50:hihat.wav
64,192,46781,1,0,0:0:0:65:bass.wav
320,192,46781,1,0,0:0:0:0:
448,192,46950,1,0,0:0:0:50:hihat.wav
320,192,47118,1,0,0:0:0:65:snare.wav
192,192,47118,1,0,0:0:0:0:
64,192,47287,1,0,0:0:0:50:hihat.wav
320,192,47456,1,0,0:0:0:65:bass.wav
448,192,47456,1,0,0:0:0:0:
192,192,47624,1,0,0:0:0:50:hihat.wav
448,192,47793,1,0,0:0:0:65:snare.wav
64,192,47793,1,0,0:0:0:0:
320,192,47961,1,0,0:0:0:50:hihat.wav
448,192,48130,1,0,0:0:0:65:bass.wav
192,192,48130,1,0,0:0:0:0:
64,192,48298,1,0,0:0:0:50:hihat.wav
320,192,48467,1,0,0:0:0:65:snare.wav
192,192,48467,1,0,0:0:0:0:
448,192,48635,1,0,0:0:0:50:hihat.wav
64,192,48804,1,0,0:0:0:65:bass.wav
192,192,48804,1,0,0:0:0:0:
320,192,48972,1,0,0:0:0:50:hihat.wav
448,192,49141,1,0,0:0:0:65:snare.wav
64,192,49141,1,0,0:0:0:0:
192,192,49309,1,0,0:0:0:50:hihat.wav
320,192,49478,1,0,0:0:0:65:bass.wav
448,192,49478,1,0,0:0:0:0:
64,192,49647,1,0,0:0:0:50:hihat.wav
448,192,49815,1,0,0:0:0:65:snare.wav
192,192,49815,1,0,0:0:0:0:
320,192,49984,1,0,0:0:0:50:hihat.wav
64,192,50152,1,0,0:0:0:65:snare.wav
192,192,50152,1,0,0:0:0:60:cymbal.wav
448,192,50152,1,0,0:0:0:0:
192,192,50321,1,0,0:0:0:65:snare.wav
64,192,50321,1,0,0:0:0:0:
320,192,50489,1,0,0:0:0:65:snare.wav
448,192,50489,1,0,0:0:0:0:
64,192,50658,1,0,0:0:0:65:snare.wav
192,192,50658,1,0,0:0:0:0:
64,192,50826,1,0,0:0:0:65:snare.wav
192,192,50826,1,0,0:0:0:0:
192,192,50995,1,0,0:0:0:65:snare.wav
64,192,50995,1,0,0:0:0:0:
320,192,51163,1,0,0:0:0:65:snare.wav
448,192,51163,1,0,0:0:0:0:
64,192,51332,1,0,0:0:0:65:snare.wav
192,192,51332,1,0,0:0:0:0:
320,192,51500,1,0,0:0:0:65:snare.wav
448,192,51500,1,0,0:0:0:60:cymbal.wav
448,192,51669,1,0,0:0:0:65:snare.wav
320,192,51669,1,0,0:0:0:0:
64,192,51838,1,0,0:0:0:65:snare.wav
192,192,51838,1,0,0:0:0:0:
320,192,52006,1,0,0:0:0:65:snare.wav
448,192,52006,1,0,0:0:0:0:
448,192,52175,1,0,0:0:0:65:snare.wav
320,192,52175,1,0,0:0:0:0:
448,192,52343,1,0,0:0:0:65:snare.wav
320,192,52343,1,0,0:0:0:0:
64,192,52512,1,0,0:0:0:65:snare.wav
192,192,52512,1,0,0:0:0:0:
320,192,52680,1,0,0:0:0:65:snare.wav
448,192,52680,1,0,0:0:0:0:
192,192,52849,1,0,0:0:0:65:snare.wav
64,192,52849,1,0,0:0:0:60:cymbal.wav
320,192,52933,1,0,0:0:0:65:snare.wav
448,192,53017,1,0,0:0:0:65:snare.wav
192,192,53102,1,0,0:0:0:65:snare.wav
320,192,53186,1,0,0:0:0:65:snare.wav
64,192,53270,1,0,0:0:0:65:snare.wav
192,192,53354,1,0,0:0:0:65:snare.wav
448,192,53439,1,0,0:0:0:65:snare.wav
320,192,53523,1,0,0:0:0:60:cymbal.wav
192,192,53607,1,0,0:0:0:65:snare.wav
64,192,53691,1,0,0:0:0:65:snare.wav
320,192,53776,1,0,0:0:0:65:snare.wav
448,192,53860,1,0,0:0:0:65:snare.wav
192,192,53944,1,0,0:0:0:65:snare.wav
320,192,54029,1,0,0:0:0:65:snare.wav
64,192,54113,1,0,0:0:0:65:snare.wav
192,192,54197,1,0,0:0:0:65:snare.wav
448,192,54281,1,0,0:0:0:65:snare.wav
320,192,54366,1,0,0:0:0:65:snare.wav
64,192,54450,1,0,0:0:0:65:snare.wav
192,192,54534,1,0,0:0:0:65:snare.wav
448,192,54618,1,0,0:0:0:65:snare.wav
320,192,54703,1,0,0:0:0:65:snare.wav
192,192,54787,1,0,0:0:0:65:snare.wav
448,192,54871,1,0,0:0:0:65:snare.wav
64,192,54871,1,0,0:0:0:60:cymbal.wav
320,192,55040,1,0,0:0:0:65:bass.wav
192,192,55040,1,0,0:0:0:0:
448,192,55208,1,0,0:0:0:65:snare.wav
64,192,55208,1,0,0:0:0:60:cymbal.wav
192,192,55377,1,0,0:0:0:65:bass.wav
320,192,55377,1,0,0:0:0:0:
64,192,55714,128,0,56725:0:0:0:0:
448,192,56557,1,0,0:0:0:65:snare.wav
320,192,56557,1,0,0:0:0:0:
448,192,56725,1,0,0:0:0:65:snare.wav
192,192,56725,1,0,0:0:0:0:
320,192,56894,1,0,0:0:0:60:cymbal.wav
192,192,56894,1,0,0:0:0:65:bass.wav
320,192,57062,1,0,0:0:0:50:hihat.wav
64,192,57231,1,0,0:0:0:65:snare.wav
448,192,57231,1,0,0:0:0:0:
192,192,57399,1,0,0:0:0:50:hihat.wav
64,192,57568,1,0,0:0:0:65:bass.wav
320,192,57568,128,0,57736:0:0:0:0:
448,192,57736,128,0,57905:0:0:0:50:hihat.wav
320,192,57905,1,0,0:0:0:65:snare.wav
192,192,57905,1,0,0:0:0:0:
64,192,58073,128,0,58242:0:0:0:50:hihat.wav
320,192,58242,1,0,0:0:0:65:bass.wav
448,192,58242,1,0,0:0:0:0:
64,192,58411,128,0,58579:0:0:0:50:hihat.wav
320,192,58579,1,0,0:0:0:65:snare.wav
448,192,58579,1,0,0:0:0:0:
192,192,58748,128,0,59590:0:0:0:50:hihat.wav
448,192,58916,1,0,0:0:0:65:bass.wav
64,192,58916,1,0,0:0:0:0:
320,192,59085,1,0,0:0:0:50:hihat.wav
64,192,59253,1,0,0:0:0:65:snare.wav
448,192,59253,1,0,0:0:0:0:
320,192,59422,1,0,0:0:0:50:hihat.wav
448,192,59590,1,0,0:0:0:65:bass.wav
64,192,59590,1,0,0:0:0:0:
320,192,59759,1,0,0:0:0:50:hihat.wav
448,192,59927,1,0,0:0:0:65:snare.wav
192,192,59927,1,0,0:0:0:0:
64,192,60096,1,0,0:0:0:50:hihat.wav
320,192,60264,1,0,0:0:0:65:bass.wav
192,192,60264,128,0,60433:0:0:0:0:
448,192,60433,128,0,60602:0:0:0:50:hihat.wav
64,192,60602,1,0,0:0:0:65:snare.wav
192,192,60602,1,0,0:0:0:0:
320,192,60770,128,0,60939:0:0:0:50:hihat.wav
448,192,60939,1,0,0:0:0:65:bass.wav
64,192,60939,1,0,0:0:0:0:
192,192,61107,128,0,61276:0:0:0:50:hihat.wav
448,192,61276,1,0,0:0:0:65:snare.wav
320,192,61276,1,0,0:0:0:0:
64,192,61444,128,0,62287:0:0:0:50:hihat.wav
448,192,61613,1,0,0:0:0:65:bass.wav
320,192,61613,1,0,0:0:0:0:
192,192,61781,1,0,0:0:0:50:hihat.wav
448,192,61950,1,0,0:0:0:65:snare.wav
320,192,61950,1,0,0:0:0:0:
192,192,62118,1,0,0:0:0:50:hihat.wav
320,192,62287,1,0,0:0:0:65:bass.wav
448,192,62287,1,0,0:0:0:0:
64,192,62456,1,0,0:0:0:50:hihat.wav
192,192,62624,1,0,0:0:0:65:snare.wav
320,192,62624,1,0,0:0:0:0:
448,192,62793,1,0,0:0:0:50:hihat.wav
192,192,62961,128,0,63130:0:0:0:65:bass.wav
64,192,62961,1,0,0:0:0:0:
448,192,63130,128,0,63298:0:0:0:50:hihat.wav
192,192,63298,1,0,0:0:0:65:snare.wav
320,192,63298,1,0,0:0:0:0:
64,192,63467,128,0,63635:0:0:0:50:hihat.wav
448,192,63635,1,0,0:0:0:65:bass.wav
320,192,63635,1,0,0:0:0:0:
64,192,63804,128,0,63972:0:0:0:50:hihat.wav
448,192,63972,1,0,0:0:0:65:snare.wav
320,192,63972,1,0,0:0:0:0:
192,192,64141,128,0,64984:0:0:0:50:hihat.wav
64,192,64309,1,0,0:0:0:65:bass.wav
448,192,64309,1,0,0:0:0:0:
320,192,64478,1,0,0:0:0:50:hihat.wav
448,192,64647,1,0,0:0:0:65:snare.wav
64,192,64647,1,0,0:0:0:0:
320,192,64815,1,0,0:0:0:50:hihat.wav
448,192,64984,1,0,0:0:0:65:bass.wav
64,192,64984,1,0,0:0:0:0:
320,192,65152,1,0,0:0:0:50:hihat.wav
448,192,65321,1,0,0:0:0:65:snare.wav
192,192,65321,1,0,0:0:0:0:
64,192,65489,1,0,0:0:0:50:hihat.wav
192,192,65658,1,0,0:0:0:65:bass.wav
320,192,65658,128,0,65826:0:0:0:0:
64,192,65826,128,0,65995:0:0:0:50:hihat.wav
448,192,65995,1,0,0:0:0:65:snare.wav
320,192,65995,1,0,0:0:0:0:
192,192,66163,128,0,66332:0:0:0:50:hihat.wav
64,192,66332,1,0,0:0:0:65:bass.wav
448,192,66332,1,0,0:0:0:0:
320,192,66500,128,0,66669:0:0:0:50:hihat.wav
64,192,66669,1,0,0:0:0:65:snare.wav
192,192,66669,1,0,0:0:0:0:
448,192,66838,128,0,67175:0:0:0:50:hihat.wav
64,192,67006,1,0,0:0:0:65:bass.wav
320,192,67006,1,0,0:0:0:0:
64,192,67175,1,0,0:0:0:65:bass.wav
192,192,67175,128,0,67343:0:0:0:0:
448,192,67343,1,0,0:0:0:65:snare.wav
320,192,67343,128,0,67512:0:0:0:0:
64,192,67512,128,0,67680:0:0:0:65:bass.wav
192,192,67512,1,0,0:0:0:0:
448,192,67680,1,0,0:0:0:60:cymbal.wav
320,192,67680,1,0,0:0:0:65:bass.wav
192,192,67849,1,0,0:0:0:50:hihat.wav
64,192,68017,1,0,0:0:0:65:snare.wav
448,192,68017,1,0,0:0:0:0:
192,192,68186,1,0,0:0:0:50:hihat.wav
448,192,68354,1,0,0:0:0:65:bass.wav
320,192,68354,128,0,68523:0:0:0:0:
64,192,68523,128,0,68691:0:0:0:50:hihat.wav
320,192,68691,1,0,0:0:0:65:snare.wav
192,192,68691,1,0,0:0:0:0:
448,192,68860,128,0,69029:0:0:0:50:hihat.wav
192,192,69029,1,0,0:0:0:65:bass.wav
64,192,69029,1,0,0:0:0:0:
448,192,69197,128,0,69366:0:0:0:50:hihat.wav
192,192,69366,1,0,0:0:0:65:snare.wav
64,192,69366,1,0,0:0:0:0:
320,192,69534,128,0,70377:0:0:0:50:hihat.wav
64,192,69703,1,0,0:0:0:65:bass.wav
448,192,69703,1,0,0:0:0:0:
192,192,69871,1,0,0:0:0:50:hihat.wav
64,192,70040,1,0,0:0:0:65:snare.wav
448,192,70040,1,0,0:0:0:0:
192,192,70208,1,0,0:0:0:50:hihat.wav
64,192,70377,1,0,0:0:0:65:bass.wav
448,192,70377,1,0,0:0:0:0:
320,192,70545,1,0,0:0:0:50:hihat.wav
448,192,70714,1,0,0:0:0:65:snare.wav
192,192,70714,1,0,0:0:0:0:
64,192,70882,1,0,0:0:0:50:hihat.wav
448,192,71051,1,0,0:0:0:65:bass.wav
320,192,71051,128,0,71220:0:0:0:0:
192,192,71220,128,0,71388:0:0:0:50:hihat.wav
448,192,71388,1,0,0:0:0:65:snare.wav
320,192,71388,1,0,0:0:0:0:
64,192,71557,128,0,71725:0:0:0:50:hihat.wav
320,192,71725,1,0,0:0:0:65:bass.wav
448,192,71725,1,0,0:0:0:0:
192,192,71894,128,0,72062:0:0:0:50:hihat.wav
448,192,72062,1,0,0:0:0:65:snare.wav
64,192,72062,1,0,0:0:0:0:
320,192,72231,128,0,73073:0:0:0:50:hihat.wav
192,192,72399,1,0,0:0:0:65:bass.wav
64,192,72399,1,0,0:0:0:0:
448,192,72568,1,0,0:0:0:50:hihat.wav
448,192,72736,1,0,0:0:0:65:snare.wav
64,192,72736,1,0,0:0:0:0:
192,192,72905,1,0,0:0:0:50:hihat.wav
448,192,73073,1,0,0:0:0:65:bass.wav
64,192,73073,1,0,0:0:0:0:
320,192,73242,1,0,0:0:0:50:hihat.wav
448,192,73411,1,0,0:0:0:65:snare.wav
192,192,73411,1,0,0:0:0:0:
64,192,73579,1,0,0:0:0:50:hihat.wav
320,192,73748,1,0,0:0:0:65:bass.wav
192,192,73748,128,0,73916:0:0:0:0:
448,192,73916,128,0,74085:0:0:0:50:hihat.wav
64,192,74085,1,0,0:0:0:65:snare.wav
320,192,74085,1,0,0:0:0:0:
192,192,74253,128,0,74422:0:0:0:50:hihat.wav
448,192,74422,1,0,0:0:0:65:bass.wav
320,192,74422,1,0,0:0:0:0:
192,192,74590,128,0,74759:0:0:0:50:hihat.wav
448,192,74759,1,0,0:0:0:65:snare.wav
320,192,74759,1,0,0:0:0:0:
64,192,74927,128,0,75770:0:0:0:50:hihat.wav
192,192,75096,1,0,0:0:0:65:bass.wav
448,192,75096,1,0,0:0:0:0:
320,192,75264,1,0,0:0:0:50:hihat.wav
192,192,75433,1,0,0:0:0:65:snare.wav
448,192,75433,1,0,0:0:0:0:
320,192,75602,1,0,0:0:0:50:hihat.wav
192,192,75770,1,0,0:0:0:65:bass.wav
448,192,75770,1,0,0:0:0:0:
320,192,75939,1,0,0:0:0:50:hihat.wav
448,192,76107,1,0,0:0:0:50:hihat.wav
64,192,76107,1,0,0:0:0:0:
192,192,76276,1,0,0:0:0:65:bass.wav
320,192,76276,1,0,0:0:0:0:
448,192,76613,128,0,76781:0:0:0:50:hihat.wav
320,192,76950,128,0,77118:0:0:0:50:hihat.wav
192,192,77287,128,0,77456:0:0:0:50:hihat.wav
448,192,77456,1,0,0:0:0:0:
64,192,77624,128,0,78467:0:0:0:50:hihat.wav
320,192,77793,1,0,0:0:0:0:
448,192,77793,1,0,0:0:0:65:bass.wav
192,192,77961,1,0,0:0:0:50:hihat.wav
448,192,77961,1,0,0:0:0:65:bass.wav
320,192,78130,1,0,0:0:0:65:bass.wav
192,192,78130,1,0,0:0:0:0:
448,192,78298,1,0,0:0:0:65:bass.wav
320,192,78382,1,0,0:0:0:65:bass.wav
192,192,78467,1,0,0:0:0:65:bass.wav
448,192,78467,128,0,79478:0:0:0:60:cymbal.wav
64,192,79478,128,0,79647:0:0:0:0:
320,192,79647,128,0,80321:0:0:0:0:
192,192,80321,128,0,80489:0:0:0:0:
448,192,80489,128,0,80658:0:0:0:0:
64,192,80658,128,0,80826:0:0:0:0:
320,192,80826,1,0,0:0:0:0:
448,192,81163,128,0,82175:0:0:0:0:
192,192,82175,128,0,82343:0:0:0:0:
64,192,82343,128,0,83186:0:0:0:0:
320,192,83186,128,0,83523:0:0:0:0:
192,192,83523,128,0,83691:0:0:0:0:
448,192,83691,128,0,85882:0:0:0:0:
64,192,85882,128,0,86051:0:0:0:0:
320,192,86051,128,0,86220:0:0:0:0:
192,192,86220,128,0,86388:0:0:0:0:
448,192,86388,128,0,90602:0:0:0:0:
64,192,86557,128,0,90602:0:0:0:60:cymbal.wav
320,192,86557,128,0,90602:0:0:0:0:
