osu file format v13

[General]
AudioFilename: Landscape.mp3
AudioLeadIn: 0
PreviewTime: 60262
Countdown: 0
SampleSet: Normal
StackLeniency: 0.7
Mode: 0
LetterboxInBreaks: 1
WidescreenStoryboard: 1

[Editor]
DistanceSpacing: 0.5
BeatDivisor: 6
GridSize: 16
TimelineZoom: 1

[Metadata]
Title:Landscape
TitleUnicode:Landscape
Artist:Tsukasa
ArtistUnicode:Tsukasa
Creator:DaRRi MIx
Version:DaRRi MIx
Source:DJMAX
Tags:
BeatmapID:504801
BeatmapSetID:214893

[Difficulty]
HPDrainRate:5
CircleSize:5
OverallDifficulty:8
ApproachRate:8
SliderMultiplier:2
SliderTickRate:1

[Events]
//Background and Video events
0,0,"DJMAX TECHNIKA.jpg",0,0
//Break Periods
//Storyboard Layer 0 (Background)
//Storyboard Layer 1 (Fail)
//Storyboard Layer 2 (Pass)
//Storyboard Layer 3 (Foreground)
//Storyboard Sound Samples
//Background Colour Transformations
3,100,0,0,0

[TimingPoints]
262,428.571428571429,4,1,1,80,1,0
10547,-100,4,2,1,80,0,0
11404,-100,4,1,1,80,0,0
13976,-100,4,2,1,80,0,0
14833,-100,4,1,1,80,0,0
17404,-200,4,1,1,80,0,0
18690,-200,4,2,1,5,0,0
18797,-200,4,1,1,80,0,0
24262,-100,4,1,1,80,0,0
44833,-100,4,2,1,50,0,0
46440,-100,4,2,1,80,0,0
48262,-100,4,2,1,80,0,0
49869,-100,4,1,1,60,0,0
50726,-100,4,1,1,80,0,0
58654,-100,4,1,1,80,0,1
60047,-100,4,2,1,5,0,0
60154,-100,4,1,1,80,0,0
76119,-200,4,1,1,80,0,0
76547,-50,4,1,1,80,0,1
76976,-100,4,1,1,80,0,0
85654,-100,4,2,1,80,0,0
85869,-100,4,1,1,80,0,0
85976,-200,4,1,1,80,0,0
87690,-100,4,1,1,80,0,0
88547,-66.6666666666667,4,1,1,80,0,1
91226,-66.6666666666667,4,2,1,5,0,1

[Colours]
Combo1 : 255,200,85
Combo2 : 255,255,236
Combo3 : 255,146,36
Combo4 : 39,30,24

[HitObjects]
44,36,3369,5,8,0:0:0:0:
56,40,3476,1,8,0:0:0:0:
68,44,3583,1,8,0:0:0:0:
80,48,3690,2,0,L|80:160,1,100,4|0,0:0|0:0,0:0:0:0:
176,96,4119,2,0,L|288:96,1,100,8|0,0:0|0:0,0:0:0:0:
384,112,4547,1,0,0:0:0:0:
464,44,4762,2,0,B|496:104|496:104|480:232,1,200,8|0,0:0|0:0,0:0:0:0:
479,234,5297,1,0,0:0:0:0:
479,234,5404,5,0,0:0:0:0:
368,248,5619,1,0,0:0:0:0:
256,256,5833,2,0,L|224:352,1,100,8|0,0:0|0:0,0:0:0:0:
224,350,6154,1,0,0:0:0:0:
224,350,6262,1,0,0:0:0:0:
128,296,6476,1,8,0:0:0:0:
160,200,6690,1,8,0:0:0:0:
160,200,6797,1,8,0:0:0:0:
256,256,7012,1,8,0:0:0:0:
256,256,7119,6,0,L|288:304,2,50,0|0|0,0:0|0:0|0:0,0:0:0:0:
272,144,7547,2,0,L|176:112,1,100,8|0,0:0|0:0,0:0:0:0:
177,112,7976,1,0,0:0:0:0:
112,20,8190,2,0,B|48:12|48:12|36:168,1,200,8|0,0:0|0:0,0:0:0:0:
24,248,8833,5,4,0:0:0:0:
112,224,9047,1,0,0:0:0:0:
176,304,9261,1,8,0:0:0:0:
240,224,9476,1,0,0:0:0:0:
288,320,9690,1,0,0:0:0:0:
288,320,9797,1,8,0:0:0:0:
336,224,10011,2,8,L|448:240,1,100,8|8,0:0|0:0,0:0:0:0:
434,238,10333,1,8,0:0:0:0:
434,238,10440,1,8,0:0:0:0:
456,336,10547,5,0,0:0:0:0:
464,336,10654,1,0,0:0:0:0:
472,336,10761,1,0,0:0:0:0:
480,336,10869,1,0,0:0:0:0:
488,336,10976,1,0,0:0:0:0:
496,336,11083,1,0,0:0:0:0:
504,336,11190,1,0,0:0:0:0:
512,336,11297,1,0,0:0:0:0:
448,24,11619,2,0,P|512:72|480:192,1,200,8|0,0:0|0:0,0:0:0:0:
400,216,12261,5,0,0:0:0:0:
400,120,12476,1,0,0:0:0:0:
288,144,12690,2,0,L|176:128,1,100,8|0,0:0|0:0,0:0:0:0:
189,129,13011,1,0,0:0:0:0:
189,129,13119,1,0,0:0:0:0:
112,40,13333,1,8,0:0:0:0:
112,144,13547,1,8,0:0:0:0:
112,144,13654,2,8,L|80:264,1,100
56,336,13976,5,0,0:0:0:0:
48,336,14083,1,0,0:0:0:0:
40,336,14190,1,0,0:0:0:0:
32,336,14298,1,0,0:0:0:0:
24,336,14405,1,0,0:0:0:0:
16,336,14512,1,0,0:0:0:0:
8,336,14619,1,0,0:0:0:0:
0,336,14726,1,0,0:0:0:0:
64,24,15047,2,0,P|0:72|32:192,1,200,8|0,0:0|0:0,0:0:0:0:
112,216,15690,5,0,0:0:0:0:
128,120,15905,1,0,0:0:0:0:
224,96,16119,1,8,0:0:0:0:
256,192,16333,1,0,0:0:0:0:
360,168,16548,1,0,0:0:0:0:
360,168,16654,2,0,L|464:200,1,100,8|0,0:0|0:0,0:0:0:0:
480,192,16976,2,8,L|521:179,2,25,8|8|8,0:0|0:0|0:0,0:0:0:0:
481,211,17191,1,0,0:0:0:0:
481,227,17297,1,0,0:0:0:0:
481,243,17404,5,4,0:0:0:0:
256,192,17512,12,0,18690,0:0:0:0:
196,108,18904,5,0,0:0:0:0:
196,108,19012,1,0,0:0:0:0:
196,108,19119,2,4,P|324:115|315:275,1,300,4|12,0:0|0:0,0:0:0:0:
331,260,20512,1,0,0:0:0:0:
245,293,20726,1,0,0:0:0:0:
245,293,20833,2,4,P|171:249|161:175,1,150,4|0,0:0|0:0,0:0:0:0:
96,240,21690,5,12,0:0:0:0:
416,192,22012,1,4,0:0:0:0:
96,144,22333,1,4,0:0:0:0:
64,288,22547,6,0,L|64:338|64:288,1,100,0|8,0:0|0:0,0:0:0:0:
64,64,23404,1,4,0:0:0:0:
96,64,23512,1,12,0:0:0:0:
160,64,23726,1,12,0:0:0:0:
224,64,23940,1,12,0:0:0:0:
288,64,24154,1,4,0:0:0:0:
320,48,24262,6,0,L|432:48,1,100,4|0,0:0|0:0,0:0:0:0:
480,176,24690,2,0,P|512:208|480:240,1,100,8|0,0:0|0:0,0:0:0:0:
480,272,25012,1,0,0:0:0:0:
480,304,25119,1,0,0:0:0:0:
256,320,25333,2,0,L|368:320,1,100,8|0,0:0|0:0,0:0:0:0:
384,320,25654,1,0,0:0:0:0:
320,160,25869,6,0,L|208:160,1,100
192,160,26190,1,0,0:0:0:0:
80,32,26404,2,0,L|208:32,1,100,8|0,0:0|0:0,0:0:0:0:
128,96,26726,2,0,L|48:176,1,100,8|0,0:0|0:0,0:0:0:0:
32,224,27047,2,0,P|0:256|32:288,1,100,0|0,0:0|0:0,0:0:0:0:
144,208,27476,5,0,0:0:0:0:
144,232,27583,1,0,0:0:0:0:
160,352,27797,1,0,0:0:0:0:
160,328,27904,1,0,0:0:0:0:
272,256,28119,2,0,L|384:256,1,100,8|0,0:0|0:0,0:0:0:0:
432,224,28440,2,0,P|464:256|432:288,1,100,8|0,0:0|0:0,0:0:0:0:
432,287,28762,1,0,0:0:0:0:
432,80,28976,5,8,0:0:0:0:
432,80,29083,1,8,0:0:0:0:
240,112,29297,2,0,L|352:112,1,100
368,112,29619,1,0,0:0:0:0:
160,48,29833,1,8,0:0:0:0:
160,48,29940,1,8,0:0:0:0:
224,176,30154,2,0,P|192:208|160:176,1,100
96,192,30476,2,8,L|96:304,1,100
96,304,30797,1,8,0:0:0:0:
96,316,30904,1,8,0:0:0:0:
96,328,31012,1,8,0:0:0:0:
96,352,31119,5,4,0:0:0:0:
224,336,31333,1,0,0:0:0:0:
352,352,31547,2,0,L|480:352,1,100,8|0,0:0|0:0,0:0:0:0:
512,288,31869,2,0,P|480:256|448:288,1,100,8|0,0:0|0:0,0:0:0:0:
416,288,32190,1,0,0:0:0:0:
448,80,32404,5,0,0:0:0:0:
432,80,32512,1,0,0:0:0:0:
416,80,32619,1,0,0:0:0:0:
384,80,32726,2,0,L|272:80,1,100
256,80,33047,1,0,0:0:0:0:
96,96,33262,2,0,L|16:16,1,100,8|0,0:0|0:0,0:0:0:0:
32,128,33583,2,0,L|32:272,1,100,8|0,0:0|0:0,0:0:0:0:
32,256,33904,5,0,0:0:0:0:
160,312,34119,1,0,0:0:0:0:
160,336,34226,1,0,0:0:0:0:
288,272,34440,1,0,0:0:0:0:
160,216,34654,1,0,0:0:0:0:
160,192,34762,1,0,0:0:0:0:
288,64,34976,6,0,L|208:144,1,100,8|0,0:0|0:0,0:0:0:0:
320,128,35297,2,0,P|352:160|384:128,1,100,8|0,0:0|0:0,0:0:0:0:
416,128,35619,1,0,0:0:0:0:
448,304,35833,5,8,0:0:0:0:
448,288,35940,1,0,0:0:0:0:
320,352,36154,2,0,L|320:240,1,100
320,224,36476,1,8,0:0:0:0:
160,256,36690,1,8,0:0:0:0:
160,128,36904,1,4,0:0:0:0:
176,144,37012,1,4,0:0:0:0:
256,192,37119,12,0,37547,0:0:0:0:
192,288,37762,6,0,L|192:352,1,50
192,240,37976,2,0,L|192:176,1,50
48,224,38297,1,8,0:0:0:0:
48,80,38512,1,0,0:0:0:0:
192,48,38726,2,0,B|240:64|240:64|288:48,1,100,8|0,0:0|0:0,0:0:0:0:
320,36,39047,1,0,0:0:0:0:
448,128,39262,2,0,L|464:176,3,33.3333333333333,0|0|0|0,0:0|0:0|0:0|0:0,0:0:0:0:
464,176,39583,6,0,B|464:288,1,100,8|0,0:0|0:0,0:0:0:0:
464,304,39904,1,0,0:0:0:0:
352,352,40119,1,0,0:0:0:0:
352,320,40226,1,0,0:0:0:0:
208,224,40440,2,0,B|256:208|256:208|304:224,1,100,8|0,0:0|0:0,0:0:0:0:
272,288,40762,2,0,B|224:304|224:304|176:288,1,100,8|0,0:0|0:0,0:0:0:0:
144,288,41083,1,0,0:0:0:0:
128,288,41190,1,0,0:0:0:0:
112,288,41297,1,0,0:0:0:0:
48,320,41404,6,0,L|48:208,1,100
48,80,41833,1,0,0:0:0:0:
48,80,41940,1,0,0:0:0:0:
288,36,42154,2,0,L|192:68,1,100,8|0,0:0|0:0,0:0:0:0:
148,84,42476,1,0,0:0:0:0:
256,160,42690,5,0,0:0:0:0:
256,192,42797,1,0,0:0:0:0:
256,224,42904,1,0,0:0:0:0:
240,256,43012,2,0,B|192:272|192:272|240:288,1,100,8|0,0:0|0:0,0:0:0:0:
256,320,43333,1,8,0:0:0:0:
432,272,43547,5,8,0:0:0:0:
432,240,43654,1,0,0:0:0:0:
432,208,43761,1,0,0:0:0:0:
448,176,43869,2,0,B|464:128|464:128|448:80,1,100,8|0,0:0|0:0,0:0:0:0:
432,48,44190,1,8,0:0:0:0:
256,128,44404,1,8,0:0:0:0:
256,192,44512,2,0,L|256:304,1,100,0|0,0:0|0:0,0:0:0:0:
256,352,44833,5,0,0:0:0:0:
240,348,44940,1,0,0:0:0:0:
224,344,45047,1,0,0:0:0:0:
192,336,45154,1,0,0:0:0:0:
188,320,45261,1,0,0:0:0:0:
184,304,45368,1,0,0:0:0:0:
176,272,45476,1,0,0:0:0:0:
160,268,45583,1,0,0:0:0:0:
144,264,45690,1,0,0:0:0:0:
112,256,45797,1,0,0:0:0:0:
108,240,45904,1,0,0:0:0:0:
104,224,46011,1,0,0:0:0:0:
96,192,46119,1,0,0:0:0:0:
80,188,46226,1,0,0:0:0:0:
64,184,46333,1,0,0:0:0:0:
32,176,46440,5,0,0:0:0:0:
48,144,46547,1,0,0:0:0:0:
64,112,46654,1,0,0:0:0:0:
80,80,46762,1,0,0:0:0:0:
96,64,46869,1,0,0:0:0:0:
112,80,46976,1,0,0:0:0:0:
128,112,47083,1,0,0:0:0:0:
144,128,47190,1,0,0:0:0:0:
160,112,47297,1,0,0:0:0:0:
176,80,47405,1,0,0:0:0:0:
192,64,47512,1,0,0:0:0:0:
208,80,47619,1,0,0:0:0:0:
224,112,47726,1,0,0:0:0:0:
240,128,47833,1,0,0:0:0:0:
256,112,47940,1,0,0:0:0:0:
272,80,48047,1,0,0:0:0:0:
288,48,48154,1,0,0:0:0:0:
304,16,48262,6,0,L|352:0,2,50,6|0|0,0:0|0:0|0:0,0:0:0:0:
408,88,48583,2,0,L|464:80,2,50,6|0|0,0:0|0:0|0:0,0:0:0:0:
440,192,48904,2,0,L|504:192,2,50,6|0|0,0:0|0:0|0:0,0:0:0:0:
408,296,49226,2,0,L|464:304,2,50,6|0|0,0:0|0:0|0:0,0:0:0:0:
304,368,49547,2,0,L|352:384,2,50,6|0|0,0:0|0:0|0:0,0:0:0:0:
288,360,49869,5,0,0:0:0:0:
272,352,49976,1,0,0:0:0:0:
256,344,50083,1,0,0:0:0:0:
240,336,50190,1,0,0:0:0:0:
224,328,50297,1,0,0:0:0:0:
208,320,50405,1,0,0:0:0:0:
192,328,50512,1,0,0:0:0:0:
176,336,50619,1,0,0:0:0:0:
160,344,50726,2,4,L|48:360,1,100,4|4,0:0|0:0,0:0:0:0:
61,358,51047,1,0,0:0:0:0:
32,224,51262,1,8,0:0:0:0:
40,228,51369,1,8,0:0:0:0:
48,232,51476,1,8,0:0:0:0:
56,236,51583,1,8,0:0:0:0:
64,240,51690,5,4,0:0:0:0:
256,192,51797,12,0,53190,0:0:0:0:
256,192,53404,5,0,0:0:0:0:
256,192,53512,12,0,54797,0:0:0:0:
256,184,55012,5,0,0:0:0:0:
256,192,55119,1,0,0:0:0:0:
256,192,55226,12,0,55762,0:0:0:0:
96,128,55976,5,0,0:0:0:0:
96,224,56297,1,0,0:0:0:0:
96,320,56619,1,0,0:0:0:0:
277,375,56833,6,0,P|244:251|313:199,1,200,0|8,0:0|0:0,0:0:0:0:
416,256,57690,1,8,0:0:0:0:
416,240,57797,1,8,0:0:0:0:
416,192,58011,1,8,0:0:0:0:
416,144,58226,1,8,0:0:0:0:
416,96,58440,1,0,0:0:0:0:
384,64,58547,5,4,0:0:0:0:
256,192,58654,12,0,59190,0:0:0:0:
256,192,59297,12,0,60047,0:0:0:0:
224,304,60262,5,4,0:0:0:0:
128,368,60476,1,0,0:0:0:0:
32,304,60690,2,0,L|32:176,1,100,8|0,0:0|0:0,0:0:0:0:
32,96,61119,1,0,0:0:0:0:
128,32,61333,2,0,L|128:160,2,100,8|0|0,0:0|0:0|0:0,0:0:0:0:
128,160,61976,5,0,0:0:0:0:
128,32,62190,1,0,0:0:0:0:
224,96,62404,2,0,L|224:208,1,100,8|0,0:0|0:0,0:0:0:0:
224,196,62726,1,0,0:0:0:0:
224,196,62833,1,0,0:0:0:0:
224,304,63047,1,8,0:0:0:0:
336,272,63262,2,8,L|400:256,3,50,8|8|8|8,0:0|0:0|0:0|0:0,0:0:0:0:
336,304,63690,6,0,L|432:336,1,100,4|0,0:0|0:0,0:0:0:0:
430,335,64119,1,8,0:0:0:0:
416,192,64333,2,0,L|512:224,2,100,0|0|8,0:0|0:0|0:0,0:0:0:0:
512,256,64976,1,0,0:0:0:0:
512,128,65190,1,0,0:0:0:0:
400,48,65404,6,0,P|352:32|304:48,1,100
306,46,65833,1,8,0:0:0:0:
176,48,66047,1,0,0:0:0:0:
176,48,66154,2,0,P|128:32|80:48,1,100
32,80,66476,2,0,L|64:176,1,100,8|8,0:0|0:0,0:0:0:0:
64,208,66797,1,8,0:0:0:0:
64,224,66904,1,8,0:0:0:0:
64,240,67012,1,8,0:0:0:0:
64,304,67119,6,0,P|160:336|256:304,1,200,4|8,0:0|0:0,0:0:0:0:
261,76,67762,2,0,P|355:49|448:80,1,200,4|8,0:0|0:0,0:0:0:0:
448,224,68404,1,0,0:0:0:0:
448,224,68512,2,0,L|448:336,1,100
448,352,68833,5,0,0:0:0:0:
448,224,69047,1,0,0:0:0:0:
320,272,69262,2,0,L|216:288,1,100,8|0,0:0|0:0,0:0:0:0:
160,336,69583,2,0,L|80:276,1,100,8|0,0:0|0:0,0:3:0:0:
0,272,69904,2,0,L|0:144,1,100,8|8,0:0|0:0,0:0:0:0:
0,144,70226,1,8,0:0:0:0:
0,128,70333,1,8,0:0:0:0:
0,112,70440,1,8,0:0:0:0:
0,80,70547,6,0,L|96:112,1,100,4|0,0:0|0:0,0:0:0:0:
176,240,70976,2,0,L|176:128,1,100,8|0,0:0|0:0,0:0:0:0:
176,16,71404,1,0,0:0:0:0:
256,112,71619,2,0,L|352:80,2,100,8|0|8,0:0|0:0|0:0,0:0:0:0:
128,80,72262,5,0,0:0:0:0:
128,256,72476,1,0,0:0:0:0:
128,144,72690,2,0,L|224:176,1,100,8|0,0:0|0:0,0:0:0:0:
288,200,73012,1,0,0:0:0:0:
240,304,73226,1,0,0:0:0:0:
240,304,73333,1,8,0:0:0:0:
368,336,73547,1,8,0:0:0:0:
384,336,73654,1,8,0:0:0:0:
400,336,73762,1,8,0:0:0:0:
416,336,73869,1,8,0:0:0:0:
480,352,73976,6,0,P|512:320|480:288,1,100
496,160,74404,2,0,L|496:48,1,100,8|0,0:0|0:0,0:0:0:0:
496,60,74833,1,0,0:0:0:0:
352,64,75047,2,0,L|256:32,1,100,8|0,0:0|0:0,0:0:0:0:
257,32,75476,1,8,0:0:0:0:
256,192,75690,6,0,L|256:256,2,50,0|0|0,0:0|0:0|0:0,0:0:0:0:
112,304,76119,2,0,L|160:320,1,50,8|0,0:0|0:0,0:0:0:0:
208,336,76440,1,0,0:0:0:0:
256,352,76547,6,0,L|400:304,3,133.333333333333,12|12|12|12,0:0|0:0|0:0|0:0,0:0:0:0:
368,32,77404,6,0,P|416:48|400:112,1,100
480,128,77833,2,8,P|512:192|480:260,2,150,8|8|0,0:0|0:0|0:0,0:0:0:0:
336,112,78690,1,0,0:0:0:0:
336,112,78797,2,0,L|336:240,1,100,8|8,0:0|0:0,0:0:0:0:
336,272,79119,5,0,0:0:0:0:
192,256,79333,1,0,0:0:0:0:
48,240,79547,2,0,L|48:128,1,100,8|0,0:0|0:0,0:0:0:0:
144,32,79976,2,0,L|48:64,1,100,8|0,0:0|0:0,0:0:0:0:
144,112,80297,2,0,L|240:144,1,100,8|0,0:0|0:0,0:0:0:0:
304,164,80619,1,8,0:0:0:0:
464,336,80833,6,0,L|352:336,1,100
304,240,81262,1,8,0:0:0:0:
304,240,81369,1,0,0:0:0:0:
256,336,81583,2,0,L|144:336,1,100
80,336,81904,2,0,P|64:288|80:240,1,100,8|8,0:0|0:0,0:0:0:0:
32,80,82333,1,8,0:0:0:0:
32,80,82440,1,8,0:0:0:0:
32,80,82547,6,0,L|240:96,1,200,4|8,0:0|0:0,0:0:0:0:
464,272,83190,1,4,0:0:0:0:
464,272,83297,2,0,L|272:288,1,150,0|8,0:0|0:0,0:0:0:0:
256,144,83833,1,8,0:0:0:0:
256,224,84047,1,8,0:0:0:0:
256,240,84154,1,0,0:0:0:0:
256,256,84262,1,4,0:0:0:0:
256,192,84369,12,8,85547,0:0:0:0:
256,192,85762,5,0,0:0:0:0:
144,112,85976,2,0,P|192:96|240:112,1,100,8|0,0:0|0:0,0:0:0:0:
368,272,86619,2,0,P|320:288|272:272,1,100,8|0,0:0|0:0,0:0:0:0:
416,192,87262,5,8,0:0:0:0:
400,192,87369,1,0,0:0:0:0:
96,192,87583,1,0,0:0:0:0:
112,192,87690,2,0,B|192:240|256:192|320:144|400:192,1,300,12|0,0:0|0:0,0:0:0:0:
496,192,88547,5,12,0:0:0:0:
16,192,88869,1,12,0:0:0:0:
496,192,89190,1,12,0:0:0:0:
416,48,89404,5,12,0:0:0:0:
416,336,89726,1,12,0:0:0:0:
144,192,90047,2,4,L|400:192,2,225.000008583069,12|0|0,0:0|0:0|0:0,0:0:0:0:
96,336,90904,5,4,0:0:0:0:
96,48,91119,1,4,0:0:0:0:
256,192,91226,12,0,94547,0:0:0:0:
