osu file format v12

[General]
AudioFilename: In My Heart.mp3
AudioLeadIn: 2000
PreviewTime: 62622
Countdown: 0
SampleSet: Soft
StackLeniency: 0.5
Mode: 0
LetterboxInBreaks: 1

[Editor]
DistanceSpacing: 1
BeatDivisor: 4
GridSize: 4

[Metadata]
Title:In My Heart
TitleUnicode:In My Heart
Artist:Tsukasa
ArtistUnicode:Tsukasa
Creator:lkx_shore
Version:Shore
Source:DJMAX
Tags:TECHNIKA Clazzuquai Edition BF Misato Rotte Gundam
BeatmapID:199107
BeatmapSetID:68926

[Difficulty]
HPDrainRate:7
CircleSize:4
OverallDifficulty:7
ApproachRate:8
SliderMultiplier:1.8
SliderTickRate:1

[Events]
//Background and Video events
0,0,"Shore.jpg",0,0
//Break Periods
//Storyboard Layer 0 (Background)
//Storyboard Layer 1 (Fail)
//Storyboard Layer 2 (Pass)
//Storyboard Layer 3 (Foreground)
//Storyboard Sound Samples
//Background Colour Transformations
3,100,163,162,255

[TimingPoints]
183,487.80487804878,4,2,1,55,1,0
15792,-100,4,2,1,70,0,0
24573,-125,4,2,1,70,0,0
25304,-100,4,2,1,70,0,0
31402,-100,4,2,1,50,0,0
46036,-100,4,2,1,55,0,0
46280,-100,4,2,1,60,0,0
46524,-100,4,2,1,65,0,0
46768,-100,4,2,1,70,0,0
58717,-100,4,1,0,50,0,0
60668,-100,4,2,2,70,0,0
61646,-100,4,2,2,50,0,0
61890,-100,4,2,2,55,0,0
62134,-100,4,2,2,60,0,0
62622,-100,4,2,2,100,0,1
62743,-100,4,2,2,70,0,1
78231,-100,4,2,1,70,0,0
94329,-100,4,2,1,60,0,0
94573,-100,4,2,1,50,0,0
94817,-100,4,2,1,40,0,0
95061,-100,4,2,1,30,0,0
95304,-100,4,2,1,20,0,0
95548,-100,4,2,1,10,0,0
95790,-100,4,2,1,5,0,0

[Colours]
Combo1 : 255,128,0
Combo2 : 255,0,255
Combo3 : 255,0,0
Combo4 : 128,0,255
Combo5 : 0,128,255

[HitObjects]
256,232,183,2,0,P|268:188|248:144,1,90,8|0,0:0|0:0,0:0:0:0:
192,56,670,1,2,0:0:0:0:
192,56,914,2,0,P|224:132|312:140,1,180,0|0,0:0|0:0,0:0:0:0:
316,56,1646,1,2,0:0:0:0:
240,240,1890,2,0,L|220:280,1,45
204,312,2134,6,0,P|176:320|116:308,1,90,8|0,0:0|0:0,0:0:0:0:
256,192,2622,1,2,0:0:0:0:
256,192,2865,2,0,P|316:164|424:188,1,180
324,264,3597,1,2,0:0:0:0:
184,260,3841,2,0,L|140:252,1,45
96,244,4085,6,0,P|76:292|80:328,1,90,8|0,0:0|0:0,0:0:0:0:
236,188,4573,1,2,0:0:0:0:
236,188,4817,2,0,P|156:148|68:172,1,180
240,272,5548,1,2,0:0:0:0:
316,228,5792,5,0,0:0:0:0:
324,192,5914,1,0,0:0:0:0:
320,156,6036,1,8,0:0:0:0:
192,44,6280,2,0,P|172:88|180:132,1,90,0|2,0:0|0:0,0:0:0:0:
203,211,6768,2,0,P|227:131|191:43,1,180
84,168,7500,1,2,0:0:0:0:
224,320,7743,1,2,0:0:0:0:
428,292,7987,5,12,0:0:0:0:
420,120,8231,1,0,0:0:0:0:
420,120,8353,1,0,0:0:0:0:
420,120,8475,2,0,P|348:144|316:128,1,90,2|0,0:0|0:0,0:0:0:0:
192,104,8841,2,0,P|264:80|296:96,1,90,2|2,0:0|0:0,0:0:0:0:
308,96,9207,1,0,0:0:0:0:
260,168,9451,2,0,L|276:212,1,45,2|0,0:0|0:0,0:0:0:0:
248,328,9817,6,0,L|232:284,1,45,0|10,0:0|0:0,0:0:0:0:
128,200,10182,1,0,0:0:0:0:
128,200,10304,2,0,P|88:236|80:272,1,90,2|2,0:0|0:0,0:0:0:0:
208,232,10670,2,0,P|212:188|192:144,1,90,0|2,0:0|0:0,0:0:0:0:
104,28,11036,2,0,P|100:72|120:116,1,90
152,96,11402,1,2,0:0:0:0:
188,96,11524,1,0,0:0:0:0:
224,108,11646,1,0,0:0:0:0:
256,128,11768,6,0,P|300:140|344:128,1,90,2|2,0:0|0:0,0:0:0:0:
380,104,12134,2,0,L|392:196,1,90,2|2,0:0|0:0,0:0:0:0:
472,232,12500,2,0,P|480:188|460:144,1,90,0|2,0:0|0:0,0:0:0:0:
448,132,12865,1,0,0:0:0:0:
312,132,13109,2,0,L|268:128,1,45,0|2,0:0|0:0,0:0:0:0:
92,172,13475,2,0,L|136:176,1,45,2|0,0:0|0:0,0:0:0:0:
236,244,13841,5,12,0:0:0:0:
336,288,14085,1,2,0:0:0:0:
336,288,14207,1,0,0:0:0:0:
336,288,14329,1,0,0:0:0:0:
336,288,14451,2,0,P|360:248|356:204,1,90,2|2,0:0|0:0,0:0:0:0:
332,180,14817,1,0,0:0:0:0:
111,252,15061,1,8,0:0:0:0:
111,108,15304,1,8,0:0:0:0:
248,64,15548,1,2,0:0:0:0:
332,180,15792,6,0,P|288:192|244:180,1,90,4|0,0:0|0:0,0:0:0:0:
228,148,16158,2,0,L|148:260,1,135,2|2,0:0|0:0,0:0:0:0:
296,100,16768,2,0,P|196:72|148:120,1,180,2|8,0:0|0:0,0:0:0:0:
340,180,17500,5,0,0:0:0:0:
340,180,17622,1,0,0:0:0:0:
340,180,17743,2,0,P|388:176|420:152,1,90,2|0,0:0|0:0,0:0:0:0:
428,116,18109,2,0,L|476:244,1,135,2|2,0:0|0:0,0:0:0:0:
372,288,18719,1,0,0:0:0:0:
336,280,18841,1,0,0:0:0:0:
300,292,18963,1,2,0:0:0:0:
268,304,19085,1,0,0:0:0:0:
236,288,19207,1,8,0:0:0:0:
96,176,19451,1,2,0:0:0:0:
192,192,19695,6,0,P|172:236|140:260,1,90,4|0,0:0|0:0,0:0:0:0:
104,264,20061,2,0,L|192:368,1,135,2|2,0:0|0:0,0:0:0:0:
280,336,20670,1,0,0:0:0:0:
316,344,20792,1,0,0:0:0:0:
352,336,20914,1,2,0:0:0:0:
372,308,21036,1,0,0:0:0:0:
380,272,21158,2,0,P|422:293|462:290,1,90,8|2,0:0|0:0,0:0:0:0:
416,104,21646,6,0,P|304:132|296:164,1,135,0|2,0:0|0:0,0:0:0:0:
349,204,22134,2,0,P|348:184|302:135,1,90,8|2,0:0|0:0,0:0:0:0:
156,124,22622,1,2,0:0:0:0:
124,136,22743,1,0,0:0:0:0:
96,160,22865,1,2,0:0:0:0:
84,196,22987,1,0,0:0:0:0:
84,232,23109,2,0,P|132:248|156:288,1,90,8|2,0:0|0:0,0:0:0:0:
76,320,23597,5,4,0:0:0:0:
224,184,23841,1,0,0:0:0:0:
256,168,23963,1,2,0:0:0:0:
292,168,24085,2,0,P|344:184|368:208,1,90,8|2,0:0|0:0,0:0:0:0:
460,308,24573,1,0,0:0:0:0:
478,277,24695,1,0,0:0:0:0:
483,241,24817,1,2,0:0:0:0:
476,206,24939,1,0,0:0:0:0:
456,176,25061,2,0,P|420:148|384:144,1,72,8|2,0:0|0:0,0:0:0:0:
160,216,25548,5,2,0:0:0:0:
160,216,25670,1,0,0:0:0:0:
36,328,25914,1,2,0:0:0:0:
36,328,26036,2,0,P|80:344|124:336,1,90,8|2,0:0|0:0,0:0:0:0:
208,268,26524,1,2,0:0:0:0:
178,247,26646,1,0,0:0:0:0:
161,216,26768,1,2,0:0:0:0:
158,180,26890,1,0,0:0:0:0:
170,147,27012,1,8,0:0:0:0:
268,132,27256,1,2,0:0:0:0:
268,132,27378,1,0,0:0:0:0:
268,132,27500,6,0,P|308:148|360:140,1,90,4|0,0:0|0:0,0:0:0:0:
372,116,27865,2,0,L|460:232,1,135,2|2,0:0|0:0,0:0:0:0:
484,120,28475,1,2,0:0:0:0:
308,60,28719,1,0,0:0:0:0:
308,60,28841,1,0,0:0:0:0:
308,60,28963,1,8,0:0:0:0:
124,88,29207,1,0,0:0:0:0:
248,236,29451,6,0,P|316:192|320:100,1,180,4|8,0:0|0:0,0:0:0:0:
232,140,30182,2,0,L|388:248,1,180,2|2,0:0|0:0,0:0:0:0:
456,192,30914,1,8,0:0:0:0:
480,104,31158,1,0,0:0:0:0:
480,104,31280,1,0,0:0:0:0:
480,104,31402,6,0,P|427:102|396:121,1,90,0|0,0:0|0:0,0:0:0:0:
308,128,31890,1,2,0:0:0:0:
316,216,32134,1,0,0:0:0:0:
392,260,32378,1,0,0:0:0:0:
316,304,32622,1,0,0:0:0:0:
316,304,32743,1,0,0:0:0:0:
316,304,32865,2,0,P|265:310|224:290,1,90,2|0,0:0|0:0,0:0:0:0:
200,264,33231,1,0,0:0:0:0:
172,228,33353,6,0,P|156:276|184:352,1,135,2|0,0:0|0:0,0:0:0:0:
228,368,33841,1,2,0:0:0:0:
320,184,34085,1,0,0:0:0:0:
232,224,34329,5,2,0:0:0:0:
224,216,34573,1,0,0:0:0:0:
216,208,34817,1,2,0:0:0:0:
208,200,35061,1,2,0:0:0:0:
120,104,35304,6,0,P|160:92|204:108,1,90
404,216,35792,2,0,P|328:244|280:228,1,135,2|0,0:0|0:0,0:0:0:0:
248,208,36280,1,0,0:0:0:0:
320,64,36524,1,0,0:0:0:0:
324,100,36646,1,0,0:0:0:0:
312,132,36768,1,2,0:0:0:0:
160,176,37012,1,0,0:0:0:0:
104,104,37256,6,0,P|152:88|228:120,1,135,2|0,0:0|0:0,0:0:0:0:
203,198,37743,2,0,P|200:156|226:118,1,90,2|0,0:0|0:0,0:0:0:0:
384,204,38231,5,2,0:0:0:0:
376,200,38475,1,0,0:0:0:0:
368,196,38719,1,2,0:0:0:0:
360,192,38963,1,2,0:0:0:0:
308,116,39207,6,0,P|356:100|400:112,1,90
364,220,39695,2,0,P|316:236|272:224,1,90,2|0,0:0|0:0,0:0:0:0:
152,100,40182,1,2,0:0:0:0:
152,100,40426,2,0,P|120:136|112:180,1,90,2|0,0:0|0:0,0:0:0:0:
180,304,40914,1,0,0:0:0:0:
312,252,41158,6,0,P|384:248|432:292,1,135,2|0,0:0|0:0,0:0:0:0:
436,324,41646,1,2,0:0:0:0:
264,320,41890,1,0,0:0:0:0:
364,168,42134,5,2,0:0:0:0:
360,176,42378,1,0,0:0:0:0:
356,184,42622,1,2,0:0:0:0:
352,192,42865,1,2,0:0:0:0:
272,264,43109,6,0,P|232:236|224:196,1,90
274,99,43597,2,0,P|304:192|284:236,1,135,2|0,0:0|0:0,0:0:0:0:
272,264,44085,1,2,0:0:0:0:
128,252,44329,2,0,P|84:252|48:280,1,90,2|0,0:0|0:0,0:0:0:0:
192,332,44817,1,0,0:0:0:0:
331,302,45061,5,2,0:0:0:0:
347,159,45304,1,0,0:0:0:0:
215,100,45548,1,2,0:0:0:0:
119,206,45792,1,0,0:0:0:0:
240,216,46036,5,2,0:0:0:0:
248,220,46280,1,0,0:0:0:0:
256,224,46524,1,2,0:0:0:0:
264,228,46768,1,2,0:0:0:0:
384,208,47012,6,0,P|416:136|360:60,1,180,4|8,0:0|0:0,0:0:0:0:
240,80,47743,2,0,P|208:152|264:228,1,180,2|0,0:0|0:0,0:0:0:0:
296,148,48475,1,8,0:0:0:0:
296,148,48719,6,0,P|224:116|148:172,1,180
228,200,49451,1,8,0:0:0:0:
296,148,49695,2,0,P|368:180|444:124,2,180,2|2|0,0:0|0:0|0:0,0:0:0:0:
296,148,50914,6,0,P|336:204|328:268,1,135,4|0,0:0|0:0,0:0:0:0:
308,308,51402,2,0,P|274:279|228:276,1,90,8|0,0:0|0:0,0:0:0:0:
148,312,51890,1,2,0:0:0:0:
292,228,52134,1,2,0:0:0:0:
148,152,52378,1,8,0:0:0:0:
204,228,52622,5,2,0:0:0:0:
332,148,52865,1,0,0:0:0:0:
180,140,53109,1,2,0:0:0:0:
292,228,53353,2,0,P|332:252|376:252,1,90,8|0,0:0|0:0,0:0:0:0:
352,340,53841,2,0,L|376:248,1,90,2|2,0:0|0:0,0:0:0:0:
388,208,54207,1,0,0:0:0:0:
388,208,54329,2,0,P|436:196|476:208,1,90,8|2,0:0|0:0,0:0:0:0:
292,228,54817,5,4,0:0:0:0:
388,96,55061,1,0,0:0:0:0:
388,96,55182,1,0,0:0:0:0:
388,96,55304,1,8,0:0:0:0:
468,256,55548,1,0,0:0:0:0:
292,132,55792,1,2,0:0:0:0:
268,336,56036,1,2,0:0:0:0:
268,336,56158,1,0,0:0:0:0:
268,336,56280,2,0,P|316:336|348:308,1,90,8|0,0:0|0:0,0:0:0:0:
368,168,56768,6,0,P|416:128|488:132,1,135,2|0,0:0|0:0,0:0:0:0:
485,130,57256,2,0,P|504:84|504:44,1,90,8|0,0:0|0:0,0:0:0:0:
312,96,57743,2,0,P|280:152|300:224,1,135,2|0,0:0|0:0,0:0:0:0:
316,248,58231,1,8,0:0:0:0:
392,140,58475,1,2,0:0:0:0:
84,96,58719,5,4,2:0:0:0:
84,96,58963,1,0,0:0:0:0:
164,168,59207,1,0,0:0:0:0:
164,168,59451,1,0,0:0:0:0:
248,100,59695,1,0,0:0:0:0:
248,100,59939,1,0,0:0:0:0:
328,168,60182,1,0,0:0:0:0:
328,168,60426,1,0,0:0:0:0:
256,232,60670,5,4,0:0:0:0:
320,296,60914,1,8,0:0:0:0:
256,232,61158,1,4,0:0:0:0:
188,348,61402,1,8,0:0:0:0:
384,356,61646,5,12,0:0:0:0:
406,334,61768,1,8,0:0:0:0:
418,305,61890,1,12,0:0:0:0:
418,274,62012,1,8,0:0:0:0:
406,245,62134,1,12,0:0:0:0:
393,217,62256,1,8,0:0:0:0:
394,186,62378,1,12,0:0:0:0:
408,160,62500,1,8,0:0:0:0:
426,138,62622,6,0,P|386:150|338:142,1,90,4|0,0:0|0:0,0:0:0:0:
318,122,62987,2,0,B|298:150|266:150|266:150|260:192|226:210,1,135,2|2,0:0|0:0,0:0:0:0:
172,128,63597,1,2,0:0:0:0:
344,216,63841,1,0,0:0:0:0:
344,216,63963,1,0,0:0:0:0:
344,216,64085,2,0,P|344:268|324:300,1,90,8|0,0:0|0:0,0:0:0:0:
228,232,64573,5,2,0:0:0:0:
328,108,64817,1,0,0:0:0:0:
328,108,64939,1,2,0:0:0:0:
328,108,65061,2,0,P|376:108|416:136,1,90,8|2,0:0|0:0,0:0:0:0:
364,288,65548,1,2,0:0:0:0:
352,296,65670,2,0,L|256:296,1,90
252,304,66036,1,8,0:0:0:0:
64,284,66280,5,0,0:0:0:0:
64,284,66402,1,0,0:0:0:0:
64,284,66524,2,0,L|48:196,1,90,6|0,0:0|0:0,0:0:0:0:
40,160,66890,1,2,0:0:0:0:
32,116,67012,1,8,0:0:0:0:
172,156,67256,2,0,P|212:144|244:108,1,90,2|2,0:0|0:0,0:0:0:0:
128,76,67743,1,0,0:0:0:0:
128,76,67865,1,0,0:0:0:0:
128,76,67987,2,0,L|172:156,1,90,8|0,0:0|0:0,0:0:0:0:
264,300,68475,6,0,P|232:328|184:336,1,90,2|0,0:0|0:0,0:0:0:0:
152,320,68841,1,0,0:0:0:0:
120,304,68963,2,0,P|74:312|42:340,1,90,10|0,0:0|0:0,0:0:0:0:
220,248,69451,1,2,0:0:0:0:
220,248,69573,1,2,0:0:0:0:
68,200,69817,1,2,0:0:0:0:
68,200,69939,2,0,L|159:182,1,90,8|2,0:0|0:0,0:0:0:0:
432,164,70426,6,0,P|388:140|312:168,1,135,6|0,0:0|0:0,0:0:0:0:
312,167,70914,2,0,L|232:128,2,90,10|0|0,0:0|0:0|0:0,0:0:0:0:
456,240,71646,1,2,0:0:0:0:
456,240,71768,1,0,0:0:0:0:
456,240,71890,1,8,0:0:0:0:
422,334,72134,6,0,B|384:296|320:312|320:312|324:276|296:248,1,180,2|0,0:0|0:0,0:0:0:0:
320,144,72865,1,8,0:0:0:0:
240,312,73109,1,2,0:0:0:0:
68,224,73353,1,0,0:0:0:0:
40,204,73475,2,0,P|24:164|36:116,1,90,2|0,0:0|0:0,0:0:0:0:
68,100,73841,1,8,0:0:0:0:
256,80,74085,1,2,0:0:0:0:
180,232,74329,5,12,0:0:0:0:
180,232,74573,1,8,0:0:0:0:
208,256,74695,1,0,0:0:0:0:
240,268,74817,1,8,0:0:0:0:
276,260,74939,1,8,0:0:0:0:
304,240,75061,1,8,0:0:0:0:
300,204,75182,1,8,0:0:0:0:
316,172,75304,2,0,P|360:144|408:148,1,90,8|0,0:0|0:0,0:0:0:0:
396,252,75792,1,8,0:0:0:0:
396,252,75914,1,8,0:0:0:0:
396,252,76036,1,8,0:0:0:0:
248,248,76280,6,0,B|208:252|184:232|184:232|124:220|80:264,1,180,14|0,0:0|0:0,0:0:0:0:
236,328,77012,2,0,B|276:332|300:312|300:312|360:300|404:344,1,180,14|0,0:0|0:0,0:0:0:0:
308,208,77743,1,8,0:0:0:0:
308,208,77865,1,8,0:0:0:0:
308,208,77987,1,8,0:0:0:0:
308,208,78109,1,8,0:0:0:0:
308,208,78231,6,0,P|320:124|400:92,1,180,12|2,0:0|0:0,0:0:0:0:
384,176,78963,2,0,P|288:160|224:208,1,180
320,268,79695,1,2,0:0:0:0:
176,120,79939,6,0,P|132:116|88:132,1,90,0|8,0:0|0:0,0:0:0:0:
56,216,80426,2,0,L|36:256,2,45,0|0|2,0:0|0:0|0:0,0:0:0:0:
144,200,80914,2,0,P|240:186|296:238,1,180
328,48,81646,2,0,P|300:74|291:124,1,90,2|0,0:0|0:0,0:0:0:0:
404,128,82134,6,0,P|453:137|481:168,1,90,8|0,0:0|0:0,0:0:0:0:
464,256,82622,1,2,0:0:0:0:
408,328,82865,2,0,B|364:312|324:340|324:340|272:312|272:256,1,180
292,112,83597,1,2,0:0:0:0:
328,200,83841,6,0,P|280:272|192:272,1,180
120,188,84573,2,0,P|48:232|52:320,1,180,2|0,0:0|0:0,0:0:0:0:
152,356,85304,1,0,0:0:0:0:
236,288,85548,2,0,P|281:292|317:316,1,90,2|0,0:0|0:0,0:0:0:0:
423,356,86036,5,8,0:0:0:0:
428,170,86280,1,0,0:0:0:0:
316,316,86524,1,2,0:0:0:0:
494,266,86768,1,0,0:0:0:0:
318,202,87012,1,0,0:0:0:0:
400,256,87256,1,0,0:0:0:0:
352,104,87500,1,2,0:0:0:0:
232,260,87743,5,0,0:0:0:0:
232,260,87865,1,0,0:0:0:0:
232,260,87987,2,0,P|184:260|144:240,1,90,8|0,0:0|0:0,0:0:0:0:
220,156,88475,1,2,0:0:0:0:
320,204,88719,2,0,P|372:280|348:360,1,180,0|0,0:0|0:0,0:0:0:0:
192,288,89451,2,0,P|240:280|284:292,1,90,2|0,0:0|0:0,0:0:0:0:
136,368,89939,6,0,P|104:332|96:284,1,90,8|0,0:0|0:0,0:0:0:0:
164,128,90426,2,0,P|196:164|204:212,1,90,2|0,0:0|0:0,0:0:0:0:
192,288,90914,2,0,B|248:296|267:338|267:338|315:354|351:330,1,180,2|2,0:0|0:0,0:0:0:0:
232,96,91646,1,0,0:0:0:0:
232,96,91890,2,2,P|216:140|220:192,1,90,10|0,0:0|0:0,0:0:0:0:
384,288,92378,54,0,B|504:208|508:128|440:72|384:120|384:120|328:76|256:128|272:208|348:252,1,540,2|0,0:0|0:0,0:0:0:0:
256,192,94085,12,2,95792,0:0:0:0:
