osu file format v14

[General]
AudioFilename: In My Heart.mp3
AudioLeadIn: 0
PreviewTime: 62124
Countdown: 0
SampleSet: Normal
StackLeniency: 0.7
Mode: 1
LetterboxInBreaks: 0
WidescreenStoryboard: 0

[Editor]
DistanceSpacing: 1
BeatDivisor: 4
GridSize: 16
TimelineZoom: 1

[Metadata]
Title:In My Heart
TitleUnicode:In My Heart
Artist:Tsukasa
ArtistUnicode:Tsukasa
Creator:Apl
Version:Oni
Source:DJMAX Technika
Tags:Misato 美里 矢鴇つかさ House Pop Portable Clazziquai Edition OST BF. Latte Shirley House Lupine The Clear Blue Sky
BeatmapID:712473
BeatmapSetID:320163

[Difficulty]
HPDrainRate:7
CircleSize:4
OverallDifficulty:7
ApproachRate:7
SliderMultiplier:1.4
SliderTickRate:1

[Events]
//Background and Video events
0,0,"InMyHeart.jpg",0,0
//Break Periods
//Storyboard Layer 0 (Background)
//Storyboard Layer 1 (Fail)
//Storyboard Layer 2 (Pass)
//Storyboard Layer 3 (Foreground)
//Storyboard Sound Samples

[TimingPoints]
173,487.80487804878,4,1,0,60,1,0
15051,-100,4,1,0,70,0,0
31636,-117.647058823529,4,1,0,60,0,0
46514,-117.647058823529,4,1,0,70,0,0
60172,-116.279069767442,4,1,0,75,0,0
60416,-114.942528735632,4,1,0,75,0,0
60660,-113.636363636364,4,1,0,75,0,0
60904,-112.359550561798,4,1,0,75,0,0
61148,-111.111111111111,4,1,0,75,0,0
61392,-109.89010989011,4,1,0,75,0,0
61636,-108.695652173913,4,1,0,80,0,0
61758,-107.52688172043,4,1,0,80,0,0
61880,-106.382978723404,4,1,0,80,0,0
62002,-105.263157894737,4,1,0,80,0,0
62124,-104.166666666667,4,1,0,85,0,0
62246,-103.092783505155,4,1,0,85,0,0
62368,-102.040816326531,4,1,0,85,0,0
62490,-101.010101010101,4,1,0,85,0,0
62612,-100,4,1,0,90,0,1
78221,-100,4,1,0,70,0,0
91392,-100,4,1,0,60,0,0
92124,-100,4,1,0,55,0,0
93099,-100,4,1,0,50,0,0
93831,-100,4,1,0,45,0,0
94807,-100,4,1,0,35,0,0
95782,-100,4,1,0,25,0,0
96758,-100,4,1,0,15,0,0

[HitObjects]
32,32,173,5,0,0:0:0:0:
32,32,416,1,0,0:0:0:0:
32,32,660,1,8,0:0:0:0:
32,32,904,1,0,0:0:0:0:
32,32,1392,1,0,0:0:0:0:
32,32,1636,1,8,0:0:0:0:
32,32,1880,1,0,0:0:0:0:
32,32,2124,1,0,0:0:0:0:
32,32,2368,1,0,0:0:0:0:
32,32,2612,1,8,0:0:0:0:
32,32,2855,1,0,0:0:0:0:
32,32,3343,1,0,0:0:0:0:
32,32,3587,1,8,0:0:0:0:
32,32,3831,1,0,0:0:0:0:
32,32,4075,1,0,0:0:0:0:
32,32,4319,1,0,0:0:0:0:
32,32,4563,1,8,0:0:0:0:
32,32,4807,1,0,0:0:0:0:
32,32,5294,1,0,0:0:0:0:
32,32,5538,1,8,0:0:0:0:
32,32,5782,1,0,0:0:0:0:
32,32,6026,1,0,0:0:0:0:
32,32,6270,1,0,0:0:0:0:
32,32,6514,1,8,0:0:0:0:
32,32,6758,1,0,0:0:0:0:
32,32,7246,1,0,0:0:0:0:
32,32,7490,1,8,0:0:0:0:
32,32,7733,1,0,0:0:0:0:
32,32,7977,1,8,0:0:0:0:
32,32,8221,1,0,0:0:0:0:
32,32,8343,1,0,0:0:0:0:
32,32,8465,1,8,0:0:0:0:
32,32,8709,1,0,0:0:0:0:
32,32,8831,1,8,0:0:0:0:
32,32,9075,1,0,0:0:0:0:
32,32,9197,1,8,0:0:0:0:
32,32,9441,1,0,0:0:0:0:
32,32,9563,1,8,0:0:0:0:
32,32,9685,1,0,0:0:0:0:
32,32,9929,1,8,0:0:0:0:
32,32,10173,1,0,0:0:0:0:
32,32,10294,1,8,0:0:0:0:
32,32,10538,1,0,0:0:0:0:
32,32,10660,1,8,0:0:0:0:
32,32,10904,1,0,0:0:0:0:
32,32,11026,1,8,0:0:0:0:
32,32,11148,1,0,0:0:0:0:
32,32,11270,1,0,0:0:0:0:
32,32,11392,1,8,0:0:0:0:
32,32,11636,1,0,0:0:0:0:
32,32,11758,1,8,0:0:0:0:
32,32,12002,1,0,0:0:0:0:
32,32,12124,1,8,0:0:0:0:
32,32,12368,1,0,0:0:0:0:
32,32,12490,1,8,0:0:0:0:
32,32,12612,1,0,0:0:0:0:
32,32,12733,1,0,0:0:0:0:
32,32,12855,1,8,0:0:0:0:
32,32,13099,1,0,0:0:0:0:
32,32,13221,1,8,0:0:0:0:
32,32,13465,1,0,0:0:0:0:
32,32,13587,1,8,0:0:0:0:
32,32,13831,1,8,0:0:0:0:
32,32,13953,1,8,0:0:0:0:
32,32,14075,1,8,0:0:0:0:
32,32,14197,1,8,0:0:0:0:
32,32,14319,1,0,0:0:0:0:
32,32,14441,1,0,0:0:0:0:
32,32,14563,1,0,0:0:0:0:
32,32,14685,1,0,0:0:0:0:
32,32,14807,1,8,0:0:0:0:
32,32,15051,1,8,0:0:0:0:
32,32,15294,1,4,0:0:0:0:
32,32,15782,1,12,0:0:0:0:
32,32,16026,1,0,0:0:0:0:
32,32,16148,1,8,0:0:0:0:
32,32,16392,1,0,0:0:0:0:
32,32,16514,1,8,0:0:0:0:
32,32,16758,1,0,0:0:0:0:
32,32,17246,1,8,0:0:0:0:
32,32,17490,1,0,0:0:0:0:
32,32,17733,1,8,0:0:0:0:
32,32,17977,1,0,0:0:0:0:
32,32,18099,1,8,0:0:0:0:
32,32,18343,1,0,0:0:0:0:
32,32,18465,1,8,0:0:0:0:
32,32,18709,1,8,0:0:0:0:
32,32,19197,1,8,0:0:0:0:
32,32,19441,1,0,0:0:0:0:
32,32,19685,1,8,0:0:0:0:
32,32,19929,1,0,0:0:0:0:
32,32,20051,1,8,0:0:0:0:
32,32,20294,1,0,0:0:0:0:
32,32,20416,1,8,0:0:0:0:
32,32,20660,1,0,0:0:0:0:
32,32,21148,1,8,0:0:0:0:
32,32,21392,1,0,0:0:0:0:
32,32,21636,1,8,0:0:0:0:
32,32,21880,1,0,0:0:0:0:
32,32,22002,1,8,0:0:0:0:
32,32,22246,1,0,0:0:0:0:
32,32,22368,1,8,0:0:0:0:
32,32,22612,1,8,0:0:0:0:
32,32,23099,1,8,0:0:0:0:
32,32,23343,1,0,0:0:0:0:
32,32,23587,1,12,0:0:0:0:
32,32,23831,1,0,0:0:0:0:
32,32,23953,1,8,0:0:0:0:
32,32,24197,1,0,0:0:0:0:
32,32,24319,1,8,0:0:0:0:
32,32,24563,1,0,0:0:0:0:
32,32,25051,1,8,0:0:0:0:
32,32,25294,1,0,0:0:0:0:
32,32,25538,1,8,0:0:0:0:
32,32,25782,1,0,0:0:0:0:
32,32,25904,1,8,0:0:0:0:
32,32,26148,1,0,0:0:0:0:
32,32,26270,1,8,0:0:0:0:
32,32,26514,1,0,0:0:0:0:
32,32,27002,1,8,0:0:0:0:
32,32,27246,1,0,0:0:0:0:
32,32,27490,1,12,0:0:0:0:
32,32,27733,1,0,0:0:0:0:
32,32,27855,1,8,0:0:0:0:
32,32,28099,1,8,0:0:0:0:
32,32,28221,1,8,0:0:0:0:
32,32,28465,1,8,0:0:0:0:
32,32,28709,1,0,0:0:0:0:
32,32,28953,1,0,0:0:0:0:
32,32,29197,1,8,0:0:0:0:
32,32,29441,1,12,0:0:0:0:
32,32,29929,1,0,0:0:0:0:
32,32,30173,1,8,0:0:0:0:
32,32,30660,1,8,0:0:0:0:
32,32,31636,1,0,0:0:0:0:
32,32,31880,1,8,0:0:0:0:
32,32,32368,1,0,0:0:0:0:
32,32,32733,1,0,0:0:0:0:
32,32,33099,1,0,0:0:0:0:
32,32,33343,1,8,0:0:0:0:
32,32,33831,1,0,0:0:0:0:
32,32,34075,1,0,0:0:0:0:
32,32,34319,1,8,0:0:0:0:
32,32,34563,1,0,0:0:0:0:
32,32,34807,1,8,0:0:0:0:
32,32,35051,1,0,0:0:0:0:
32,32,35538,1,0,0:0:0:0:
32,32,35782,1,8,0:0:0:0:
32,32,36270,1,0,0:0:0:0:
32,32,36636,1,0,0:0:0:0:
32,32,37002,1,0,0:0:0:0:
32,32,37124,1,0,0:0:0:0:
32,32,37246,1,8,0:0:0:0:
32,32,37490,1,0,0:0:0:0:
32,32,37733,1,8,0:0:0:0:
32,32,37977,1,8,0:0:0:0:
32,32,38221,1,8,0:0:0:0:
32,32,38465,1,0,0:0:0:0:
32,32,38709,1,8,0:0:0:0:
32,32,38953,1,0,0:0:0:0:
32,32,39441,1,8,0:0:0:0:
32,32,39685,1,8,0:0:0:0:
32,32,40173,1,0,0:0:0:0:
32,32,40416,1,8,0:0:0:0:
32,32,40904,1,8,0:0:0:0:
32,32,41148,1,0,0:0:0:0:
32,32,41636,1,0,0:0:0:0:
32,32,41880,1,0,0:0:0:0:
32,32,42124,1,8,0:0:0:0:
32,32,42368,1,0,0:0:0:0:
32,32,42612,1,8,0:0:0:0:
32,32,42855,1,0,0:0:0:0:
32,32,43343,1,8,0:0:0:0:
32,32,43587,1,8,0:0:0:0:
32,32,44075,1,0,0:0:0:0:
32,32,44319,1,8,0:0:0:0:
32,32,44807,1,8,0:0:0:0:
32,32,45051,1,0,0:0:0:0:
32,32,45294,1,0,0:0:0:0:
32,32,45538,1,8,0:0:0:0:
32,32,45782,1,8,0:0:0:0:
32,32,46270,1,8,0:0:0:0:
32,32,46514,1,4,0:0:0:0:
32,32,46758,1,8,0:0:0:0:
32,32,47002,1,12,0:0:0:0:
32,32,47490,1,0,0:0:0:0:
32,32,47733,1,8,0:0:0:0:
32,32,48465,1,0,0:0:0:0:
32,32,48709,1,8,0:0:0:0:
32,32,49197,1,8,0:0:0:0:
32,32,49441,1,0,0:0:0:0:
32,32,49685,1,8,0:0:0:0:
32,32,50173,1,8,0:0:0:0:
32,32,50416,1,0,0:0:0:0:
32,32,50660,1,8,0:0:0:0:
32,32,50904,1,8,0:0:0:0:
32,32,51392,1,0,0:0:0:0:
32,32,51880,1,0,0:0:0:0:
32,32,52124,1,0,0:0:0:0:
32,32,52368,1,8,0:0:0:0:
32,32,52612,1,8,0:0:0:0:
32,32,53099,1,8,0:0:0:0:
32,32,53587,1,0,0:0:0:0:
32,32,53709,1,0,0:0:0:0:
32,32,53831,1,0,0:0:0:0:
32,32,54075,1,0,0:0:0:0:
32,32,54319,1,8,0:0:0:0:
32,32,54563,1,8,0:0:0:0:
32,32,54807,1,0,0:0:0:0:
32,32,55538,1,0,0:0:0:0:
32,32,55782,1,8,0:0:0:0:
32,32,56270,1,8,0:0:0:0:
32,32,56514,1,0,0:0:0:0:
32,32,57002,1,8,0:0:0:0:
32,32,57246,1,8,0:0:0:0:
32,32,57490,1,0,0:0:0:0:
32,32,57612,1,0,0:0:0:0:
32,32,57733,1,8,0:0:0:0:
32,32,58099,1,8,0:0:0:0:
32,32,58465,1,0,0:0:0:0:
32,32,58709,1,12,0:0:0:0:
32,32,59197,1,0,0:0:0:0:
32,32,59441,1,8,0:0:0:0:
32,32,59929,1,0,0:0:0:0:
32,32,60173,1,8,0:0:0:0:
32,32,60416,1,8,0:0:0:0:
32,32,60660,1,12,0:0:0:0:
32,32,60904,1,0,0:0:0:0:
32,32,61148,1,12,0:0:0:0:
32,32,61392,1,0,0:0:0:0:
32,32,61636,1,8,0:0:0:0:
32,32,61758,1,0,0:0:0:0:
32,32,61880,1,0,0:0:0:0:
32,32,62002,1,0,0:0:0:0:
32,32,62124,1,8,0:0:0:0:
32,32,62246,1,0,0:0:0:0:
32,32,62368,1,0,0:0:0:0:
32,32,62490,1,0,0:0:0:0:
32,32,62612,1,8,0:0:0:0:
32,32,62977,1,0,0:0:0:0:
32,32,63343,1,8,0:0:0:0:
32,32,63587,1,8,0:0:0:0:
32,32,63831,1,8,0:0:0:0:
32,32,63953,1,0,0:0:0:0:
32,32,64075,1,0,0:0:0:0:
32,32,64319,1,0,0:0:0:0:
32,32,64563,1,8,0:0:0:0:
32,32,64929,1,8,0:0:0:0:
32,32,65294,1,8,0:0:0:0:
32,32,65538,1,0,0:0:0:0:
32,32,65782,1,0,0:0:0:0:
32,32,65904,1,0,0:0:0:0:
32,32,66026,1,8,0:0:0:0:
32,32,66270,1,0,0:0:0:0:
32,32,66514,1,8,0:0:0:0:
32,32,66880,1,0,0:0:0:0:
32,32,67246,1,8,0:0:0:0:
32,32,67490,1,8,0:0:0:0:
32,32,67733,1,8,0:0:0:0:
32,32,67855,1,0,0:0:0:0:
32,32,67977,1,0,0:0:0:0:
32,32,68221,1,8,0:0:0:0:
32,32,68465,1,8,0:0:0:0:
32,32,68953,1,8,0:0:0:0:
32,32,69197,1,0,0:0:0:0:
32,32,69441,1,8,0:0:0:0:
32,32,69685,1,8,0:0:0:0:
32,32,69807,1,0,0:0:0:0:
32,32,69929,1,0,0:0:0:0:
32,32,70173,1,0,0:0:0:0:
32,32,70416,1,8,0:0:0:0:
32,32,70538,1,0,0:0:0:0:
32,32,70660,1,8,0:0:0:0:
32,32,70904,1,8,0:0:0:0:
32,32,71026,1,0,0:0:0:0:
32,32,71270,1,0,0:0:0:0:
32,32,71392,1,8,0:0:0:0:
32,32,71514,1,0,0:0:0:0:
32,32,71636,1,0,0:0:0:0:
32,32,71880,1,0,0:0:0:0:
32,32,72124,1,8,0:0:0:0:
32,32,72612,1,0,0:0:0:0:
32,32,72733,1,0,0:0:0:0:
32,32,72855,1,8,0:0:0:0:
32,32,73099,1,0,0:0:0:0:
32,32,73587,1,0,0:0:0:0:
32,32,73831,1,8,0:0:0:0:
32,32,74319,1,8,0:0:0:0:
32,32,74441,1,0,0:0:0:0:
32,32,74685,1,8,0:0:0:0:
32,32,74807,1,0,0:0:0:0:
32,32,75051,1,8,0:0:0:0:
32,32,75173,1,0,0:0:0:0:
32,32,75416,1,0,0:0:0:0:
32,32,75538,1,0,0:0:0:0:
32,32,75660,1,0,0:0:0:0:
32,32,75782,1,8,0:0:0:0:
32,32,76026,1,8,0:0:0:0:
32,32,76270,1,4,0:0:0:0:
32,32,76514,1,0,0:0:0:0:
32,32,76636,1,0,0:0:0:0:
32,32,76758,1,8,0:0:0:0:
32,32,77002,1,8,0:0:0:0:
32,32,77246,1,0,0:0:0:0:
32,32,77368,1,0,0:0:0:0:
32,32,77490,1,8,0:0:0:0:
32,32,77733,1,8,0:0:0:0:
256,192,78221,12,0,79928,0:0:0:0:
32,32,80173,5,8,0:0:0:0:
32,32,80416,1,8,0:0:0:0:
32,32,80660,1,0,0:0:0:0:
32,32,80904,1,0,0:0:0:0:
32,32,81392,1,0,0:0:0:0:
32,32,81880,1,0,0:0:0:0:
32,32,82124,1,8,0:0:0:0:
32,32,82368,1,0,0:0:0:0:
32,32,82612,1,8,0:0:0:0:
32,32,82855,1,8,0:0:0:0:
32,32,83343,1,0,0:0:0:0:
32,32,83587,1,8,0:0:0:0:
32,32,83831,1,8,0:0:0:0:
32,32,84319,1,0,0:0:0:0:
32,32,84563,1,8,0:0:0:0:
32,32,85294,1,8,0:0:0:0:
32,32,85538,1,0,0:0:0:0:
32,32,85782,1,0,0:0:0:0:
32,32,86270,1,8,0:0:0:0:
32,32,86514,1,8,0:0:0:0:
32,32,86758,1,0,0:0:0:0:
32,32,87002,1,8,0:0:0:0:
32,32,87246,1,0,0:0:0:0:
32,32,87490,1,8,0:0:0:0:
32,32,87733,1,0,0:0:0:0:
32,32,87977,1,8,0:0:0:0:
32,32,88221,1,0,0:0:0:0:
32,32,88465,1,8,0:0:0:0:
32,32,88709,1,0,0:0:0:0:
32,32,89197,1,0,0:0:0:0:
32,32,89441,1,8,0:0:0:0:
32,32,89685,1,0,0:0:0:0:
32,32,89929,1,8,0:0:0:0:
32,32,90173,1,0,0:0:0:0:
32,32,90416,1,0,0:0:0:0:
32,32,90660,1,8,0:0:0:0:
32,32,90904,1,8,0:0:0:0:
32,32,91392,1,0,0:0:0:0:
32,32,91636,1,8,0:0:0:0:
32,32,92124,1,0,0:0:0:0:
32,32,92368,1,8,0:0:0:0:
32,32,92612,1,0,0:0:0:0:
32,32,93099,1,8,0:0:0:0:
32,32,93343,1,0,0:0:0:0:
32,32,93587,1,0,0:0:0:0:
256,192,93831,12,0,97733,0:0:0:0:
