osu file format v14

[General]
AudioFilename: In My Heart.mp3
AudioLeadIn: 0
PreviewTime: 62124
Countdown: 0
SampleSet: Normal
StackLeniency: 0.7
Mode: 1
LetterboxInBreaks: 0
WidescreenStoryboard: 0

[Editor]
DistanceSpacing: 1
BeatDivisor: 2
GridSize: 16
TimelineZoom: 0.4999998

[Metadata]
Title:In My Heart
TitleUnicode:In My Heart
Artist:Tsukasa
ArtistUnicode:Tsukasa
Creator:Apl
Version:Kantan
Source:DJMAX Technika
Tags:Misato 美里 矢鴇つかさ House Pop Portable Clazziquai Edition OST BF. Latte Shirley House Lupine The Clear Blue Sky
BeatmapID:713203
BeatmapSetID:320163

[Difficulty]
HPDrainRate:4
CircleSize:4
OverallDifficulty:4
ApproachRate:7
SliderMultiplier:1.4
SliderTickRate:1

[Events]
//Background and Video events
0,0,"InMyHeart.jpg",0,10
//Break Periods
//Storyboard Layer 0 (Background)
//Storyboard Layer 1 (Fail)
//Storyboard Layer 2 (Pass)
//Storyboard Layer 3 (Foreground)
//Storyboard Sound Samples

[TimingPoints]
173,487.80487804878,4,1,0,60,1,0
15051,-100,4,1,0,70,0,0
31636,-100,4,1,0,60,0,0
46514,-100,4,1,0,70,0,0
60660,-100,4,1,0,75,0,0
61636,-100,4,1,0,80,0,0
62612,-100,4,1,0,90,0,1
78221,-100,4,1,0,70,0,0
91880,-100,4,1,0,60,0,0
92855,-100,4,1,0,55,0,0
93831,-100,4,1,0,45,0,0
94807,-100,4,1,0,35,0,0
95782,-100,4,1,0,25,0,0
96758,-100,4,1,0,15,0,0

[HitObjects]
32,32,173,5,0,0:0:0:0:
32,32,660,1,8,0:0:0:0:
32,32,1636,1,8,0:0:0:0:
32,32,2124,1,0,0:0:0:0:
32,32,2612,1,8,0:0:0:0:
32,32,3587,1,8,0:0:0:0:
32,32,4075,1,0,0:0:0:0:
32,32,4563,1,8,0:0:0:0:
32,32,5538,1,8,0:0:0:0:
32,32,6026,1,0,0:0:0:0:
32,32,6514,1,8,0:0:0:0:
32,32,7490,1,0,0:0:0:0:
32,32,7977,1,0,0:0:0:0:
32,32,8465,1,8,0:0:0:0:
32,32,9441,1,8,0:0:0:0:
32,32,9929,1,0,0:0:0:0:
32,32,10416,1,8,0:0:0:0:
32,32,11392,1,8,0:0:0:0:
32,32,11880,1,0,0:0:0:0:
32,32,12368,1,8,0:0:0:0:
32,32,13343,1,8,0:0:0:0:
32,32,13831,1,0,0:0:0:0:
32,32,15294,1,0,0:0:0:0:
32,32,15782,1,12,0:0:0:0:
32,32,16758,1,0,0:0:0:0:
32,32,17733,1,8,0:0:0:0:
32,32,18709,1,8,0:0:0:0:
32,32,19685,1,0,0:0:0:0:
32,32,20660,1,0,0:0:0:0:
32,32,21636,1,8,0:0:0:0:
32,32,22612,1,8,0:0:0:0:
32,32,23587,1,12,0:0:0:0:
32,32,25538,1,8,0:0:0:0:
32,32,26514,1,0,0:0:0:0:
32,32,27490,1,8,0:0:0:0:
32,32,29441,1,12,0:0:0:0:
32,32,29929,1,0,0:0:0:0:
32,32,30660,1,8,0:0:0:0:
32,32,31636,1,0,0:0:0:0:
32,32,31880,1,8,0:0:0:0:
32,32,32368,1,8,0:0:0:0:
32,32,33343,1,8,0:0:0:0:
32,32,34319,1,8,0:0:0:0:
32,32,35538,1,0,0:0:0:0:
32,32,35782,1,8,0:0:0:0:
32,32,36270,1,0,0:0:0:0:
32,32,37246,1,8,0:0:0:0:
32,32,38221,1,8,0:0:0:0:
32,32,39441,1,8,0:0:0:0:
32,32,39685,1,8,0:0:0:0:
32,32,40173,1,0,0:0:0:0:
32,32,41148,1,8,0:0:0:0:
32,32,42124,1,8,0:0:0:0:
32,32,43343,1,8,0:0:0:0:
32,32,43587,1,8,0:0:0:0:
32,32,44075,1,0,0:0:0:0:
32,32,45051,1,8,0:0:0:0:
32,32,46026,1,8,0:0:0:0:
32,32,46514,1,4,0:0:0:0:
32,32,47002,1,12,0:0:0:0:
32,32,47977,1,0,0:0:0:0:
32,32,48953,1,8,0:0:0:0:
32,32,49929,1,0,0:0:0:0:
32,32,50904,1,8,0:0:0:0:
32,32,51880,1,8,0:0:0:0:
32,32,52368,1,0,0:0:0:0:
32,32,53343,1,0,0:0:0:0:
32,32,54319,1,0,0:0:0:0:
32,32,54807,1,8,0:0:0:0:
32,32,55782,1,0,0:0:0:0:
32,32,56758,1,8,0:0:0:0:
32,32,57733,1,0,0:0:0:0:
32,32,58221,1,0,0:0:0:0:
32,32,58709,1,12,0:0:0:0:
32,32,59685,1,0,0:0:0:0:
32,32,60660,1,12,0:0:0:0:
32,32,61148,1,12,0:0:0:0:
32,32,61636,1,12,0:0:0:0:
32,32,62124,1,12,0:0:0:0:
32,32,62612,1,12,0:0:0:0:
32,32,63587,1,0,0:0:0:0:
32,32,64563,1,8,0:0:0:0:
32,32,65538,1,8,0:0:0:0:
32,32,66514,1,8,0:0:0:0:
32,32,67002,1,0,0:0:0:0:
32,32,67490,1,8,0:0:0:0:
32,32,68465,1,8,0:0:0:0:
32,32,69441,1,8,0:0:0:0:
32,32,70416,1,8,0:0:0:0:
32,32,70904,1,0,0:0:0:0:
32,32,71392,1,0,0:0:0:0:
32,32,72368,1,8,0:0:0:0:
32,32,73343,1,0,0:0:0:0:
32,32,74319,1,12,0:0:0:0:
32,32,74807,1,8,0:0:0:0:
32,32,75294,1,8,0:0:0:0:
32,32,76270,1,4,0:0:0:0:
32,32,76758,1,8,0:0:0:0:
32,32,77002,1,8,0:0:0:0:
32,32,77733,1,8,0:0:0:0:
256,192,78221,12,0,81148,0:0:0:0:
32,32,82124,5,8,0:0:0:0:
32,32,82612,1,0,0:0:0:0:
32,32,83099,1,8,0:0:0:0:
32,32,84075,1,0,0:0:0:0:
32,32,84563,1,8,0:0:0:0:
32,32,85538,1,8,0:0:0:0:
32,32,86026,1,0,0:0:0:0:
32,32,87002,1,8,0:0:0:0:
32,32,87977,1,0,0:0:0:0:
32,32,88465,1,8,0:0:0:0:
32,32,89441,1,0,0:0:0:0:
32,32,89929,1,8,0:0:0:0:
32,32,90416,1,8,0:0:0:0:
32,32,90904,1,8,0:0:0:0:
32,32,91880,1,12,0:0:0:0:
32,32,92855,1,0,0:0:0:0:
256,192,93831,12,0,97733,0:0:0:0:
