osu file format v14

[General]
AudioFilename: Djmax Technika 3 - Dark Prism [BGA].mp3
AudioLeadIn: 0
PreviewTime: -1
Countdown: 1
SampleSet: None
StackLeniency: 0.7
Mode: 0
LetterboxInBreaks: 1
WidescreenStoryboard: 0

[Editor]
DistanceSpacing: 0.8
BeatDivisor: 1
GridSize: 32
TimelineZoom: 0.5999999

[Metadata]
Title:Dark Prism
TitleUnicode:Dark Prism
Artist:Tsukasa
ArtistUnicode:Tsukasa
Creator:timelord707
Version:Easy
Source:
Tags:
BeatmapID:755189
BeatmapSetID:341550

[Difficulty]
HPDrainRate:5
CircleSize:5
OverallDifficulty:5
ApproachRate:5
SliderMultiplier:1.4
SliderTickRate:1

[Events]
//Background and Video events
Video,0,"Djmax Technika 3 - Dark Prism [BGA].avi"
//Break Periods
//Storyboard Layer 0 (Background)
//Storyboard Layer 1 (Fail)
//Storyboard Layer 2 (Pass)
//Storyboard Layer 3 (Foreground)
//Storyboard Sound Samples

[TimingPoints]
1029.10122563853,382.165605095541,4,1,0,100,1,0

[HitObjects]
96,160,1793,5,0,0:0:0:0:
288,160,2557,1,0,0:0:0:0:
64,192,3322,1,0,0:0:0:0:
288,160,4086,1,0,0:0:0:0:
64,192,4850,1,0,0:0:0:0:
288,160,5615,1,0,0:0:0:0:
64,192,6379,1,0,0:0:0:0:
320,160,7143,1,0,0:0:0:0:
96,192,7908,1,0,0:0:0:0:
256,160,8290,1,0,0:0:0:0:
128,192,8672,1,0,0:0:0:0:
256,160,9054,1,0,0:0:0:0:
128,192,9436,1,0,0:0:0:0:
256,160,9818,1,0,0:0:0:0:
128,192,10201,1,0,0:0:0:0:
256,160,10583,1,0,0:0:0:0:
96,192,10965,1,0,0:0:0:0:
256,160,11347,1,0,0:0:0:0:
64,192,12111,1,0,0:0:0:0:
224,320,13640,1,0,0:0:0:0:
256,192,15551,12,0,19373,0:0:0:0:
192,160,20137,5,0,0:0:0:0:
256,192,20519,1,0,0:0:0:0:
0,256,21283,1,0,0:0:0:0:
224,192,22048,1,0,0:0:0:0:
416,224,22812,1,0,0:0:0:0:
288,256,23194,1,0,0:0:0:0:
160,128,23959,1,0,0:0:0:0:
128,224,24341,1,0,0:0:0:0:
128,96,26634,2,0,B|416:320|288:256|224:192|224:160,5,280
192,160,32366,1,0,0:0:0:0:
256,224,32748,1,0,0:0:0:0:
192,224,33131,1,0,0:0:0:0:
256,192,33513,1,0,0:0:0:0:
192,224,33895,1,0,0:0:0:0:
416,0,35041,1,0,0:0:0:0:
192,160,36188,1,0,0:0:0:0:
256,256,36570,1,0,0:0:0:0:
416,160,37334,1,0,0:0:0:0:
256,192,37716,1,0,0:0:0:0:
320,320,38863,1,0,0:0:0:0:
192,224,39627,1,0,0:0:0:0:
320,192,40009,1,0,0:0:0:0:
416,160,40392,1,0,0:0:0:0:
192,160,41156,1,0,0:0:0:0:
160,256,41538,1,0,0:0:0:0:
160,160,44595,1,0,0:0:0:0:
224,224,44978,1,0,0:0:0:0:
256,288,45360,1,0,0:0:0:0:
224,96,46124,1,0,0:0:0:0:
160,192,46506,1,0,0:0:0:0:
128,256,46888,1,0,0:0:0:0:
288,160,47653,1,0,0:0:0:0:
96,224,48417,1,0,0:0:0:0:
320,256,49181,1,0,0:0:0:0:
96,192,49946,1,0,0:0:0:0:
224,192,50328,1,0,0:0:0:0:
320,192,50710,1,0,0:0:0:0:
448,192,51092,1,0,0:0:0:0:
384,288,51474,1,0,0:0:0:0:
256,288,51857,1,0,0:0:0:0:
128,288,52239,1,0,0:0:0:0:
32,192,52621,1,0,0:0:0:0:
160,192,53003,1,0,0:0:0:0:
32,96,56060,2,0,L|160:192,5,140
96,96,59500,1,0,0:0:0:0:
288,192,60264,1,0,0:0:0:0:
128,160,62557,1,0,0:0:0:0:
224,160,62939,1,0,0:0:0:0:
96,256,63322,1,0,0:0:0:0:
288,256,64086,1,0,0:0:0:0:
160,288,64468,1,0,0:0:0:0:
160,160,65997,1,0,0:0:0:0:
352,160,66761,1,0,0:0:0:0:
256,224,67143,1,0,0:0:0:0:
96,192,67908,1,0,0:0:0:0:
224,256,68290,1,0,0:0:0:0:
352,128,69054,1,0,0:0:0:0:
160,192,69818,1,0,0:0:0:0:
64,320,70201,1,0,0:0:0:0:
224,288,70583,1,0,0:0:0:0:
416,96,71347,1,0,0:0:0:0:
224,160,72111,1,0,0:0:0:0:
160,256,72494,1,0,0:0:0:0:
32,128,73258,1,0,0:0:0:0:
128,128,73640,1,0,0:0:0:0:
128,288,74404,1,0,0:0:0:0:
384,160,75551,1,0,0:0:0:0:
64,128,76697,1,0,0:0:0:0:
256,160,77462,1,0,0:0:0:0:
160,288,78608,1,0,0:0:0:0:
416,192,79373,1,0,0:0:0:0:
192,192,81283,1,0,0:0:0:0:
352,224,82048,1,0,0:0:0:0:
192,288,82812,1,0,0:0:0:0:
96,32,83576,1,0,0:0:0:0:
352,128,84341,1,0,0:0:0:0:
128,320,85487,1,0,0:0:0:0:
352,96,86634,1,0,0:0:0:0:
128,160,87398,1,0,0:0:0:0:
352,224,88162,1,0,0:0:0:0:
96,288,89309,1,0,0:0:0:0:
320,96,90455,1,0,0:0:0:0:
224,256,91220,1,0,0:0:0:0:
64,128,91984,1,0,0:0:0:0:
288,192,92748,1,0,0:0:0:0:
160,352,93513,1,0,0:0:0:0:
128,160,94277,1,0,0:0:0:0:
256,160,94659,1,0,0:0:0:0:
32,96,96188,2,0,B|384:256|288:224,2,280
128,128,100009,1,0,0:0:0:0:
256,224,100392,1,0,0:0:0:0:
64,288,101156,1,0,0:0:0:0:
96,192,101538,1,0,0:0:0:0:
256,192,103067,12,0,105360,0:0:0:0:
320,128,106506,5,0,0:0:0:0:
128,224,107271,1,0,0:0:0:0:
352,256,108035,1,0,0:0:0:0:
160,128,108799,1,0,0:0:0:0:
160,384,109564,1,0,0:0:0:0:
352,256,110328,1,0,0:0:0:0:
96,192,111092,1,0,0:0:0:0:
352,128,111857,1,0,0:0:0:0:
128,256,112621,1,0,0:0:0:0:
416,160,113767,1,0,0:0:0:0:
256,160,114532,1,0,0:0:0:0:
416,256,115296,1,0,0:0:0:0:
192,256,116060,1,0,0:0:0:0:
416,288,116825,1,0,0:0:0:0:
