osu file format v9

[General]
AudioFilename: Accelerator.mp3
AudioLeadIn: 0
PreviewTime: 196204
Countdown: 0
SampleSet: Normal
StackLeniency: 1
Mode: 0
LetterboxInBreaks: 0

[Editor]
DistanceSpacing: 0.8
BeatDivisor: 4
GridSize: 4

[Metadata]
Title:Accelerator
Artist:Tsukasa
Creator:meiikyuu
Version:Moderate
Source:Touhou
Tags:colors utsuho reiuji nuclear fusion techno redalice lunarsakuya

[Difficulty]
HPDrainRate:4
CircleSize:3
OverallDifficulty:4
ApproachRate:5
SliderMultiplier:1
SliderTickRate:1

[Events]
//Background and Video events
0,0,"acceleratorbg2.jpg"
//Break Periods
2,41564,45649
2,113822,122745
2,155113,158874
//Storyboard Layer 0 (Background)
//Storyboard Layer 1 (Fail)
//Storyboard Layer 2 (Pass)
//Storyboard Layer 3 (Foreground)
//Storyboard Sound Samples
//Background Colour Transformations
3,100,255,0,128

[TimingPoints]
75,322.58064516129,4,1,1,50,1,0
20720,-100,4,1,1,50,0,1
41365,-100,4,1,1,50,0,0
51687,-100,4,1,1,40,0,0
62010,-100,4,1,1,50,0,0
123300,-133.333333333333,4,2,0,40,0,0
134268,-133.333333333333,4,1,1,40,0,0
149752,-100,4,1,1,50,0,0
196204,-100,4,1,1,50,0,1
237494,-100,4,1,1,50,0,0

[Colours]
Combo1 : 255,128,0
Combo2 : 128,0,255
Combo3 : 252,14,67

[HitObjects]
96,208,20720,2,0,B|112:256|168:280,2,100,4|8|0
128,136,21687,1,8
160,64,22010,2,0,B|272:64,1,100,0|8
272,144,22655,2,0,B|332:132|344:64,1,100,0|8
424,80,23300,6,0,B|424:288,1,200
344,296,24268,1,8
272,336,24591,2,0,B|192:336|224:256|112:272|88:320,2,200
344,296,26204,1,8
344,216,26526,6,0,B|344:96,1,100,0|8
256,96,27171,2,0,B|144:104|88:216|88:216|192:216,1,300,0|8
256,216,28462,2,0,B|368:216|368:216|328:312|208:336,1,300,0|8
152,328,29752,2,0,B|80:248|80:248|80:144|80:144|136:72,1,300,0|8
216,88,31042,6,0,B|368:88,2,150,4|0|0
172,156,32333,2,0,B|136:200|132:260,1,100,0|8
196,296,32978,1,0
272,324,33300,1,0
352,328,33623,6,0,B|416:312|416:240,1,100,0|8
336,248,34268,2,0,B|336:140,1,100,0|8
416,148,34913,2,0,B|416:44,1,100,0|8
336,76,35558,2,0,B|336:12,2,50,0|0|8
256,80,36204,6,0,B|160:136|160:248,2,200
328,224,38139,1,0
248,208,38462,2,0,B|248:152,1,50,8|4
192,304,39268,5,4
272,168,39913,1,4
388,60,40558,2,0,B|476:170|388:290,1,250,0|4
256,192,46849,5,8
360,72,47494,1,0
408,224,48139,1,8
304,344,48784,1,0
144,320,49429,1,8
72,176,50074,2,0,B|160:128,1,100
464,104,51687,6,0,B|432:148|456:180|456:180|428:256|352:228,2,200,4|0|0
304,104,53623,1,0
144,104,54268,2,0,B|176:148|152:180|152:180|180:256|256:228,2,200
304,104,56204,1,0
304,264,56849,5,0
304,264,57171,1,0
304,264,57494,2,0,B|192:296|192:296|96:256,1,200
192,120,58784,1,0
280,256,59429,5,0
280,256,59751,1,0
280,256,60074,2,0,B|392:224|392:224|488:264,2,200
264,96,62010,6,0,B|144:96,1,100,4|8
104,152,62655,2,0,B|160:256,1,100,0|8
200,304,63300,2,0,B|312:304,1,100,0|8
360,248,63945,1,0
360,88,64591,6,0,B|256:80,1,100,0|8
240,160,65236,2,0,B|136:168,1,100,0|8
104,240,65881,2,0,B|104:352,1,100,8|0
184,320,66526,1,0
344,320,67171,6,0,B|344:200,1,100,0|8
420,248,67816,2,0,B|420:144,1,100,0|8
344,120,68462,2,0,B|264:56,1,100,0|8
184,64,69107,1,0
104,224,69752,6,0,B|168:312|168:312|264:312,1,200
336,312,70720,1,8
256,192,71042,12,4,72333
256,192,72978,5,0
172,328,73623,1,0
56,220,74268,1,0
176,112,74913,6,0,B|224:80|288:112,2,100,0|8|0
147,186,75881,1,8
176,260,76204,2,0,B|224:292|288:260,2,100,0|8|0
152,184,77171,1,0
200,120,77494,6,0,B|296:72|416:104,1,200,8|8
440,168,78462,1,0
416,248,78784,1,0
216,256,79591,6,0,B|176:224,3,50
208,152,80397,1,8
368,152,81042,1,0
368,312,81687,1,8
208,312,82333,1,0
136,280,82655,6,0,B|136:168|136:168|80:144|88:88,1,200,4|0
168,92,83623,1,8
248,88,83945,1,0
312,136,84268,2,8,B|328:184|384:200,1,100,0|8
452,240,84913,1,8
384,280,85236,6,0,B|272:280,1,100,0|8
200,280,85881,2,0,B|144:184|208:80,2,200
256,192,87816,12,0,90397
128,96,91042,5,0
180,248,91687,2,0,B|200:304|256:320|256:320|312:304|356:288,1,200
436,162,92978,5,4
381,103,93300,1,8
323,47,93623,2,0,B|274:65|274:65|246:104,1,100,0|8
196,168,94268,1,0
256,316,94913,1,0
316,168,95558,5,0
265,103,95881,2,0,B|238:65|238:65|189:47,1,100,8|0
131,103,96526,1,8
76,162,96848,1,0
156,300,97494,6,0,B|256:336|372:296,1,200
320,228,98462,1,8
256,176,98784,2,0,B|256:64,2,100,0|8|0
192,228,99752,1,8
100,100,100397,5,8
172,64,100720,2,0,B|212:104|264:64|264:64|288:128|344:120,1,200
336,200,101687,1,8
408,240,102010,1,0
336,280,102333,2,0,B|284:288|264:352,2,100,8|0|8
336,200,103300,5,4
180,228,103945,1,0
224,80,104591,1,8
296,224,105236,2,0,B|360:224,2,50
216,224,105881,5,8
216,64,106526,1,0
376,64,107171,2,0,B|408:112|376:160,1,100,0|8
328,224,107816,2,0,B|297:269|329:317,2,100,0|8|0
256,192,108784,12,0,111042
128,88,111687,5,0
288,56,112333,1,0
320,128,112655,2,0,B|312:200|232:240|232:240|140:240|100:328,1,300,0|4
264,216,123945,5,2
384,192,124591,2,0,B|376:104|272:88,1,149.999995529652,0|2
168,88,125881,1,0
64,152,126526,6,0,B|40:232|88:304,3,149.999995529652,0|0|0|2
176,216,129107,2,0,B|256:240|328:192,3,149.999995529652,0|0|0|2
320,48,131687,2,0,B|400:72|432:144,3,149.999995529652,0|0|0|2
352,232,134268,6,0,B|280:264|196:228,1,149.999995529652,4|8
206,232,135558,2,0,B|174:160|210:76,1,149.999995529652,0|8
206,86,136849,2,0,B|278:54|362:90,1,149.999995529652,0|8
352,86,138139,2,0,B|384:158|348:242,1,149.999995529652,0|8
264,288,139429,5,0
152,216,140074,1,8
152,96,140720,1,0
264,48,141365,1,8
376,96,142010,6,0,B|376:256,1,149.999995529652,0|8
272,312,143300,2,0,B|272:152,1,149.999995529652,0|8
168,96,144591,6,0,B|168:184,1,74.9999977648259,4|0
168,232,145236,1,8
264,296,145881,2,0,B|352:296,1,74.9999977648259
400,296,146526,1,8
384,176,147171,6,0,B|312:152|296:64,1,149.999995529652,0|8
128,176,148462,2,0,B|200:152|216:64,1,149.999995529652,0|8
256,176,149752,5,0
256,176,150074,1,8
256,176,150397,2,0,B|256:280,1,100,0|8
336,288,151042,5,0
336,288,151364,1,8
336,288,151687,2,0,B|336:184,1,100,0|8
408,152,152333,6,0,B|368:56,1,100,0|8
304,104,152978,2,0,B|256:192,1,100,0|8
256,192,153623,12,4,154913
256,192,160074,12,0,163945
360,80,165236,6,0,B|408:176|352:288,2,200,4|8|0
200,80,167171,1,8
40,80,167816,2,0,B|-8:176|48:288,2,200,0|8|0
200,80,169752,1,8
320,192,170397,6,0,B|280:240|216:232,2,100,0|0|8
160,184,171687,2,0,B|136:240|160:288,2,100,0|0|8
264,64,172978,2,0,B|320:48|360:80,2,100,0|0|8
264,224,174268,2,0,B|320:240|360:208,2,100,0|0|8
184,224,175236,1,0
104,224,175558,6,0,B|104:336,2,100,12|0|8
104,144,176526,2,0,B|104:32,2,100,0|8|0
184,144,177494,2,0,B|184:40,1,100,8|0
264,48,178139,6,0,B|344:136|256:248,1,200,8|8
192,232,179107,1,0
144,168,179429,2,0,B|80:224|120:320|208:312,1,200,8|8
272,312,180397,1,0
352,312,180720,6,0,B|392:256|392:256|392:112,1,200,8|8
312,128,181687,1,0
312,208,182010,2,0,B|216:208|204:76|284:56,2,200,8|8|8
312,288,183623,5,0
248,336,183945,2,0,B|192:304|144:368|144:368|104:312|80:288,1,200,8|0
96,224,184913,2,0,B|96:112,2,100,0|8|0
176,200,185881,6,0,B|176:256,2,50
232,144,186526,2,0,B|232:88,2,50
288,200,187171,2,0,B|288:272,2,50
344,144,187816,2,0,B|344:96,2,50
424,152,188462,6,0,B|472:200|408:256,1,100,0|8
344,240,189107,2,0,B|308:332,1,100
244,280,189752,2,0,B|128:280,2,100
244,200,190720,1,0
272,124,191042,6,0,B|324:56|460:100|452:204,1,250
344,204,192333,2,0,B|284:268|220:244|148:208|132:152|160:100|176:92,1,300
240,52,193623,5,0
320,52,193945,2,0,B|404:48|432:132,2,150
280,164,195397,2,0,B|220:316,1,150
144,304,196204,6,0,B|40:304,1,100,4|0
44,224,196849,2,0,B|152:224,1,100
144,144,197494,2,0,B|152:68|220:28|300:44,2,200
224,144,199107,6,0,B|284:144|304:200,1,100
300,276,199752,1,0
376,256,200074,2,0,B|392:348|296:384|240:328,2,200
376,176,201687,6,0,B|376:72,1,100
296,76,202333,2,0,B|240:96|244:160,1,100
244,232,202978,1,0
244,312,203300,2,0,B|229:366|169:367,1,100
88,368,203945,6,0,B|44:272|88:168,1,200
136,112,204913,1,0
212,84,205236,2,0,B|308:40|412:84,2,200,0|0|4
212,164,206849,5,0
212,244,207171,2,0,B|272:244|296:172,1,100
364,168,207816,2,0,B|372:224|344:272,1,100
288,320,208462,1,0
136,268,209107,6,0,B|136:160,1,100
216,184,209752,2,0,B|216:84,1,100
296,80,210397,2,0,B|408:92|464:196,1,200
384,216,211365,2,0,B|352:164|288:156,1,100
304,240,212010,6,0,B|236:312,1,100
156,312,212655,1,0
76,312,212978,2,0,B|28:240|64:152,1,150
172,140,213945,2,0,B|224:96,1,50
368,144,214752,5,0
364,304,215397,2,0,B|264:344|156:320,1,200
152,144,216849,6,0,B|192:100|192:100|240:100,1,100,4|0
312,100,217494,2,0,B|352:100|352:100|392:144,1,100,0|0
392,224,218139,2,0,B|384:304|324:340|228:320,2,200
312,224,219752,5,0
232,224,220074,2,0,B|120:224,1,100
52,220,220720,2,0,B|52:104|188:80,1,200
252,84,221687,1,0
332,84,222010,6,0,B|376:184,1,100
448,148,222655,2,0,B|404:52,2,100
448,228,223623,2,0,B|448:336,1,100
368,332,224268,1,0
288,336,224591,6,0,B|240:348|196:312|196:312|144:344|92:304,1,200
152,248,225558,1,0
104,184,225881,2,0,B|148:152|212:156|216:216|296:216,1,200
288,215,226849,1,0
368,220,227171,6,0,B|368:120,2,100,4|0|0
448,220,228139,2,0,B|448:100,1,100
408,52,228784,1,0
328,52,229107,2,0,B|272:60|228:100,1,100
176,144,229752,6,0,B|128:184|140:248,1,100
216,224,230397,2,0,B|216:276|188:324,2,100
292,204,231365,1,0
364,240,231687,2,0,B|424:240,2,50
364,160,232333,6,0,B|360:88|312:60,1,100
248,72,232978,2,0,B|214:89|210:161,1,100
208,240,233623,1,0
228,316,233945,2,0,B|292:296,1,50
380,244,234591,2,0,B|408:192,1,50
256,192,234913,12,4,237494
