osu file format v9

[General]
AudioFilename: Tsukasa & ESTi - Relation Again.mp3
AudioLeadIn: 0
PreviewTime: 60306
Countdown: 0
SampleSet: Soft
StackLeniency: 0.7
Mode: 1
LetterboxInBreaks: 0

[Editor]
DistanceSpacing: 0
BeatDivisor: 4
GridSize: 8

[Metadata]
Title:Relation Again
Artist:Tsukasa & ESTi
Creator:0OoMickeyoO0
Version:Boss Taiko Oni
Source:DJMAX
Tags:Black Square TARI ETER Bright Fusion bossandy

[Difficulty]
HPDrainRate:5
CircleSize:5
OverallDifficulty:5
ApproachRate:5
SliderMultiplier:1.6
SliderTickRate:1

[Events]
//Background and Video events
0,0,"BG-TK.jpg"
Video,50,"Tsukasa & ESTi - Relation Again MV.avi"
//Break Periods
//Storyboard Layer 0 (Background)
//Storyboard Layer 1 (Fail)
//Storyboard Layer 2 (Pass)
//Storyboard Layer 3 (Foreground)
//Storyboard Sound Samples
//Background Colour Transformations
3,100,163,162,255

[TimingPoints]
1867.89131410616,444.444444444444,4,2,1,80,1,0
60534,-100,4,2,1,80,0,1
88979,-100,4,2,1,80,0,0

[Colours]
Combo1 : 89,89,255
Combo2 : 255,47,47

[HitObjects]
256,192,1867,1,0
256,192,2201,1,0
256,192,2312,5,2
256,192,2534,5,0
256,192,2979,1,0
256,192,3201,5,2
256,192,3423,5,0
256,192,3534,1,0
256,192,3645,1,0
256,192,3867,1,0
256,192,4090,5,2
256,192,4312,5,0
256,192,4645,5,2
256,192,4756,5,0
256,192,4979,5,2
256,192,5201,1,2
256,192,5312,1,2
256,192,5423,5,0
256,192,5645,1,0
256,192,5867,5,2
256,192,6090,5,0
256,192,6534,1,0
256,192,6756,5,2
256,192,6979,5,0
256,192,7090,1,0
256,192,7201,1,0
256,192,7423,1,0
256,192,7645,5,2
256,192,7867,5,0
256,192,8090,5,2
256,192,8312,5,0
256,192,8534,5,2
256,192,8645,1,2
256,192,8756,5,0
256,192,8979,1,4
256,192,9423,5,2
256,192,9645,5,0
256,192,10090,1,0
256,192,10312,5,2
256,192,10534,5,0
256,192,10756,1,0
256,192,11201,5,2
256,192,11423,5,0
256,192,11867,1,0
256,192,12090,5,2
256,192,12312,1,2
256,192,12423,1,2
256,192,12534,5,0
256,192,12867,1,0
256,192,12979,5,2
256,192,13201,5,0
256,192,13645,1,0
256,192,13867,5,2
256,192,14090,5,0
256,192,14312,5,2
256,192,14534,5,0
256,192,14756,5,2
256,192,14979,5,0
256,192,15201,5,2
256,192,15312,1,2
256,192,15423,5,0
256,192,15534,1,0
256,192,15645,5,2
256,192,15756,1,2
256,192,15867,5,0
256,192,16090,1,4
256,192,16534,5,2
256,192,16979,5,0
256,192,17201,1,0
256,192,17423,5,2
256,192,17645,5,0
256,192,18090,1,0
256,192,18201,1,0
256,192,18312,5,2
256,192,18534,5,0
256,192,18979,1,0
256,192,19201,5,2
256,192,19423,1,2
256,192,19534,5,0
256,192,19645,1,0
256,192,19979,1,0
256,192,20090,5,2
256,192,20312,5,0
256,192,20534,1,0
256,192,20756,1,0
256,192,20979,5,2
256,192,21201,1,2
256,192,21312,5,0
256,192,21423,1,0
256,192,21645,1,0
256,192,21867,5,2
256,192,22090,1,2
256,192,22534,5,0
256,192,22645,1,0
256,192,22756,5,2
256,192,22979,5,0
256,192,23201,1,0
256,192,23423,1,0
256,192,23645,5,2
256,192,23867,1,2
256,192,24090,5,0
256,192,24312,1,0
256,192,24423,1,0
256,192,24534,5,2
256,192,24756,5,0
256,192,24979,1,0
256,192,25201,5,2
256,192,25423,1,2
256,192,25645,5,0
256,192,26090,1,0
256,192,26201,1,0
256,192,26312,5,2
256,192,26534,5,0
256,192,26756,5,2
256,192,26979,5,0
256,192,27090,5,2
256,192,27312,5,0
256,192,27423,5,2
256,192,27645,5,0
256,192,27867,1,0
256,192,27979,1,0
256,192,28090,5,2
256,192,28201,5,0
256,192,28312,1,0
256,192,28534,5,2
256,192,28756,5,0
256,192,28867,5,2
256,192,29090,1,2
256,192,29201,5,0
256,192,29312,1,0
256,192,29423,1,0
256,192,29645,1,0
256,192,29867,5,2
256,192,30312,5,4
256,192,30756,5,2
256,192,30979,5,0
256,192,31090,1,0
256,192,31201,1,0
256,192,31423,1,0
256,192,31645,5,2
256,192,32090,5,0
256,192,32534,5,2
256,192,32756,5,0
256,192,32867,5,2
256,192,33090,1,2
256,192,33201,5,0
256,192,33423,5,2
256,192,33645,1,2
256,192,33756,1,2
256,192,33867,5,0
256,192,34090,1,0
256,192,34312,5,2
256,192,34534,5,0
256,192,34979,1,0
256,192,35201,5,2
256,192,35645,5,0
256,192,35867,1,0
256,192,36090,5,2
256,192,36312,5,0
256,192,36423,5,2
256,192,36645,1,2
256,192,36756,5,0
256,192,36979,5,2
256,192,37201,5,0
256,192,37423,1,0
256,192,37867,5,2
256,192,38090,5,0
256,192,38201,5,2
256,192,38423,5,0
256,192,38534,5,2
256,192,38756,1,2
256,192,38979,1,2
256,192,39201,5,4
256,192,39645,5,2
256,192,39867,5,0
256,192,40090,1,4
256,192,40423,1,0
256,192,40534,5,2
256,192,40756,1,2
256,192,40979,5,4
256,192,41423,5,2
256,192,41645,5,0
256,192,41756,1,0
256,192,41867,1,0
256,192,42090,1,0
256,192,42312,5,2
256,192,42756,5,0
256,192,42979,1,0
256,192,43201,5,2
256,192,43423,5,0
256,192,43534,5,2
256,192,43756,5,0
256,192,43867,5,2
256,192,44090,1,2
256,192,44201,5,0
256,192,44312,1,0
256,192,44534,1,4
256,192,44979,5,2
256,192,45201,5,0
256,192,45645,1,0
256,192,45756,1,0
256,192,45867,5,2
256,192,46090,5,0
256,192,46312,1,0
256,192,46756,5,2
256,192,46979,5,0
256,192,47090,5,2
256,192,47312,1,2
256,192,47423,5,0
256,192,47645,5,2
256,192,47867,5,0
256,192,48090,1,0
256,192,48534,5,2
256,192,48756,5,0
256,192,48867,1,0
256,192,49201,1,0
256,192,49423,5,2
256,192,49867,5,0
256,192,50090,1,0
256,192,50312,5,2
256,192,50534,5,0
256,192,50645,1,0
256,192,50756,1,0
256,192,50979,1,0
256,192,51201,5,2
256,192,51645,5,4
256,192,52090,5,2
256,192,52312,5,0
256,192,52423,1,0
256,192,52534,5,2
256,192,52756,5,0
256,192,52979,5,2
256,192,53423,5,0
256,192,53645,1,0
256,192,53867,5,2
256,192,54090,5,0
256,192,54201,5,2
256,192,54423,1,2
256,192,54534,5,0
256,192,54756,5,2
256,192,54867,5,0
256,192,54979,1,0
256,192,55090,1,0
256,192,55201,5,2
256,192,55423,5,0
256,192,55645,1,0
256,192,55867,5,2
256,192,56312,5,0
256,192,56534,1,0
256,192,56756,5,2
256,192,56979,1,2
256,192,57201,5,0
256,192,57312,5,2
256,192,57534,5,0
256,192,57645,5,2
256,192,57867,1,6
256,192,58090,5,0
256,192,58312,1,4
256,192,58534,5,6
256,192,59201,1,2
256,192,59423,5,0
256,192,59867,1,0
256,192,59979,1,0
256,192,60090,5,2
256,192,60201,1,2
256,192,60312,5,0
256,192,60423,1,0
256,192,60534,1,0
256,192,60756,1,0
256,192,60979,5,2
256,192,61201,5,0
256,192,61423,1,0
256,192,61645,1,0
256,192,61756,1,0
256,192,61867,5,2
256,192,62090,5,0
256,192,62312,1,0
256,192,62756,5,2
256,192,62979,5,0
256,192,63090,5,2
256,192,63312,5,0
256,192,63423,5,2
256,192,63645,1,2
256,192,63867,1,2
256,192,63979,5,0
256,192,64090,1,0
256,192,64312,1,0
256,192,64534,5,2
256,192,64756,5,0
256,192,64867,5,2
256,192,65090,1,2
256,192,65201,5,0
256,192,65423,5,2
256,192,65645,5,0
256,192,65756,1,0
256,192,65867,1,0
256,192,66090,1,0
256,192,66312,5,2
256,192,66534,5,0
256,192,66645,1,0
256,192,66756,1,0
256,192,66979,1,0
256,192,67201,5,2
256,192,67423,1,2
256,192,67534,5,0
256,192,67645,1,0
256,192,67867,1,0
256,192,68090,5,2
256,192,68312,5,0
256,192,68756,1,0
256,192,68979,5,2
256,192,69201,5,0
256,192,69312,1,0
256,192,69423,1,0
256,192,69645,5,2
256,192,69867,5,0
256,192,70090,5,2
256,192,70201,1,2
256,192,70423,1,2
256,192,70534,5,0
256,192,70756,1,0
256,192,70979,1,0
256,192,71201,5,2
256,192,71423,5,0
256,192,71534,5,2
256,192,71756,5,0
256,192,71867,5,2
256,192,72090,1,2
256,192,72201,5,0
256,192,72312,1,0
256,192,72423,1,0
256,192,72534,5,2
256,192,72645,5,0
256,192,72756,1,0
256,192,72979,1,0
256,192,73090,1,0
256,192,73201,5,2
256,192,73312,5,0
256,192,73423,1,0
256,192,73534,1,0
256,192,73645,5,2
256,192,73756,5,0
256,192,73867,1,0
256,192,73979,1,0
256,192,74090,5,2
256,192,74201,5,0
256,192,74312,5,2
256,192,74423,5,0
256,192,74534,1,0
256,192,74645,1,0
256,192,74756,1,0
256,192,74979,1,0
256,192,75090,5,2
256,192,75201,5,0
256,192,75423,5,2
256,192,75645,5,0
256,192,75867,1,0
256,192,76090,5,2
256,192,76312,5,0
256,192,76534,1,0
256,192,76756,5,2
256,192,76867,5,0
256,192,76979,1,0
256,192,77201,5,2
256,192,77423,5,0
256,192,77534,5,2
256,192,77756,5,0
256,192,77867,5,2
256,192,78090,1,2
256,192,78312,5,0
256,192,78534,1,0
256,192,78756,5,2
256,192,78979,5,0
256,192,79201,1,0
256,192,79423,1,0
256,192,79534,1,0
256,192,79645,5,2
256,192,79867,1,2
256,192,80090,5,4
256,192,80423,5,6
256,192,80756,5,4
256,192,81090,5,2
256,192,81201,5,0
256,192,81423,5,2
256,192,81534,1,2
256,192,81645,1,2
256,192,81867,5,4
256,192,82090,1,0
256,192,82312,5,2
256,192,82534,5,0
256,192,82756,5,2
256,192,82979,1,2
256,192,83090,5,0
256,192,83201,1,0
256,192,83423,5,6
256,192,83867,1,2
256,192,83979,5,0
256,192,84090,1,0
256,192,84312,1,0
256,192,84423,5,2
256,192,84645,1,2
256,192,84756,5,0
256,192,84979,5,2
256,192,85201,5,0
256,192,85423,1,4
256,192,85645,1,0
256,192,85867,5,2
256,192,86090,5,0
256,192,86312,1,4
256,192,86534,1,0
256,192,86645,1,0
256,192,86756,5,2
256,192,86979,5,4
256,192,87423,1,0
256,192,87645,5,2
256,192,87867,5,0
256,192,87979,1,0
256,192,88090,1,0
256,192,88201,1,0
256,192,88312,1,0
256,192,88423,1,0
256,192,88534,5,2
256,192,88645,5,0
256,192,88756,5,2
256,192,88867,5,0
256,192,88979,1,0
256,192,89201,1,0
256,192,89423,5,2
256,192,89645,5,0
256,192,89867,1,0
256,192,90090,1,0
256,192,90201,1,0
256,192,90312,5,2
256,192,90534,5,0
256,192,90756,1,0
256,192,90979,1,0
256,192,91201,5,2
256,192,91423,5,0
256,192,91534,5,2
256,192,91756,1,2
256,192,91867,5,0
256,192,92090,1,0
256,192,92312,1,0
256,192,92534,1,4
256,192,92756,1,0
256,192,92979,5,2
256,192,93201,5,0
256,192,93312,1,0
256,192,93423,1,0
256,192,93645,1,0
256,192,93756,1,0
256,192,93867,5,2
256,192,94090,1,2
256,192,94312,5,0
256,192,94534,1,0
256,192,94645,1,0
256,192,94756,5,2
256,192,94979,5,0
256,192,95090,5,2
256,192,95312,1,2
256,192,95423,5,0
256,192,95645,1,0
256,192,95756,5,2
256,192,95867,5,0
256,192,95979,1,0
256,192,96090,1,2
256,192,96312,5,2
256,192,96423,5,0
256,192,96534,1,0
256,192,96756,1,0
256,192,96979,1,0
256,192,97201,5,2
256,192,97312,5,0
256,192,97423,1,0
256,192,97645,5,2
256,192,97867,5,0
256,192,98090,5,2
256,192,98312,5,0
256,192,98423,1,0
256,192,98534,1,0
256,192,98645,1,0
256,192,98756,1,0
256,192,98979,1,0
256,192,99201,5,2
256,192,99423,1,2
256,192,99534,5,0
256,192,99645,1,0
256,192,99867,1,0
256,192,100090,5,2
256,192,100312,5,0
256,192,100534,5,2
256,192,100756,5,0
256,192,100979,5,2
256,192,101201,5,0
256,192,101423,1,0
256,192,101867,5,2
256,192,102090,5,0
256,192,102534,1,0
256,192,102756,5,2
256,192,102979,1,2
256,192,103201,5,4
256,192,103645,5,2
256,192,103867,5,0
256,192,104312,1,0
256,192,104534,5,2
256,192,104979,5,0
256,192,105201,1,0
256,192,105423,5,2
256,192,105645,5,0
256,192,106090,1,0
256,192,106201,1,0
256,192,106312,5,2
256,192,106534,5,0
256,192,106756,1,0
256,192,107201,5,2
256,192,107423,5,0
256,192,107645,1,0
256,192,107867,1,0
256,192,107979,1,0
256,192,108090,5,2
256,192,108312,5,0
256,192,108534,5,2
256,192,108756,5,0
256,192,108867,5,2
256,192,109090,1,2
256,192,109201,5,0
256,192,109423,5,2
256,192,109645,5,0
256,192,109867,5,2
256,192,109979,1,2
256,192,110090,1,2
256,192,110312,1,6
256,192,110756,1,2
256,192,110979,5,0
256,192,111201,1,0
256,192,111423,1,0
256,192,111645,5,2
256,192,111867,5,4
256,192,112312,1,0
256,192,112534,5,2
256,192,112756,5,4
256,192,113201,1,0
256,192,113423,5,2
256,192,113645,1,2
256,192,113867,5,4
256,192,114090,1,0
256,192,114312,5,2
256,192,114534,5,0
256,192,114756,1,0
256,192,114979,1,0
256,192,115201,5,2
256,192,115423,5,0
256,192,115867,1,0
256,192,116090,5,2
256,192,116312,5,0
256,192,116423,1,0
256,192,116534,5,2
256,192,116756,1,2
256,192,116979,1,2
256,192,117201,1,2
256,192,117423,5,4
256,192,117867,5,2
256,192,118090,5,0
256,192,118534,1,0
256,192,118756,5,2
256,192,119201,5,0
256,192,119423,1,0
256,192,119645,5,2
256,192,119867,5,0
256,192,119979,5,2
256,192,120201,1,2
256,192,120312,5,0
256,192,120534,5,2
256,192,120756,1,2
256,192,120979,5,0
256,192,121423,1,2
256,192,121645,5,0
256,192,122090,1,0
256,192,122201,1,0
256,192,122312,5,2
256,192,122756,5,0
256,192,122979,1,0
256,192,123201,5,2
256,192,123423,5,0
256,192,123534,1,0
256,192,123645,1,0
256,192,123867,1,0
256,192,124090,5,2
256,192,124312,1,2
256,192,124534,5,0
256,192,124756,1,0
256,192,124979,1,0
256,192,125201,5,2
256,192,125645,5,0
256,192,125756,5,2
256,192,125867,5,0
256,192,126090,5,2
256,192,126312,5,0
256,192,126534,1,0
256,192,126756,5,2
256,192,126979,5,0
256,192,127090,1,0
256,192,127201,5,2
256,192,127423,5,0
256,192,127645,5,2
256,192,127867,1,2
256,192,128090,5,0
256,192,128312,1,0
256,192,128534,1,0
256,192,128756,5,2
256,192,129201,5,0
256,192,129423,5,2
256,192,129645,5,0
256,192,129756,1,0
256,192,129867,1,0
256,192,130090,1,0
256,192,130312,5,2
256,192,130534,5,0
256,192,130756,5,2
256,192,130979,5,0
256,192,131201,5,2
256,192,131312,5,0
256,192,131423,5,2
256,192,131534,5,0
256,192,131645,5,2
256,192,131867,5,0
256,192,132090,1,0
256,192,132312,5,2
256,192,132534,12,0,135201
