osu file format v5

[General]
AudioFilename: Bleach Ending 18 (new & HD).mp3
AudioLeadIn: 0
PreviewTime: -1
Countdown: 1
SampleSet: Soft
StackLeniency: 0.7
Mode: 0
LetterboxInBreaks: 1
SkinPreference:Default
EditorBookmarks: 54553,55135,57025,65587,66128,68001,76277,76484,76657,77311,87941
EditorDistanceSpacing: 1.20000004768372

[Metadata]
Title:Sky Chord Otona ni naru kimi he
Artist:Tsuji Shion
Creator:lele94
Version:Ichigo-Hard
Source:Bleach
Tags:Ending of bleach

[Difficulty]
HPDrainRate:9
CircleSize:5
OverallDifficulty:8
SliderMultiplier:1.5
SliderTickRate:2

[Events]
//Background and Video events
1,0,"Bleach Ending 18- YAI Sky chord otona ni naru kimi he.avi"
0,0,"bleach36.jpg"
//Break Periods
//Storyboard Layer 0 (Background)
//Storyboard Layer 1 (Failing)
//Storyboard Layer 2 (Passing)
//Storyboard Layer 3 (Foreground)
//Storyboard Sound Samples
//Background Colour Transformations
3,100,163,162,255

[TimingPoints]
11122,689.655172413793,4,2,0,50,1,0
77345,714.285714285714,4,2,0,50,1,0

[Colours]
Combo1 : 128,128,0
Combo2 : 255,255,0
Combo3 : 255,128,64
Combo4 : 128,0,0

[HitObjects]
80,64,11466,2,2,B|168:64,1,75
256,64,12156,2,2,B|256:160,1,75
256,240,12846,2,2,B|344:240,1,75
432,240,13535,2,2,B|432:152,1,75
368,80,14225,1,2
264,80,14570,1,2
160,80,14915,1,2
160,80,15087,1,2
160,80,15259,1,4
424,320,16984,6,0,B|368:320|328:304|312:232,1,150,0|2
312,128,18018,2,0,B|312:72|192:48,1,150,0|2
104,104,19053,1,2
104,208,19397,1,2
104,312,19742,1,2
208,312,20087,1,2
208,312,20259,1,2
208,312,20432,1,4
424,64,22501,6,0,B|424:152,1,75,0|2
344,64,23190,2,0,B|264:64,1,75,0|2
344,64,23880,2,0,B|424:64,1,75,0|2
344,64,24570,2,0,B|344:152,1,75,0|2
240,144,25259,1,2
240,248,25604,1,2
288,248,25777,1,2
336,248,25949,1,2
240,248,26294,1,2
136,248,26639,5,2
136,144,26984,1,2
240,144,27328,1,0
240,144,27501,1,0
240,144,27673,1,4
344,144,28018,5,0
448,144,28363,1,0
448,40,28708,1,0
344,40,29053,1,2
344,40,29225,1,2
344,40,29397,1,2
240,40,29742,1,0
152,104,30087,1,0
240,152,30432,1,2
240,152,30604,1,2
240,152,30777,1,2
344,152,31122,2,0,B|392:152|416:192,1,75,0|4
72,312,33190,5,4
72,104,33880,1,4
280,104,34570,1,4
280,312,35259,1,2
280,312,35432,1,2
280,312,35604,1,4
176,312,35949,1,2
120,224,36294,1,2
176,136,36639,5,4
280,136,36984,1,0
280,136,37156,1,0
280,136,37328,1,0
336,224,37673,1,0
336,224,37846,1,0
336,224,38018,1,0
232,224,38363,5,4
128,224,38708,1,0
176,320,39053,1,2
176,320,39225,1,2
176,320,39397,1,2
280,320,39742,1,0
384,320,40087,1,4
384,112,40777,1,0
280,112,41122,1,0
176,112,41466,5,2
176,112,41639,1,2
176,112,41811,1,2
72,112,42156,1,0
128,200,42501,1,0
232,200,42846,1,2
280,200,43018,1,2
328,200,43190,1,2
328,304,43535,1,4
472,192,44225,5,8
40,192,44915,5,8
256,48,45604,5,8
256,336,46294,5,0
152,256,46639,1,2
152,256,46811,1,2
152,256,46984,1,2
256,256,47328,1,4
360,256,47673,5,0
360,152,48018,1,2
360,96,48190,1,2
360,40,48363,1,2
256,40,48708,2,0,B|208:40|176:64,1,75,0|4
184,264,49742,5,0
376,184,50432,1,0
192,80,51122,1,2
256,160,51466,1,2
328,80,51811,1,2
400,160,52156,5,4
272,328,52846,1,0
168,328,53190,1,0
64,328,53535,2,0,B|64:232|96:168|160:168|192:176,1,225,0|4
256,192,55259,12,4,56984
464,192,58018,5,0
256,48,58363,1,0
48,192,58708,1,0
256,336,59053,1,0
48,192,59397,1,0
256,48,59742,5,0
256,152,60087,1,0
256,200,60259,1,0
256,248,60432,1,0
152,248,60777,1,4
64,192,61122,5,0
256,56,61466,1,0
448,192,61811,1,0
256,320,62156,1,0
448,192,62501,1,0
256,320,62846,5,0
256,232,63190,1,0
304,232,63363,1,0
352,232,63535,1,4
296,160,63880,1,4
296,72,64225,1,0
384,72,64570,2,0,B|344:72|344:120|392:120|392:168|336:168|296:168|304:224|408:216,1,225
256,192,66294,12,4,68018
48,192,69053,5,0
256,336,69397,1,0
464,192,69742,1,0
256,48,70087,1,0
256,336,70432,5,0
256,232,70777,1,0
256,176,70949,1,0
256,120,71122,1,0
152,120,71466,1,0
152,120,71639,1,4
152,280,72156,5,0
256,280,72501,1,0
152,280,72846,1,0
256,280,73190,1,0
304,280,73363,1,0
352,280,73535,1,0
352,176,73880,1,4
248,176,74225,1,0
144,176,74570,1,2
144,128,74742,1,2
192,128,74915,1,2
296,128,75259,1,0
296,176,75604,6,2,B|384:176|384:176|384:264|384:264|312:264,1,225,2|6
256,192,77345,12,2,79130
256,48,80202,5,0
48,192,80559,1,0
256,336,80916,1,0
464,192,81273,1,0
256,192,81630,1,0
48,192,81987,1,0
464,192,82345,1,0
256,192,82702,1,0
256,192,82880,1,4
256,192,83416,12,4,87345
