osu file format v13

[General]
AudioFilename: Tsuji_Shion-M_elody_Tokyo_Magnitude_8_0_ED_.mp3
AudioLeadIn: 0
PreviewTime: 13653
Countdown: 0
SampleSet: Soft
StackLeniency: 0.4
Mode: 0
LetterboxInBreaks: 1
WidescreenStoryboard: 1

[Editor]
DistanceSpacing: 1.1
BeatDivisor: 4
GridSize: 4
TimelineZoom: 1.3

[Metadata]
Title:M/elody
TitleUnicode:M/elody
Artist:Tsuji Shion
ArtistUnicode:Tsuji Shion
Creator:[Kyo Kusanagi]
Version:Hard
Source:Tokyo Magnitude 8.0
Tags:ending anime shion tokyo
BeatmapID:596353
BeatmapSetID:248831

[Difficulty]
HPDrainRate:5
CircleSize:4
OverallDifficulty:6
ApproachRate:7
SliderMultiplier:1.20000000596046
SliderTickRate:1

[Events]
//Background and Video events
0,0,"fail-background.png",0,0
//Break Periods
2,83342,89165
//Storyboard Layer 0 (Background)
//Storyboard Layer 1 (Fail)
//Storyboard Layer 2 (Pass)
//Storyboard Layer 3 (Foreground)
//Storyboard Sound Samples

[TimingPoints]
395,329.67032967033,4,2,0,60,1,0
35999,-100,4,2,0,30,0,0
36658,-100,4,2,0,60,0,0
37318,-100,4,2,0,60,0,1
37496,-100,4,2,0,60,0,0
47867,-100,4,2,0,60,0,1
48088,-100,4,2,0,60,0,0
58416,-100,4,2,0,60,0,1
68810,-100,4,2,0,60,0,0
68966,-100,4,2,0,60,0,1
83139,-100,4,2,0,60,0,0
94680,-200,4,2,0,60,0,0
95340,-100,4,2,0,60,0,0
111164,-100,4,2,0,60,0,1
111327,-100,4,2,0,60,0,0
121713,-100,4,2,0,60,0,1
121984,-100,4,2,0,60,0,0
132263,-100,4,2,0,60,0,1
142703,-100,4,2,0,60,0,0
142812,-100,4,2,0,60,0,1
153362,-100,4,2,0,60,0,0
173142,-200,4,2,0,60,0,0
174460,-100,4,2,0,60,0,1
184824,-100,4,2,0,60,0,0
185010,-100,4,2,0,60,0,1
195559,-100,4,2,0,60,0,0

[Colours]
Combo1 : 119,145,32
Combo2 : 149,252,56
Combo3 : 1,190,11
Combo4 : 21,150,255
Combo5 : 14,250,215
Combo6 : 232,237,41

[HitObjects]
156,196,5010,5,0,0:0:0:0:
256,108,5340,1,0,0:0:0:0:
352,196,5669,1,0,0:0:0:0:
360,64,5999,6,0,B|416:56|468:108|456:144,1,120.000000596046,0|0,0:0|0:0,0:0:0:0:
476,252,6658,1,0,0:0:0:0:
348,284,6988,2,0,P|280:304|212:280,1,120.000000596046
280,172,7647,1,0,0:0:0:0:
128,48,7977,5,0,0:0:0:0:
128,48,8142,1,0,0:0:0:0:
128,48,8307,2,0,P|96:92|104:164,1,120.000000596046
148,276,8966,1,0,0:0:0:0:
256,196,9296,1,0,0:0:0:0:
312,316,9625,2,0,P|264:336|192:300,1,120.000000596046
160,188,10285,1,0,0:0:0:0:
340,228,10614,5,0,0:0:0:0:
340,228,10779,1,0,0:0:0:0:
340,228,10944,2,0,P|396:192|400:140,1,120.000000596046,0|0,0:0|0:0,0:0:0:0:
268,128,11603,1,0,0:0:0:0:
172,220,11933,2,0,L|116:264,2,60.000000298023,0|0|0,0:0|0:0|0:0,0:0:0:0:
104,108,12592,2,0,P|112:52|176:16,1,120.000000596046
232,128,13252,1,0,0:0:0:0:
256,192,13581,12,4,15559,0:0:0:0:
428,196,16219,6,0,P|416:132|368:88,1,120.000000596046,0|0,0:0|0:0,0:0:0:0:
292,192,16878,1,0,0:0:0:0:
176,260,17208,2,0,L|108:260,2,60.000000298023,0|0|0,0:0|0:0|0:0,0:0:0:0:
276,348,17867,1,0,0:0:0:0:
380,264,18197,1,8,0:0:0:0:
276,184,18526,6,0,L|200:164,2,60.000000298023,0|0|0,0:0|0:0|0:0,0:0:0:0:
400,136,19186,1,0,0:0:0:0:
356,12,19515,2,0,L|484:48,1,120.000000596046
492,176,20175,2,0,L|444:240,2,60.000000298023,0|0|0,0:0|0:0|0:0,0:0:0:0:
368,132,20834,1,0,0:0:0:0:
284,236,21164,1,0,0:0:0:0:
224,120,21493,6,0,P|164:104|112:124,1,120.000000596046,0|0,0:0|0:0,0:0:0:0:
172,240,22153,1,0,0:0:0:0:
64,316,22482,1,0,0:0:0:0:
64,316,22647,1,0,0:0:0:0:
64,316,22812,2,0,L|132:284|132:284,1,60.000000298023
176,256,23142,1,0,0:0:0:0:
288,328,23471,1,8,0:0:0:0:
364,220,23801,6,0,L|428:232,2,60.000000298023,0|0|0,0:0|0:0|0:0,0:0:0:0:
276,120,24460,1,0,0:0:0:0:
380,40,24790,1,0,0:0:0:0:
468,140,25120,1,0,0:0:0:0:
432,268,25449,2,0,P|376:336|328:328,1,120.000000596046
320,208,26109,1,0,0:0:0:0:
320,208,26438,2,0,L|240:192,1,60.000000298023,0|0,0:0|0:0,0:0:0:0:
196,180,26768,1,0,0:0:0:0:
376,244,27098,5,0,0:0:0:0:
260,308,27427,1,0,0:0:0:0:
144,244,27757,2,0,L|84:288,2,60.000000298023,0|0|0,0:0|0:0|0:0,0:0:0:0:
192,120,28416,2,0,L|284:212,1,120.000000596046,0|8,0:0|0:0,0:0:0:0:
400,152,29076,5,0,0:0:0:0:
400,152,29241,1,0,0:0:0:0:
400,152,29405,1,0,0:0:0:0:
296,68,29735,2,0,P|260:128|284:196,1,120.000000596046,0|0,0:0|0:0,0:0:0:0:
140,208,30395,1,0,0:0:0:0:
260,268,30724,2,0,L|400:268,1,120.000000596046
356,136,31384,1,0,0:0:0:0:
356,136,31713,1,0,0:0:0:0:
256,220,32043,6,0,P|176:220|140:180,1,120.000000596046
84,80,32702,1,0,0:0:0:0:
196,152,33032,2,0,L|224:88|224:88,1,60.000000298023,0|0,0:0|0:0,0:0:0:0:
244,36,33362,1,0,0:0:0:0:
332,132,33691,1,0,0:0:0:0:
332,132,34021,1,0,0:0:0:0:
400,20,34351,5,0,0:0:0:0:
416,152,34680,1,0,0:0:0:0:
296,92,35010,1,0,0:0:0:0:
260,220,35340,1,0,0:0:0:0:
148,148,35669,1,0,0:0:0:0:
44,64,35999,2,0,P|12:124|28:184,1,120.000000596046
88,284,36658,1,8,0:0:0:0:
88,284,36988,1,8,0:0:0:0:
216,312,37318,6,0,P|280:296|284:232,1,120.000000596046,0|0,0:0|0:0,0:0:0:0:
380,152,37977,1,0,0:0:0:0:
380,152,38142,1,0,0:0:0:0:
380,152,38307,1,0,0:0:0:0:
316,152,38471,2,0,L|244:152,1,60.000000298023
148,228,38966,1,0,0:0:0:0:
52,136,39296,2,0,P|92:92|156:104,1,120.000000596046
276,64,39955,5,8,0:0:0:0:
276,64,40285,1,8,0:0:0:0:
332,184,40614,1,0,0:0:0:0:
332,184,40779,1,0,0:0:0:0:
332,184,40944,1,0,0:0:0:0:
400,184,41109,2,0,L|472:184,1,60.000000298023,0|0,0:0|0:0,0:0:0:0:
468,52,41603,1,0,0:0:0:0:
340,84,41933,2,0,L|312:156,2,60.000000298023,0|0|0,0:0|0:0|0:0,0:0:0:0:
216,36,42592,6,0,B|236:96|236:96|136:116|136:116|160:188,1,240.000001192092,4|4,0:0|0:0,0:0:0:0:
56,268,43581,1,0,0:0:0:0:
56,268,43746,1,0,0:0:0:0:
56,268,43911,2,0,B|92:312|120:264|156:280|176:324,1,120.000000596046,4|8,0:0|0:0,0:0:0:0:
296,292,44570,1,12,0:0:0:0:
232,176,44900,1,8,0:0:0:0:
344,104,45230,2,0,B|320:48|320:48|236:40,1,120.000000596046,4|0,0:0|0:0,0:0:0:0:
232,172,45889,1,4,0:0:0:0:
364,192,46219,1,0,0:0:0:0:
364,192,46384,1,0,0:0:0:0:
364,192,46548,2,0,L|452:192,2,60.000000298023,4|0|0,0:0|0:0|0:0,0:0:0:0:
236,228,47208,6,0,L|288:276,1,60.000000298023,12|0,0:0|0:0,0:0:0:0:
332,308,47537,1,0,0:0:0:0:
384,268,47702,2,0,L|432:208,1,60.000000298023,0|0,0:0|0:0,0:0:0:0:
324,132,48197,1,4,0:0:0:0:
208,72,48526,6,0,L|156:124,1,60.000000298023,0|0,0:0|0:0,0:0:0:0:
120,160,48856,1,0,0:0:0:0:
120,160,49021,2,0,L|172:220,1,60.000000298023,0|0,0:0|0:0,0:0:0:0:
64,296,49515,1,4,0:0:0:0:
192,332,49845,2,0,L|276:332,2,60.000000298023,0|0|0,0:0|0:0|0:0,0:0:0:0:
252,216,50504,5,8,0:0:0:0:
252,216,50834,1,12,0:0:0:0:
376,264,51164,2,0,B|416:224|392:188|392:188,1,60.000000298023,0|0,0:0|0:0,0:0:0:0:
332,204,51493,2,0,P|320:168|340:132,1,60.000000298023,0|0,0:0|0:0,0:0:0:0:
392,148,51823,2,0,P|400:104|384:76,1,60.000000298023
348,44,52153,1,0,0:0:0:0:
248,128,52482,1,8,0:0:0:0:
144,44,52812,1,12,0:0:0:0:
216,220,53142,6,0,B|304:212|292:128|260:100|272:60|328:28|356:36,3,240.000001192092,8|8|8|8,0:0|0:0|0:0|0:0,0:0:0:0:
428,128,55449,1,0,0:0:0:0:
428,128,55614,1,0,0:0:0:0:
428,128,55779,2,0,L|372:196,2,60.000000298023,0|0|0,0:0|0:0|0:0,0:0:0:0:
304,80,56438,1,0,0:0:0:0:
220,180,56768,2,0,L|156:128,1,60.000000298023,0|0,0:0|0:0,0:0:0:0:
120,104,57098,1,12,0:0:0:0:
404,160,57757,5,4,0:0:0:0:
172,36,58416,1,0,0:0:0:0:
172,36,58746,1,0,0:0:0:0:
172,36,59076,1,0,0:0:0:0:
80,132,59405,2,0,L|152:164,1,60.000000298023
196,184,59735,1,0,0:0:0:0:
308,112,60065,1,0,0:0:0:0:
416,184,60395,6,0,L|388:256,1,60.000000298023
336,212,60724,2,0,L|304:284,1,60.000000298023
284,328,61054,1,0,0:0:0:0:
176,248,61384,1,0,0:0:0:0:
260,148,61713,1,0,0:0:0:0:
356,56,62043,2,0,L|420:44,2,60.000000298023,0|0|0,0:0|0:0|0:0,0:0:0:0:
264,148,62702,1,0,0:0:0:0:
236,20,63032,6,0,P|144:68|148:204,1,240.000001192092,0|8,0:0|0:0,0:0:0:0:
264,148,64021,1,8,0:0:0:0:
196,264,64351,2,0,L|260:272,2,60.000000298023,8|0|8,0:0|0:0|0:0,0:0:0:0:
224,204,64845,2,0,L|272:148,1,60.000000298023
384,208,65340,1,0,0:0:0:0:
428,84,65669,2,0,B|372:56|372:56|308:96,1,120.000000596046
208,152,66329,1,0,0:0:0:0:
316,232,66658,1,0,0:0:0:0:
184,216,66988,2,0,B|172:136|276:72|308:168|356:56,1,240.000001192092
476,108,67977,1,0,0:0:0:0:
428,232,68307,6,0,L|384:296,1,60.000000298023,0|8,0:0|0:0,0:0:0:0:
328,288,68636,1,0,0:0:0:0:
320,224,68801,2,0,L|356:168,1,60.000000298023,0|8,0:0|0:0,0:0:0:0:
324,112,69131,1,0,0:0:0:0:
260,128,69296,2,0,L|216:196,2,60.000000298023,0|0|0,0:0|0:0|0:0,0:0:0:0:
136,168,69955,1,0,0:0:0:0:
228,264,70285,1,0,0:0:0:0:
320,168,70614,1,0,0:0:0:0:
320,168,70779,1,0,0:0:0:0:
320,168,70944,1,12,0:0:0:0:
444,132,71274,5,0,0:0:0:0:
328,72,71603,1,0,0:0:0:0:
328,204,71933,2,0,B|284:256|284:256,1,60.000000298023,8|8,0:0|0:0,0:0:0:0:
240,296,72263,1,0,0:0:0:0:
212,236,72427,1,0,0:0:0:0:
216,172,72592,2,0,L|132:160,1,60.000000298023
204,116,72922,2,0,L|280:100,2,60.000000298023,0|0|0,0:0|0:0|0:0,0:0:0:0:
184,308,73581,5,0,0:0:0:0:
276,212,73911,1,0,0:0:0:0:
408,244,74241,2,0,L|456:288,2,60.000000298023,0|0|0,0:0|0:0|0:0,0:0:0:0:
400,112,74900,1,8,0:0:0:0:
268,96,75230,1,8,0:0:0:0:
160,172,75559,6,0,L|100:120,2,60.000000298023,0|0|0,0:0|0:0|0:0,0:0:0:0:
264,252,76219,2,0,L|404:252,1,120.000000596046,4|4,0:0|0:0,0:0:0:0:
436,132,76878,6,0,L|372:92,1,60.000000298023
328,68,77208,1,8,0:0:0:0:
260,68,77373,1,0,0:0:0:0:
204,104,77537,2,0,L|144:156,1,60.000000298023
112,188,77867,1,8,0:0:0:0:
256,192,78197,12,0,83142,0:0:0:0:
328,296,90065,6,0,P|428:276|436:260,1,120.000000596046
448,140,90724,1,0,0:0:0:0:
344,56,91054,1,0,0:0:0:0:
344,56,91219,1,0,0:0:0:0:
344,56,91384,2,0,P|288:104|280:160,1,120.000000596046,0|0,0:0|0:0,0:0:0:0:
280,280,92043,1,0,0:0:0:0:
392,212,92373,5,0,0:0:0:0:
392,212,92537,1,0,0:0:0:0:
392,212,92702,2,0,L|264:148,1,120.000000596046
168,220,93362,2,0,L|300:284,1,120.000000596046
372,180,94021,2,0,L|444:180,2,60.000000298023,0|0|0,0:0|0:0|0:0,0:0:0:0:
276,76,94680,6,0,L|204:76|204:76,1,60.000000298023,0|0,0:0|0:0,0:0:0:0:
108,152,95340,6,0,P|120:212|184:232,1,120.000000596046,0|0,0:0|0:0,0:0:0:0:
280,304,95999,1,0,0:0:0:0:
360,196,96329,2,0,L|432:228,2,60.000000298023,0|0|0,0:0|0:0|0:0,0:0:0:0:
284,88,96988,1,0,0:0:0:0:
156,64,97318,2,0,L|156:132|156:132,1,60.000000298023,0|0,0:0|0:0,0:0:0:0:
172,188,97647,1,0,0:0:0:0:
228,224,97812,2,0,L|300:256,1,60.000000298023,0|0,0:0|0:0,0:0:0:0:
360,140,98307,1,0,0:0:0:0:
468,212,98636,6,0,L|368:304,1,120.000000596046
284,200,99296,2,0,L|220:148,2,60.000000298023,0|0|0,0:0|0:0|0:0,0:0:0:0:
172,272,99955,2,0,P|108:296|68:248,1,120.000000596046,0|0,0:0|0:0,0:0:0:0:
144,156,100614,1,0,0:0:0:0:
268,108,100944,6,0,L|332:144,2,60.000000298023,0|0|0,0:0|0:0|0:0,0:0:0:0:
160,188,101603,2,0,L|232:228,1,60.000000298023,0|0,0:0|0:0,0:0:0:0:
272,244,101933,1,0,0:0:0:0:
328,208,102098,2,0,L|392:164,2,60.000000298023,0|0|0,0:0|0:0|0:0,0:0:0:0:
272,240,102592,1,0,0:0:0:0:
192,136,102922,6,0,L|132:88,1,60.000000298023,0|0,0:0|0:0,0:0:0:0:
96,56,103252,1,0,0:0:0:0:
72,184,103581,1,0,0:0:0:0:
196,140,103911,1,0,0:0:0:0:
228,268,104241,1,0,0:0:0:0:
344,204,104570,2,0,L|396:156,1,60.000000298023
436,116,104900,1,0,0:0:0:0:
316,64,105230,6,0,L|264:116,1,60.000000298023,0|0,0:0|0:0,0:0:0:0:
212,84,105559,2,0,L|164:128,1,60.000000298023
228,152,105889,2,0,L|172:204,1,60.000000298023,0|0,0:0|0:0,0:0:0:0:
136,236,106219,1,0,0:0:0:0:
108,104,106548,1,0,0:0:0:0:
220,36,106878,1,0,0:0:0:0:
220,36,107043,1,0,0:0:0:0:
220,36,107208,2,0,L|292:84|292:84,1,60.000000298023
320,108,107537,1,0,0:0:0:0:
304,240,107867,2,0,L|428:192,1,120.000000596046
420,328,108526,5,0,0:0:0:0:
396,200,108856,1,0,0:0:0:0:
264,224,109186,1,0,0:0:0:0:
260,92,109515,1,0,0:0:0:0:
144,32,109845,2,0,L|92:100,1,60.000000298023,0|0,0:0|0:0,0:0:0:0:
68,132,110175,1,8,0:0:0:0:
68,132,110340,1,0,0:0:0:0:
120,172,110504,2,0,L|184:208,1,60.000000298023,0|8,0:0|0:0,0:0:0:0:
240,208,110834,2,0,L|312:176,1,60.000000298023,8|0,0:0|0:0,0:0:0:0:
356,160,111164,5,8,0:0:0:0:
356,160,111493,1,8,0:0:0:0:
400,284,111823,2,0,L|332:320,1,60.000000298023,0|0,0:0|0:0,0:0:0:0:
328,248,112153,2,0,L|264:284,1,60.000000298023
216,308,112482,1,0,0:0:0:0:
96,252,112812,1,0,0:0:0:0:
136,128,113142,2,0,L|64:100,2,60.000000298023,0|0|0,0:0|0:0|0:0,0:0:0:0:
260,172,113801,5,8,0:0:0:0:
228,44,114131,1,8,0:0:0:0:
356,12,114460,2,0,L|412:48,1,60.000000298023
416,108,114790,2,0,L|356:152,1,60.000000298023
320,188,115120,1,0,0:0:0:0:
364,236,115285,2,0,L|420:280,1,60.000000298023,0|0,0:0|0:0,0:0:0:0:
440,144,115779,1,0,0:0:0:0:
320,88,116109,1,0,0:0:0:0:
204,152,116438,6,0,L|188:224,1,60.000000298023,8|0,0:0|0:0,0:0:0:0:
172,272,116768,2,0,L|108:260,1,60.000000298023,8|0,0:0|0:0,0:0:0:0:
48,248,117098,1,0,0:0:0:0:
24,120,117427,1,0,0:0:0:0:
80,84,117592,2,0,L|156:44,1,60.000000298023,0|8,0:0|0:0,0:0:0:0:
256,8,118087,1,8,0:0:0:0:
204,128,118416,1,0,0:0:0:0:
304,216,118746,1,0,0:0:0:0:
192,288,119076,1,8,0:0:0:0:
192,288,119405,1,10,0:0:0:0:
320,316,119735,1,8,0:0:0:0:
320,316,120065,1,10,0:0:0:0:
412,220,120395,6,0,L|464:188,2,60.000000298023,0|0|0,0:0|0:0|0:0,0:0:0:0:
348,208,120889,1,4,0:0:0:0:
292,172,121054,2,0,L|216:132,2,60.000000298023,8|0|8,0:0|0:0|0:0,0:0:0:0:
348,136,121548,2,0,L|404:100,1,60.000000298023,0|4,0:0|0:0,0:0:0:0:
504,28,122043,1,0,0:0:0:0:
376,56,122373,5,0,0:0:0:0:
376,56,122537,1,0,0:0:0:0:
376,56,122702,2,0,P|448:92|432:144,1,120.000000596046
324,172,123362,1,0,0:0:0:0:
212,104,123691,2,0,B|168:104|152:188|192:208,1,120.000000596046,0|0,0:0|0:0,0:0:0:0:
244,316,124351,5,4,0:0:0:0:
376,312,124680,1,4,0:0:0:0:
456,204,125010,2,0,P|472:160|460:144,1,60.000000298023,0|0,0:0|0:0,0:0:0:0:
416,112,125340,1,0,0:0:0:0:
352,128,125504,2,0,P|328:152|324:188,1,60.000000298023,0|0,0:0|0:0,0:0:0:0:
200,228,125999,1,0,0:0:0:0:
132,116,126329,2,0,L|60:116,2,60.000000298023,0|0|0,0:0|0:0|0:0,0:0:0:0:
256,68,126988,6,2,B|272:72|272:72|276:92|276:92|296:92|296:92|300:112|300:112|320:112|320:112|324:132|324:132|344:132|344:132,1,120.000000596046
416,228,127647,1,0,0:0:0:0:
416,232,127977,1,0,0:0:0:0:
288,208,128307,6,2,B|272:212|272:212|268:232|268:232|248:232|248:232|244:252|244:252|224:252|224:252|220:272|220:272|200:272|200:272,1,120.000000596046
120,184,128966,1,0,0:0:0:0:
120,184,129296,1,0,0:0:0:0:
204,80,129625,2,0,P|236:60|276:76,1,60.000000298023,0|0,0:0|0:0,0:0:0:0:
312,100,129955,2,0,P|320:152|304:164,1,60.000000298023
256,180,130285,2,0,P|244:216|260:252,1,60.000000298023
284,292,130614,1,8,0:0:0:0:
156,324,130944,1,4,0:0:0:0:
68,224,131274,1,8,0:0:0:0:
160,128,131603,1,4,0:0:0:0:
264,208,131933,5,0,0:0:0:0:
320,172,132098,1,0,0:0:0:0:
376,136,132263,2,0,L|440:88,2,60.000000298023,0|0|0,0:0|0:0|0:0,0:0:0:0:
400,264,132922,1,0,0:0:0:0:
312,168,133252,2,0,L|228:168,1,60.000000298023
184,168,133581,1,0,0:0:0:0:
256,56,133911,1,0,0:0:0:0:
124,64,134241,6,0,L|76:128,1,60.000000298023,0|0,0:0|0:0,0:0:0:0:
132,160,134570,2,0,L|184:212,1,60.000000298023,0|0,0:0|0:0,0:0:0:0:
236,180,134900,2,0,L|304:160,1,60.000000298023,0|0,0:0|0:0,0:0:0:0:
320,224,135230,2,0,L|352:276,2,60.000000298023,0|0|0,0:0|0:0|0:0,0:0:0:0:
396,116,135889,1,0,0:0:0:0:
292,32,136219,6,0,P|236:4|196:56,1,120.000000596046,0|0,0:0|0:0,0:0:0:0:
136,152,136878,1,0,0:0:0:0:
256,208,137208,1,0,0:0:0:0:
256,208,137373,1,0,0:0:0:0:
256,208,137537,2,0,B|292:232|292:232|336:188|336:188|376:176,1,120.000000596046
448,96,138197,1,0,0:0:0:0:
316,84,138526,5,0,0:0:0:0:
316,84,138691,1,0,0:0:0:0:
316,84,138856,2,0,L|244:64,2,60.000000298023,0|0|0,0:0|0:0|0:0,0:0:0:0:
240,192,139515,1,0,0:0:0:0:
136,108,139845,5,0,0:0:0:0:
172,52,140010,1,0,0:0:0:0:
236,32,140175,2,0,L|304:32,1,60.000000298023
360,52,140504,1,0,0:0:0:0:
392,180,140834,1,0,0:0:0:0:
284,256,141164,5,0,0:0:0:0:
216,256,141329,1,0,0:0:0:0:
196,192,141493,2,0,L|260:160,1,60.000000298023
224,104,141823,2,0,L|280:76,1,60.000000298023,0|0,0:0|0:0,0:0:0:0:
336,44,142153,2,0,P|308:16|268:12,1,60.000000298023,0|0,0:0|0:0,0:0:0:0:
224,12,142482,1,0,0:0:0:0:
84,144,142812,6,0,P|64:200|84:268,1,120.000000596046
200,208,143471,1,0,0:0:0:0:
320,264,143801,2,0,L|404:264,1,60.000000298023
396,200,144131,2,0,L|440:140,2,60.000000298023,0|0|0,0:0|0:0|0:0,0:0:0:0:
276,140,144790,1,0,0:0:0:0:
148,172,145120,5,0,0:0:0:0:
148,172,145285,1,0,0:0:0:0:
148,172,145449,2,0,L|256:268,1,120.000000596046,8|8,0:0|0:0,0:0:0:0:
284,204,145944,1,0,0:0:0:0:
328,252,146109,2,0,L|420:164,1,120.000000596046,8|8,0:0|0:0,0:0:0:0:
456,116,146603,1,0,0:0:0:0:
412,68,146768,2,0,B|376:48|376:48|300:80,1,120.000000596046,8|6,0:0|0:0,0:0:0:0:
176,36,147427,5,0,0:0:0:0:
84,128,147757,1,0,0:0:0:0:
212,152,148087,2,0,P|248:196|228:276,2,120.000000596046,0|0|0,0:0|0:0|0:0,0:0:0:0:
344,140,149076,1,0,0:0:0:0:
364,272,149405,6,0,P|316:304|236:288,2,120.000000596046,0|0|0,0:0|0:0|0:0,0:0:0:0:
240,232,150395,2,0,L|164:232|164:232,1,60.000000298023
204,172,150724,2,0,P|196:116|116:92,1,120.000000596046,0|0,0:0|0:0,0:0:0:0:
36,164,151384,1,0,0:0:0:0:
72,292,151713,1,0,0:0:0:0:
172,208,152043,1,0,0:0:0:0:
260,304,152373,6,0,L|324:252,1,60.000000298023,0|0,0:0|0:0,0:0:0:0:
300,200,152702,2,0,L|352:156,1,60.000000298023
352,96,153032,2,0,L|392:64,2,30.0000001490115,0|0|0,0:0|0:0|0:0,0:0:0:0:
284,96,153362,6,0,L|164:96,1,120.000000596046,0|0,0:0|0:0,0:0:0:0:
32,96,154021,1,8,0:0:0:0:
224,276,154680,2,0,L|364:276,1,120.000000596046
476,276,155340,1,8,0:0:0:0:
440,16,155999,6,0,P|380:-4|320:20,1,120.000000596046
388,132,156658,1,8,0:0:0:0:
132,72,157318,2,0,P|100:124|144:180,1,120.000000596046,0|0,0:0|0:0,0:0:0:0:
256,148,157977,2,0,P|288:200|244:256,1,120.000000596046,8|8,0:0|0:0,0:0:0:0:
148,316,158636,5,0,0:0:0:0:
148,316,158966,1,0,0:0:0:0:
32,252,159296,2,0,L|32:124,1,120.000000596046,0|0,0:0|0:0,0:0:0:0:
148,72,159955,1,8,0:0:0:0:
148,72,160285,1,8,0:0:0:0:
216,184,160614,6,0,L|364:184,1,120.000000596046,0|0,0:0|0:0,0:0:0:0:
428,88,161274,1,8,0:0:0:0:
356,196,161603,2,2,L|336:232,4,30.0000001490115,0|0|0|0|0,0:0|0:0|0:0|0:0|0:0,0:0:0:0:
244,264,162263,6,0,B|276:212|288:156|184:172|224:60|272:44,1,240.000001192092
396,56,163252,2,0,L|468:40,2,60.000000298023,0|0|0,0:0|0:0|0:0,0:0:0:0:
384,188,163911,5,8,0:0:0:0:
308,296,164241,1,8,0:0:0:0:
224,196,164570,1,8,0:0:0:0:
140,300,164900,1,8,0:0:0:0:
56,200,165230,2,0,L|28:136,1,60.000000298023
104,148,165559,2,0,L|152:92,1,60.000000298023
184,156,165889,2,0,L|248:196,1,60.000000298023
268,132,166219,2,0,L|324:76,1,60.000000298023,0|0,0:0|0:0,0:0:0:0:
360,44,166548,5,8,0:0:0:0:
464,124,166878,1,8,0:0:0:0:
332,148,167208,1,8,0:0:0:0:
256,256,167537,1,8,0:0:0:0:
204,296,167702,1,8,0:0:0:0:
140,284,167867,2,0,L|84:224,1,60.000000298023,0|0,0:0|0:0,0:0:0:0:
148,196,168197,2,0,L|216:152,1,60.000000298023
264,168,168526,2,0,L|312:208,2,60.000000298023,0|0|0,0:0|0:0|0:0,0:0:0:0:
392,200,169186,6,2,B|352:224|352:224|376:256|344:320|256:384|176:324|132:260|160:224|160:224|112:200,1,420.000002086161,0|0,0:0|0:0,0:0:0:0:
88,120,170504,2,2,B|108:112|108:112|132:120|132:120|156:112|156:112|180:120|180:120|204:112|204:112|228:120|228:120|252:112|252:112|272:120|272:120|292:112|292:112|312:120|312:120|332:112|332:112|352:120|352:120|372:112|372:112|392:120|392:120|412:112|412:112|432:124|432:124,1,360.000001788138
256,12,171823,5,0,0:0:0:0:
256,12,172153,1,0,0:0:0:0:
256,152,172482,2,0,L|256:228,1,60.000000298023
256,280,172812,1,4,0:0:0:0:
196,100,173142,6,0,P|312:100|312:108,1,180.000000894069,0|12,0:0|0:0,0:0:0:0:
420,180,174460,6,0,L|420:312,1,120.000000596046
300,244,175120,1,0,0:0:0:0:
172,272,175449,2,0,L|116:236,2,60.000000298023,0|0|0,0:0|0:0|0:0,0:0:0:0:
212,220,175944,1,0,0:0:0:0:
212,220,176109,2,0,L|260:180,2,60.000000298023,0|0|0,0:0|0:0|0:0,0:0:0:0:
96,156,176768,5,0,0:0:0:0:
96,156,176933,1,0,0:0:0:0:
96,156,177098,2,0,P|116:92|176:76,1,120.000000596046
228,60,177592,1,0,0:0:0:0:
296,172,177922,1,0,0:0:0:0:
396,88,178252,2,0,P|428:156|420:200,1,120.000000596046,0|0,0:0|0:0,0:0:0:0:
392,256,178746,1,0,0:0:0:0:
272,196,179076,6,0,L|208:216,2,60.000000298023,0|0|0,0:0|0:0|0:0,0:0:0:0:
256,260,179570,2,0,L|256:344,1,60.000000298023
124,300,180065,1,0,0:0:0:0:
184,184,180395,1,0,0:0:0:0:
72,104,180724,1,0,0:0:0:0:
72,104,180889,1,0,0:0:0:0:
72,104,181054,2,0,L|200:104,1,120.000000596046,0|0,0:0|0:0,0:0:0:0:
308,168,181713,1,0,0:0:0:0:
324,36,182043,5,0,0:0:0:0:
324,36,182208,1,0,0:0:0:0:
324,36,182373,2,0,P|384:64|412:128,1,120.000000596046,0|0,0:0|0:0,0:0:0:0:
328,212,183032,1,0,0:0:0:0:
436,292,183362,5,0,0:0:0:0:
432,228,183526,1,0,0:0:0:0:
408,168,183691,2,0,L|360:116|360:116,1,60.000000298023
320,80,184021,1,0,0:0:0:0:
320,80,184186,1,0,0:0:0:0:
256,100,184351,2,0,L|196:128,2,60.000000298023
216,224,185010,6,0,P|156:172|148:132,1,120.000000596046,0|0,0:0|0:0,0:0:0:0:
176,8,185669,1,0,0:0:0:0:
72,92,185999,2,0,L|72:152,1,60.000000298023,0|0,0:0|0:0,0:0:0:0:
140,156,186329,2,0,L|212:156,1,60.000000298023
268,160,186658,2,0,L|268:228,1,60.000000298023
268,288,186988,1,0,0:0:0:0:
444,136,187318,5,0,0:0:0:0:
444,136,187482,1,0,0:0:0:0:
444,136,187647,2,0,P|428:228|404:240,1,120.000000596046
384,176,188142,1,0,0:0:0:0:
380,108,188307,2,0,P|328:132|320:204,1,120.000000596046
364,232,188801,1,0,0:0:0:0:
364,232,188966,2,0,P|320:268|256:252,1,120.000000596046,0|0,0:0|0:0,0:0:0:0:
140,208,189625,6,0,L|76:152,2,60.000000298023,0|0|0,0:0|0:0|0:0,0:0:0:0:
220,104,190285,1,0,0:0:0:0:
220,104,190614,1,0,0:0:0:0:
324,184,190944,2,0,L|388:148,2,60.000000298023,0|0|0,0:0|0:0|0:0,0:0:0:0:
412,84,191603,1,0,0:0:0:0:
412,84,191933,1,0,0:0:0:0:
284,48,192263,6,0,L|204:80,1,60.000000298023,0|0,0:0|0:0,0:0:0:0:
240,136,192592,2,0,L|164:164,1,60.000000298023,0|0,0:0|0:0,0:0:0:0:
212,216,192922,2,0,L|256:276,1,60.000000298023
284,320,193252,1,0,0:0:0:0:
256,192,193581,12,0,195559,0:0:0:0:
152,76,195889,6,0,L|288:124,1,120.000000596046
152,184,196548,2,0,L|224:208,1,60.000000298023
336,244,197043,1,0,0:0:0:0:
392,124,197373,2,0,L|316:96,1,60.000000298023,0|0,0:0|0:0,0:0:0:0:
284,144,197702,2,0,L|217:157,1,60.000000298023
204,92,198032,2,0,L|128:64,1,60.000000298023
124,200,198526,5,0,0:0:0:0:
124,200,198856,1,0,0:0:0:0:
192,312,199186,2,0,L|264:328,1,60.000000298023,0|0,0:0|0:0,0:0:0:0:
372,272,199680,1,0,0:0:0:0:
428,152,200010,2,0,L|356:172,1,60.000000298023
332,220,200340,2,0,L|312:280,1,60.000000298023
256,312,200669,2,0,L|180:332,1,60.000000298023
124,148,201164,5,0,0:0:0:0:
124,148,201493,1,0,0:0:0:0:
236,80,201823,2,0,L|296:124,1,60.000000298023,0|0,0:0|0:0,0:0:0:0:
396,188,202318,1,0,0:0:0:0:
268,160,202647,2,0,L|220:200,1,60.000000298023,0|0,0:0|0:0,0:0:0:0:
268,248,202977,2,0,L|316:304,1,60.000000298023,0|0,0:0|0:0,0:0:0:0:
360,336,203307,2,0,L|408:300,1,60.000000298023,0|0,0:0|0:0,0:0:0:0:
508,216,203801,5,0,0:0:0:0:
412,124,204131,1,0,0:0:0:0:
300,192,204460,1,0,0:0:0:0:
212,96,204790,1,0,0:0:0:0:
104,172,205120,1,0,0:0:0:0:
168,272,205449,1,0,0:0:0:0:
168,272,205614,2,0,L|240:300,1,60.000000298023
284,264,205944,2,0,L|336:280,2,30.0000001490115,0|0|0,0:0|0:0|0:0,0:0:0:0:
352,148,206438,5,0,0:0:0:0:
352,148,206768,1,0,0:0:0:0:
252,60,207098,2,0,P|224:52|180:60,1,60.000000298023,0|0,0:0|0:0,0:0:0:0:
144,176,207592,1,0,0:0:0:0:
256,244,207922,2,0,L|304:208,1,60.000000298023
248,176,208252,2,0,L|204:132,1,60.000000298023,0|0,0:0|0:0,0:0:0:0:
268,116,208581,2,0,L|320:76,1,60.000000298023
188,48,209076,5,0,0:0:0:0:
188,48,209405,1,0,0:0:0:0:
72,112,209735,2,0,L|72:172,1,60.000000298023
204,192,210230,1,0,0:0:0:0:
76,224,210559,2,0,L|116:268,1,60.000000298023,0|0,0:0|0:0,0:0:0:0:
172,304,210889,2,0,L|232:280,1,60.000000298023,0|0,0:0|0:0,0:0:0:0:
292,272,211219,2,0,L|332:316,1,60.000000298023
468,288,211713,5,0,0:0:0:0:
468,288,212043,1,0,0:0:0:0:
464,156,212373,2,0,L|392:116,1,60.000000298023
296,64,212867,1,0,0:0:0:0:
168,32,213197,6,0,L|96:56,1,60.000000298023
152,104,213526,2,0,L|216:132,1,60.000000298023
168,180,213856,2,0,L|92:208,1,60.000000298023
168,236,214186,2,0,L|236:268,1,60.000000298023,0|0,0:0|0:0,0:0:0:0:
284,288,214515,1,0,0:0:0:0:
344,256,214680,2,0,L|400:228,2,60.000000298023,0|0|0,0:0|0:0|0:0,0:0:0:0:
