osu file format v12

[General]
AudioFilename: -.mp3
AudioLeadIn: 0
PreviewTime: 63409
Countdown: 0
SampleSet: Soft
StackLeniency: 0.7
Mode: 0
LetterboxInBreaks: 1
WidescreenStoryboard: 0

[Editor]
Bookmarks: 21922,93400,123283,165980
DistanceSpacing: 0.9
BeatDivisor: 4
GridSize: 4
TimelineZoom: 1

[Metadata]
Title:Kaze ni Naru
TitleUnicode:風になる
Artist:Tsuji Ayano
ArtistUnicode:つじあやの
Creator:S o a p
Version:Insane
Source:猫の恩返し
Tags:fycho spring_roll The_Cat_Returns neko_no_ongaeshi
BeatmapID:413446
BeatmapSetID:170836

[Difficulty]
HPDrainRate:7
CircleSize:4
OverallDifficulty:7
ApproachRate:8
SliderMultiplier:1.6
SliderTickRate:1

[Events]
//Background and Video events
0,0,"BG.jpg",0,0
//Break Periods
//Storyboard Layer 0 (Background)
//Storyboard Layer 1 (Fail)
//Storyboard Layer 2 (Pass)
//Storyboard Layer 3 (Foreground)
//Storyboard Sound Samples
//Background Colour Transformations
3,100,163,162,255

[TimingPoints]
7714,444.675016675313,4,2,1,60,1,0
43288,-100,4,2,1,40,0,0
43399,-100,4,2,1,60,0,0
50402,-133.333333333333,4,2,1,60,0,0
59740,-100,4,2,1,60,0,0
64632,-100,4,2,1,70,0,1
91312,-100,4,2,1,60,0,0
123329,-133.333333333333,4,2,1,60,0,0
132667,-100,4,2,1,60,0,0
137559,-100,4,2,1,70,0,1
164239,-100,4,2,1,60,0,0

[Colours]
Combo1 : 240,166,166
Combo2 : 192,192,192
Combo3 : 184,225,228
Combo4 : 227,179,125
SliderBorder : 255,255,255

[HitObjects]
144,72,21943,5,4,0:0:0:0:
144,72,22388,1,8,0:0:0:0:
128,176,22610,2,0,L|108:280,1,80,2|0,0:0|0:0,0:0:0:0:
200,320,23055,2,0,L|216:216,1,80,2|8,0:0|0:0,0:0:0:0:
232,128,23499,2,0,P|280:104|304:56,2,80,2|0|0,0:0|0:0|0:0,0:0:0:0:
208,24,24166,1,8,0:0:0:0:
392,120,24389,2,0,L|372:228,1,80,2|0,0:0|0:0,0:0:0:0:
360,312,24833,1,0,0:0:0:0:
280,240,25056,2,0,P|224:208|104:240,1,160,8|2,0:0|0:0,0:0:0:0:
280,240,25945,6,0,L|316:132,1,80,8|2,0:0|0:0,0:0:0:0:
256,64,26390,1,0,0:0:0:0:
149,97,26612,2,0,P|144:55|168:0,1,80,2|8,0:0|0:0,0:0:0:0:
256,64,27057,1,0,0:0:0:0:
217,176,27279,6,0,P|161:216|77:156,1,160,2|8,0:0|0:0,0:0:0:0:
48,64,27946,1,2,0:0:0:0:
86,180,28169,2,0,L|58:288,1,80,0|0,0:0|0:0,0:0:0:0:
120,368,28613,2,0,L|164:208,1,160,8|2,0:0|0:0,0:0:0:0:
162,214,29503,5,8,0:0:0:0:
176,100,29725,2,0,P|248:140|256:168,1,80,2|0,0:0|0:0,0:0:0:0:
284,240,30170,1,2,0:0:0:0:
324,340,30392,1,8,0:0:0:0:
404,268,30614,1,0,0:0:0:0:
388,156,30837,2,0,L|368:56,1,80,2|0,0:0|0:0,0:0:0:0:
280,16,31281,2,0,L|296:132,1,80,8|0,0:0|0:0,0:0:0:0:
132,148,31726,2,0,L|224:84,1,80,0|0,0:0|0:0,0:0:0:0:
192,216,32171,2,0,L|204:312,1,80,8|0,0:0|0:0,0:0:0:0:
132,364,32615,6,0,P|268:300|308:304,1,160,2|8,0:0|0:0,0:0:0:0:
388,332,33282,1,0,0:0:0:0:
486,295,33505,2,0,P|436:232|356:228,1,160,0|8,0:0|0:0,0:0:0:0:
388,332,34172,1,0,0:0:0:0:
364,224,34394,5,0,0:0:0:0:
256,192,34616,1,2,0:0:0:0:
152,49,34839,1,8,0:0:0:0:
252,84,35061,1,2,0:0:0:0:
168,152,35283,2,0,P|164:212|192:256,1,80,0|0,0:0|0:0,0:0:0:0:
264,284,35728,2,0,L|188:368,1,80,8|0,0:0|0:0,0:0:0:0:
80,248,36173,6,0,L|36:76,1,160,2|8,0:0|0:0,0:0:0:0:
136,92,36840,2,0,P|135:134|156:176,1,80,2|0,0:0|0:0,0:0:0:0:
240,99,37284,2,0,P|244:56|224:16,1,80,0|8,0:0|0:0,0:0:0:0:
150,169,37729,6,0,L|222:249,2,80,2|0|2,0:0|0:0|0:0,0:0:0:0:
332,196,38396,1,8,0:0:0:0:
248,316,38618,2,0,L|148:344,1,80,0|0,0:0|0:0,0:0:0:0:
92,264,39063,1,2,0:0:0:0:
0,208,39285,1,8,0:0:0:0:
92,152,39508,1,0,0:0:0:0:
256,64,39730,6,0,P|312:48|356:20,1,80,2|0,0:0|0:0,0:0:0:0:
480,16,40175,1,8,0:0:0:0:
400,108,40397,2,0,P|392:160|408:216,1,80,2|0,0:0|0:0,0:0:0:0:
424,288,40842,1,0,0:0:0:0:
264,256,41064,1,8,0:0:0:0:
328,336,41286,1,0,0:0:0:0:
272,144,41509,6,0,P|220:228|148:232,1,160,2|8,0:0|0:0,0:0:0:0:
168,132,42176,1,2,0:0:0:0:
232,48,42398,1,0,0:0:0:0:
272,144,42620,1,2,0:0:0:0:
168,132,42843,1,8,0:0:0:0:
232,48,43065,1,2,0:0:0:0:
208,228,43288,6,0,P|164:312|72:328,1,160,4|8,0:0|0:0,0:0:0:0:
104,224,43955,1,2,0:0:0:0:
208,228,44177,2,0,L|296:240,1,80,0|2,0:0|0:0,0:0:0:0:
352,152,44622,1,8,0:0:0:0:
392,252,44844,1,0,0:0:0:0:
364,40,45066,6,0,L|256:80,1,80,2|0,0:0|0:0,0:0:0:0:
188,24,45511,1,8,0:0:0:0:
188,24,45733,1,0,0:0:0:0:
42,88,45956,2,0,L|124:112,1,80,0|2,0:0|0:0,0:0:0:0:
88,268,46400,2,0,L|72:176,1,80,8|0,0:0|0:0,0:0:0:0:
244,252,46845,6,0,P|212:296|104:344,1,160,2|8,0:0|0:0,0:0:0:0:
220,148,47512,2,0,L|316:188,1,80,2|0,0:0|0:0,0:0:0:0:
368,264,47957,1,2,0:0:0:0:
440,184,48179,2,0,L|412:96,1,80,8|0,0:0|0:0,0:0:0:0:
300,16,48624,6,0,L|336:128,1,80,2|0,0:0|0:0,0:0:0:0:
368,264,49068,1,8,0:0:0:0:
368,264,49291,1,2,0:0:0:0:
276,208,49513,2,0,L|168:164,1,80,0|2,0:0|0:0,0:0:0:0:
156,28,49958,1,8,0:0:0:0:
156,28,50069,1,0,0:0:0:0:
156,28,50180,1,0,0:0:0:0:
100,120,50402,6,0,P|64:180|48:248,1,120.000004577637,4|8,0:0|0:0,0:0:0:0:
0,332,51069,1,2,0:0:0:0:
116,336,51292,2,0,P|152:276|168:200,1,120.000004577637,0|8,0:0|0:0,0:0:0:0:
176,116,51959,1,0,0:0:0:0:
268,174,52181,6,0,P|340:158|404:178,1,120.000004577637,2|8,0:0|0:0,0:0:0:0:
408,340,52848,1,2,0:0:0:0:
464,256,53070,1,0,0:0:0:0:
296,324,53293,1,2,0:0:0:0:
384,168,53515,1,8,0:0:0:0:
292,220,53737,1,2,0:0:0:0:
472,216,53960,6,0,P|484:146|448:88,1,120.000004577637,0|8,0:0|0:0,0:0:0:0:
388,28,54627,2,0,P|352:88|304:140,1,120.000004577637,2|0,0:0|0:0,0:0:0:0:
212,92,55294,2,0,P|152:112|128:184,1,120.000004577637,8|0,0:0|0:0,0:0:0:0:
228,192,55961,5,2,0:0:0:0:
212,92,56183,1,8,0:0:0:0:
116,56,56405,1,2,0:0:0:0:
128,160,56628,2,0,L|136:240,1,60.0000022888184,0|2,0:0|0:0,0:0:0:0:
96,332,57072,2,0,L|36:272,1,60.0000022888184,8|0,0:0|0:0,0:0:0:0:
198,293,57517,6,0,L|208:360,1,60.0000022888184,2|0,0:0|0:0,0:0:0:0:
312,372,57962,1,8,0:0:0:0:
388,300,58184,2,0,L|424:228,1,60.0000022888184,2|0,0:0|0:0,0:0:0:0:
412,92,58629,2,0,L|376:168,1,60.0000022888184,0|8,0:0|0:0,0:0:0:0:
288,192,59073,2,0,P|236:152|160:120,1,120.000004577637,2|2,0:0|0:0,0:0:0:0:
76,104,59740,1,8,0:0:0:0:
148,28,59963,5,2,0:0:0:0:
104,212,60185,1,0,0:0:0:0:
0,60,60407,1,2,0:0:0:0:
180,140,60630,2,0,L|268:152,1,80,8|2,0:0|0:0,0:0:0:0:
456,216,61075,5,4,0:0:0:0:
456,216,61186,1,0,0:0:0:0:
456,216,61297,1,0,0:0:0:0:
368,164,61519,1,8,0:0:0:0:
360,40,61742,1,4,0:0:0:0:
360,40,61853,1,0,0:0:0:0:
360,40,61964,1,0,0:0:0:0:
484,100,62186,1,0,0:0:0:0:
340,240,62409,1,8,0:0:0:0:
272,132,62631,1,2,0:0:0:0:
272,132,62742,1,0,0:0:0:0:
272,132,62853,2,0,P|208:104|176:76,1,80,4|0,0:0|0:0,0:0:0:0:
124,24,63298,5,8,0:0:0:0:
192,192,63520,2,0,P|244:256|220:360,1,160,2|0,0:0|0:0,0:0:0:0:
140,288,64187,1,8,0:0:0:0:
72,196,64410,1,0,0:0:0:0:
272,132,64632,6,0,P|316:112|344:64,1,80,4|0,0:0|0:0,0:0:0:0:
416,8,65077,1,8,0:0:0:0:
440,176,65299,1,2,0:0:0:0:
220,40,65521,2,0,P|172:28|128:44,1,80,0|2,0:0|0:0,0:0:0:0:
176,192,65966,1,8,0:0:0:0:
280,260,66188,1,0,0:0:0:0:
328,84,66411,6,0,P|352:24|384:0,2,80,2|0|8,0:0|0:0|0:0,0:0:0:0:
352,188,67078,1,2,0:0:0:0:
420,264,67300,1,0,0:0:0:0:
416,116,67522,1,2,0:0:0:0:
344,320,67745,2,0,P|296:344|244:332,1,80,8|2,0:0|0:0,0:0:0:0:
80,272,68189,6,0,P|132:220|240:216,1,160,4|8,0:0|0:0,0:0:0:0:
80,272,68856,2,0,P|24:252|8:204,1,80,2|0,0:0|0:0,0:0:0:0:
68,140,69301,2,0,P|124:160|140:208,1,80,2|8,0:0|0:0,0:0:0:0:
68,140,69746,6,0,P|84:76|180:40,1,160,2|0,0:0|0:0,0:0:0:0:
268,104,70413,1,8,0:0:0:0:
304,190,70635,1,2,0:0:0:0:
216,226,70857,1,0,0:0:0:0:
180,138,71080,1,0,0:0:0:0:
268,104,71302,2,0,P|332:84|368:96,1,80,8|0,0:0|0:0,0:0:0:0:
444,229,71747,6,0,P|392:241|296:173,1,160,2|8,0:0|0:0,0:0:0:0:
401,139,72414,1,0,0:0:0:0:
336,324,72636,2,0,L|244:348,1,80,0|2,0:0|0:0,0:0:0:0:
184,284,73081,2,0,L|144:368,1,80,8|0,0:0|0:0,0:0:0:0:
91,202,73525,6,0,P|164:175|248:216,1,160,2|8,0:0|0:0,0:0:0:0:
46,137,74192,2,0,L|0:68,1,80,2|0,0:0|0:0,0:0:0:0:
106,44,74637,2,0,L|192:40,1,80,2|8,0:0|0:0,0:0:0:0:
290,82,75082,1,0,0:0:0:0:
257,253,75304,5,4,0:0:0:0:
257,253,75749,2,0,L|200:336,1,80,8|2,0:0|0:0,0:0:0:0:
102,323,76193,2,0,L|144:256,1,80,0|2,0:0|0:0,0:0:0:0:
205,160,76638,1,8,0:0:0:0:
312,165,76860,1,0,0:0:0:0:
145,256,77083,6,0,P|103:222|67:108,1,160,2|8,0:0|0:0,0:0:0:0:
136,28,77750,1,2,0:0:0:0:
304,80,77972,1,0,0:0:0:0:
176,196,78194,1,2,0:0:0:0:
292,272,78417,1,8,0:0:0:0:
204,104,78639,1,2,0:0:0:0:
429,69,78862,6,0,L|504:120,1,80,4|0,0:0|0:0,0:0:0:0:
460,218,79306,1,8,0:0:0:0:
284,172,79529,1,2,0:0:0:0:
380,284,79751,1,0,0:0:0:0:
428,68,79973,1,2,0:0:0:0:
284,172,80196,1,8,0:0:0:0:
312,60,80418,1,0,0:0:0:0:
284,172,80640,6,0,P|232:148|176:144,1,80,2|0,0:0|0:0,0:0:0:0:
124,216,81085,2,0,P|176:240|236:240,1,80,8|2,0:0|0:0,0:0:0:0:
256,80,81530,1,0,0:0:0:0:
284,172,81752,1,2,0:0:0:0:
184,80,81974,1,8,0:0:0:0:
356,160,82197,1,2,0:0:0:0:
124,120,82419,6,0,P|76:156|56:192,1,80,4|0,0:0|0:0,0:0:0:0:
56,284,82864,1,8,0:0:0:0:
144,344,83086,2,0,P|164:280|152:236,1,80,2|0,0:0|0:0,0:0:0:0:
20,96,83531,2,0,L|60:188,1,80,2|8,0:0|0:0,0:0:0:0:
56,284,83975,1,0,0:0:0:0:
148,236,84198,6,0,P|184:256|248:240,1,80,2|0,0:0|0:0,0:0:0:0:
224,72,84642,2,0,L|208:164,1,80,8|2,0:0|0:0,0:0:0:0:
312,124,85087,2,0,L|324:44,1,80,0|0,0:0|0:0,0:0:0:0:
436,28,85532,1,8,0:0:0:0:
324,44,85754,1,2,0:0:0:0:
352,200,85976,5,2,0:0:0:0:
352,200,86421,1,8,0:0:0:0:
248,232,86643,2,0,L|180:168,1,80,2|0,0:0|0:0,0:0:0:0:
68,168,87088,2,0,L|140:240,1,80,2|8,0:0|0:0,0:0:0:0:
184,320,87533,1,0,0:0:0:0:
248,232,87755,5,2,0:0:0:0:
248,232,88200,2,0,L|240:140,2,80,8|0|0,0:0|0:0|0:0,0:0:0:0:
300,320,88867,1,2,0:0:0:0:
116,260,89089,1,8,0:0:0:0:
56,172,89311,1,2,0:0:0:0:
132,92,89534,6,0,P|188:56|280:88,1,160,2|8,0:0|0:0,0:0:0:0:
368,152,90201,1,2,0:0:0:0:
304,232,90423,2,0,P|392:252|468:192,1,160,0|8,0:0|0:0,0:0:0:0:
376,352,91090,1,2,0:0:0:0:
272,328,91312,2,0,L|180:160,1,160,4|8,0:0|0:0,0:0:0:0:
256,192,91868,12,0,93536,0:0:0:0:
184,148,94870,5,4,0:0:0:0:
184,148,95314,2,0,L|88:108,1,80,8|2,0:0|0:0,0:0:0:0:
48,24,95759,1,0,0:0:0:0:
96,200,95981,2,0,L|136:272,1,80,2|8,0:0|0:0,0:0:0:0:
288,304,96426,1,2,0:0:0:0:
320,200,96649,6,0,L|224:216,1,80,0|0,0:0|0:0,0:0:0:0:
176,304,97093,1,8,0:0:0:0:
164,116,97316,1,2,0:0:0:0:
96,200,97538,2,0,L|32:140,1,80,0|2,0:0|0:0,0:0:0:0:
44,36,97983,1,8,0:0:0:0:
152,20,98205,1,0,0:0:0:0:
228,96,98427,6,0,P|272:128|376:80,1,160,2|8,0:0|0:0,0:0:0:0:
300,20,99094,1,2,0:0:0:0:
444,28,99317,1,0,0:0:0:0:
440,136,99539,2,0,L|440:232,1,80,0|8,0:0|0:0,0:0:0:0:
352,312,99984,2,0,L|356:228,1,80,2|0,0:0|0:0,0:0:0:0:
248,232,100428,5,2,0:0:0:0:
308,144,100651,1,8,0:0:0:0:
100,188,100873,1,2,0:0:0:0:
188,137,101095,2,0,P|132:83|56:96,1,160,0|8,0:0|0:0,0:0:0:0:
148,272,101762,1,0,0:0:0:0:
336,232,101985,6,0,L|404:156,1,80,2|0,0:0|0:0,0:0:0:0:
388,72,102429,1,8,0:0:0:0:
300,24,102652,2,0,L|288:116,1,80,2|0,0:0|0:0,0:0:0:0:
204,160,103096,1,0,0:0:0:0:
236,260,103319,2,0,L|260:348,1,80,8|2,0:0|0:0,0:0:0:0:
112,216,103763,6,0,L|84:132,1,80,0|2,0:0|0:0,0:0:0:0:
52,44,104208,1,8,0:0:0:0:
152,56,104430,1,2,0:0:0:0:
20,192,104653,2,0,L|48:280,2,80,0|2|8,0:0|0:0|0:0,0:0:0:0:
180,248,105320,1,0,0:0:0:0:
296,296,105542,6,0,L|276:136,1,160,0|8,0:0|0:0,0:0:0:0:
396,68,106209,2,0,L|360:160,1,80,2|0,0:0|0:0,0:0:0:0:
260,36,106654,1,0,0:0:0:0:
367,143,106876,2,0,L|387:239,1,80,8|0,0:0|0:0,0:0:0:0:
348,312,107321,6,0,P|308:348|204:312,1,160,2|8,0:0|0:0,0:0:0:0:
160,240,107988,1,2,0:0:0:0:
32,200,108210,1,0,0:0:0:0:
128,120,108432,1,2,0:0:0:0:
160,240,108655,1,8,0:0:0:0:
32,200,108877,1,0,0:0:0:0:
224,144,109099,6,0,P|268:104|288:0,1,160,2|8,0:0|0:0,0:0:0:0:
120,24,109766,2,0,L|204:48,1,80,2|0,0:0|0:0,0:0:0:0:
56,92,110211,2,0,L|8:16,2,80,2|8|2,0:0|0:0|0:0,0:0:0:0:
224,144,110878,6,0,P|272:168|324:172,1,80,0|0,0:0|0:0,0:0:0:0:
296,72,111323,1,8,0:0:0:0:
388,112,111545,1,2,0:0:0:0:
392,212,111767,2,0,P|388:268|400:312,1,80,0|2,0:0|0:0,0:0:0:0:
484,340,112212,2,0,P|488:284|476:240,1,80,8|0,0:0|0:0,0:0:0:0:
292,232,112657,6,0,L|196:360,1,160,2|8,0:0|0:0,0:0:0:0:
176,260,113324,2,0,L|176:176,1,80,2|0,0:0|0:0,0:0:0:0:
100,112,113768,2,0,L|100:216,2,80,2|8|2,0:0|0:0|0:0,0:0:0:0:
240,68,114436,2,0,P|332:88|356:168,1,160,0|10,0:0|0:0,0:0:0:0:
176,176,115103,1,0,0:0:0:0:
272,144,115325,2,0,L|312:244,1,80,0|2,0:0|0:0,0:0:0:0:
144,92,115770,1,8,0:0:0:0:
112,232,115992,1,0,0:0:0:0:
344,200,116214,6,0,P|420:128|444:64,1,160,2|8,0:0|0:0,0:0:0:0:
260,32,116881,1,2,0:0:0:0:
340,92,117104,2,0,L|460:200,1,160,0|8,0:0|0:0,0:0:0:0:
448,300,117771,1,0,0:0:0:0:
356,313,117993,6,0,P|358:273|380:240,1,80,2|0,0:0|0:0,0:0:0:0:
312,168,118438,1,8,0:0:0:0:
260,300,118660,2,0,L|192:360,1,80,2|0,0:0|0:0,0:0:0:0:
120,292,119105,2,0,L|192:228,1,80,2|8,0:0|0:0,0:0:0:0:
192,140,119549,1,0,0:0:0:0:
104,36,119772,6,0,P|32:80|24:164,1,160,2|8,0:0|0:0,0:0:0:0:
128,208,120439,2,0,L|108:128,1,80,2|0,0:0|0:0,0:0:0:0:
196,56,120883,2,0,P|252:80|272:112,1,80,2|8,0:0|0:0,0:0:0:0:
284,192,121328,1,0,0:0:0:0:
188,280,121550,5,0,0:0:0:0:
28,328,121773,1,0,0:0:0:0:
28,328,121884,1,0,0:0:0:0:
28,328,121995,1,8,0:0:0:0:
128,208,122217,1,0,0:0:0:0:
128,208,122328,1,0,0:0:0:0:
128,208,122440,1,0,0:0:0:0:
64,128,122662,2,0,L|88:96,1,40,0|0,0:0|0:0,0:0:0:0:
136,92,122884,2,0,L|224:68,1,80,8|0,0:0|0:0,0:0:0:0:
328,32,123329,6,0,L|280:168,1,120.000004577637,2|8,0:0|0:0,0:0:0:0:
328,256,123996,2,0,L|384:120,1,120.000004577637,2|0,0:0|0:0,0:0:0:0:
232,216,124663,1,8,0:0:0:0:
312,348,125108,6,0,L|392:320,1,60.0000022888184,2|0,0:0|0:0,0:0:0:0:
464,232,125552,2,0,L|504:160,1,60.0000022888184,8|0,0:0|0:0,0:0:0:0:
376,92,125997,2,0,L|400:168,1,60.0000022888184,0|0,0:0|0:0,0:0:0:0:
280,116,126442,2,0,L|248:176,1,60.0000022888184,8|0,0:0|0:0,0:0:0:0:
184,80,126886,6,0,P|152:44|64:44,1,120.000004577637,0|8,0:0|0:0,0:0:0:0:
32,132,127553,2,0,P|64:168|152:168,1,120.000004577637,0|0,0:0|0:0,0:0:0:0:
280,116,128220,1,8,0:0:0:0:
280,116,128665,6,0,L|312:184,1,60.0000022888184,0|0,0:0|0:0,0:0:0:0:
264,252,129110,2,0,L|232:192,1,60.0000022888184,8|0,0:0|0:0,0:0:0:0:
184,112,129554,1,0,0:0:0:0:
128,188,129777,1,0,0:0:0:0:
180,268,129999,1,8,0:0:0:0:
276,160,130221,1,0,0:0:0:0:
88,92,130444,6,0,P|44:128|32:208,1,120.000004577637,0|8,0:0|0:0,0:0:0:0:
80,272,131111,2,0,L|96:344,1,60.0000022888184,0|0,0:0|0:0,0:0:0:0:
184,360,131555,2,0,L|224:384,2,30.0000011444092,2|0|8,0:0|0:0|0:0,0:0:0:0:
196,232,132000,2,0,L|164:156,1,60.0000022888184,0|2,0:0|0:0,0:0:0:0:
300,284,132445,1,0,0:0:0:0:
300,284,132556,1,0,0:0:0:0:
300,284,132667,6,0,L|352:212,1,80,8|2,0:0|0:0,0:0:0:0:
292,128,133112,1,0,0:0:0:0:
404,292,133334,1,2,0:0:0:0:
392,136,133557,1,8,0:0:0:0:
200,192,133779,1,2,0:0:0:0:
200,192,133890,1,0,0:0:0:0:
200,192,134001,2,0,P|160:144|152:96,1,80,4|0,0:0|0:0,0:0:0:0:
76,20,134446,5,8,0:0:0:0:
76,20,134557,1,0,0:0:0:0:
76,20,134668,2,0,L|56:124,1,80,4|0,0:0|0:0,0:0:0:0:
104,228,135113,2,0,L|144:264,1,40,2|0,0:0|0:0,0:0:0:0:
136,304,135335,2,0,L|240:308,1,80,8|0,0:0|0:0,0:0:0:0:
356,252,135780,6,0,L|424:104,1,160,4|8,0:0|0:0,0:0:0:0:
296,20,136447,1,2,0:0:0:0:
248,108,136669,2,0,L|308:176,1,80,0|2,0:0|0:0,0:0:0:0:
196,256,137114,1,8,0:0:0:0:
196,256,137225,1,0,0:0:0:0:
196,256,137336,1,0,0:0:0:0:
124,92,137559,6,0,P|72:108|44:220,1,160,4|8,0:0|0:0,0:0:0:0:
248,108,138226,1,2,0:0:0:0:
356,212,138448,1,0,0:0:0:0:
196,256,138670,2,0,L|124:172,1,80,2|8,0:0|0:0,0:0:0:0:
124,92,139115,1,2,0:0:0:0:
320,84,139337,6,0,P|312:152|232:184,1,160,0|8,0:0|0:0,0:0:0:0:
88,248,140004,1,2,0:0:0:0:
220,336,140227,1,0,0:0:0:0:
236,184,140449,1,2,0:0:0:0:
128,328,140671,1,8,0:0:0:0:
272,264,140894,1,2,0:0:0:0:
144,176,141116,6,0,P|184:108|212:96,1,80,4|0,0:0|0:0,0:0:0:0:
336,192,141561,1,8,0:0:0:0:
220,336,141783,2,0,L|176:252,1,80,2|0,0:0|0:0,0:0:0:0:
84,240,142228,1,2,0:0:0:0:
108,88,142450,2,0,P|160:80|208:112,1,80,8|0,0:0|0:0,0:0:0:0:
212,212,142895,6,0,L|300:64,1,160,2|8,0:0|0:0,0:0:0:0:
424,160,143562,2,0,L|336:180,1,80,2|0,0:0|0:0,0:0:0:0:
300,268,144006,1,2,0:0:0:0:
388,316,144229,1,8,0:0:0:0:
460,248,144451,1,0,0:0:0:0:
320,164,144673,6,0,P|276:128|168:124,1,160,2|8,0:0|0:0,0:0:0:0:
84,168,145340,1,2,0:0:0:0:
200,304,145563,2,0,L|232:216,1,80,0|2,0:0|0:0,0:0:0:0:
128,252,146007,2,0,L|92:340,1,80,8|0,0:0|0:0,0:0:0:0:
280,328,146452,6,0,P|328:352|444:312,1,160,2|8,0:0|0:0,0:0:0:0:
480,240,147119,1,2,0:0:0:0:
376,156,147341,2,0,L|368:252,1,80,0|2,0:0|0:0,0:0:0:0:
292,164,147786,2,0,L|300:72,1,80,8|0,0:0|0:0,0:0:0:0:
176,32,148231,5,4,0:0:0:0:
68,312,148675,1,8,0:0:0:0:
132,232,148898,2,0,P|120:160|36:112,1,160,2|0,0:0|0:0,0:0:0:0:
16,224,149565,1,8,0:0:0:0:
172,304,149787,2,0,L|240:240,1,80,2|0,0:0|0:0,0:0:0:0:
376,124,150454,5,8,0:0:0:0:
444,200,150677,1,2,0:0:0:0:
380,280,150899,1,0,0:0:0:0:
276,156,151121,1,2,0:0:0:0:
280,260,151344,1,8,0:0:0:0:
280,260,151455,1,0,0:0:0:0:
280,260,151566,1,2,0:0:0:0:
180,128,151788,6,0,P|128:100|80:100,1,80,4|0,0:0|0:0,0:0:0:0:
112,200,152233,1,8,0:0:0:0:
164,288,152455,1,0,0:0:0:0:
276,156,152678,1,0,0:0:0:0:
148,36,152900,1,2,0:0:0:0:
208,208,153122,1,8,0:0:0:0:
84,104,153345,1,0,0:0:0:0:
240,52,153567,6,0,P|300:32|400:64,1,160,2|8,0:0|0:0,0:0:0:0:
320,216,154234,1,2,0:0:0:0:
400,152,154456,1,0,0:0:0:0:
360,308,154679,1,2,0:0:0:0:
300,120,154901,1,8,0:0:0:0:
424,240,155123,1,2,0:0:0:0:
232,200,155346,6,0,P|204:168|228:40,1,160,4|8,0:0|0:0,0:0:0:0:
112,76,156013,2,0,L|56:156,1,80,2|0,0:0|0:0,0:0:0:0:
144,268,156457,2,0,L|128:184,2,80,2|8|2,0:0|0:0|0:0,0:0:0:0:
240,344,157124,6,0,B|232:316|232:316|256:312|256:312|240:288|240:288|264:280|264:280|248:260|248:260|272:252|272:252|256:232|256:232|280:224|280:224|268:192,1,240,4|2,0:0|0:0,0:0:0:0:
220,104,158014,1,0,0:0:0:0:
384,56,158236,1,2,0:0:0:0:
420,152,158458,1,8,0:0:0:0:
336,212,158681,1,0,0:0:0:0:
292,32,158903,5,2,0:0:0:0:
292,32,159348,2,0,P|240:8|188:12,1,80,8|2,0:0|0:0,0:0:0:0:
96,96,159792,2,0,L|152:160,1,80,0|2,0:0|0:0,0:0:0:0:
256,260,160237,1,8,0:0:0:0:
172,216,160459,1,0,0:0:0:0:
80,248,160682,5,2,0:0:0:0:
80,248,161126,2,0,L|140:328,1,80,8|2,0:0|0:0,0:0:0:0:
172,216,161571,2,0,L|116:148,1,80,0|2,0:0|0:0,0:0:0:0:
240,132,162016,1,8,0:0:0:0:
340,104,162238,1,0,0:0:0:0:
296,232,162460,6,0,L|272:312,2,80,0|2|8,0:0|0:0|0:0,0:0:0:0:
416,356,163127,1,2,0:0:0:0:
396,224,163350,2,0,L|428:132,1,80,0|2,0:0|0:0,0:0:0:0:
324,64,163794,1,8,0:0:0:0:
292,48,163906,1,0,0:0:0:0:
256,40,164017,1,2,0:0:0:0:
220,48,164128,1,0,0:0:0:0:
188,64,164239,2,0,P|156:120|192:208,1,160,4|8,0:0|0:0,0:0:0:0:
256,192,164795,12,0,166018,0:0:0:0:
