osu file format v7

[General]
AudioFilename: Become the Wind ~A Cat's Song~.mp3
AudioLeadIn: 0
PreviewTime: 128545
Countdown: 0
SampleSet: Soft
StackLeniency: 0.7
Mode: 0
LetterboxInBreaks: 1

[Editor]
DistanceSpacing: 1
BeatDivisor: 4
GridSize: 8

[Metadata]
Title:Become the Wind
Artist:Tsuji Ayano
Creator:vivicat
Version:Hard
Source:The Cat Returns
Tags:Miyazaki Hayao Studio Ghibli

[Difficulty]
HPDrainRate:5
CircleSize:5
OverallDifficulty:6
SliderMultiplier:0.999999999999999
SliderTickRate:2

[Events]
//Background and Video events
0,0,"BG.jpg"
//Break Periods
2,159455,169744
//Storyboard Layer 0 (Background)
//Storyboard Layer 1 (Fail)
//Storyboard Layer 2 (Pass)
//Storyboard Layer 3 (Foreground)
//Storyboard Sound Samples
//Background Colour Transformations
3,100,163,162,255

[TimingPoints]
6025,461.538461538462,4,2,0,29,1,0
53885,-100,4,2,0,49,0,0
54011,-100,4,2,0,47,0,1
83091,-100,4,2,0,40,0,0
83207,-100,4,1,1,51,0,0
129578,-100,4,1,1,73,0,0
129707,-100,4,1,1,71,0,1
159255,-100,4,1,1,58,0,0
175630,-200,4,1,1,58,0,0
178164,-100,4,2,0,27,0,0
186693,-100,4,2,0,39,0,0
193053,-100,4,1,1,51,0,0
194322,-100,4,1,1,75,0,1
207255,-100,4,1,1,51,0,0
209003,-100,4,2,0,35,0,0

[Colours]
Combo1 : 203,174,41
Combo2 : 94,221,87
Combo3 : 128,128,255
Combo4 : 206,72,38

[HitObjects]
120,104,6025,5,2
136,200,6486,1,0
136,200,6717,1,0
200,120,7178,1,0
232,80,7409,1,0
280,64,7640,1,0
328,56,7871,5,2
424,56,8332,1,0
424,56,8563,1,0
424,56,9024,1,0
424,56,9255,1,0
424,160,9717,5,4
328,120,10178,1,0
280,120,10409,1,0
176,120,10871,2,0,B|126:120,2,50
224,120,11563,1,2
344,216,12255,5,0
304,248,12486,2,0,B|256:288,3,50
224,304,13409,1,2
192,208,13871,6,0,L|176:152,1,50
144,64,14563,1,0
144,112,14794,2,0,B|144:176,2,50,0|0|2
144,264,15948,6,0,B|88:264,4,50
192,264,17101,1,2
288,264,17563,5,0
336,264,17794,1,0
424,216,18255,2,0,B|424:160,2,50
424,264,18948,1,2
288,192,19640,5,0
248,168,19871,1,0
200,168,20101,1,0
160,192,20332,1,0
136,232,20563,1,0
152,280,20794,1,2
240,328,21255,5,0
288,328,21486,1,0
344,240,21948,2,0,L|344:176,2,50
344,288,22640,1,2
200,288,23332,5,0
240,256,23563,1,0
264,208,23794,1,0
256,160,24025,1,0
232,112,24255,1,0
192,88,24486,1,4
88,96,24948,6,0,B|56:96|32:112,1,50
112,176,25640,1,0
104,216,25871,1,0
96,264,26101,2,0,B|88:288|96:314,1,50,0|2
240,288,27025,6,0,B|234:320|218:332,4,50
240,240,28178,1,2
240,136,28640,6,0,B|234:107|200:104,1,50
104,104,29332,2,0,B|72:96|40:112,2,50
152,104,30025,1,2
304,136,30717,6,0,B|296:104|248:104,1,50
216,104,31178,1,0
168,112,31409,1,0
128,144,31640,1,0
112,192,31871,1,2
128,288,32332,6,0,B|152:312|192:312,1,50
72,288,33025,2,0,B|72:320|96:344,2,50
72,240,33717,1,2
160,120,34409,5,0
192,88,34640,1,0
240,72,34871,1,0
288,72,35101,1,0
336,88,35332,1,0
368,120,35563,1,2
400,216,36025,5,0
376,264,36255,1,0
272,264,36717,2,0,B|256:296|216:296,3,50,0|0|0|2
336,184,38101,5,0
360,144,38332,1,0
408,160,38563,1,0
408,208,38794,1,0
360,224,39025,1,0
336,184,39255,6,0,B|192:232|312:336,2,200
440,184,41563,1,2
440,184,41794,1,2
344,184,42255,1,2
296,184,42486,1,2
192,184,42948,6,0,B|72:160|72:40,2,200
288,184,45255,1,2
288,184,45486,1,2
232,104,45948,1,2
232,152,46178,1,2
232,256,46640,6,0,B|320:344|416:256,2,200
232,152,48948,1,2
232,152,49178,1,2
336,152,49640,1,2
384,152,49871,1,2
256,192,50332,12,0,52178
280,320,52871,6,0,B|304:312|312:280,4,50
232,320,54025,6,0,B|168:320|128:264,2,99.9999999999999
256,280,55178,1,2
256,232,55409,1,2
184,160,55871,2,0,B|144:120|88:144,2,99.9999999999999
216,200,57025,1,2
240,152,57255,1,2
328,112,57717,6,0,B|360:104|368:64,2,50
376,200,58640,2,0,B|400:216|448:200,2,50
280,208,59563,2,0,B|200:216|208:152,1,99.9999999999999
207,162,60255,1,0
304,136,60717,1,2
352,128,60948,1,2
376,80,61178,1,0
344,40,61409,6,0,B|296:80|232:72,1,99.9999999999999
200,72,62101,1,0
200,168,62563,1,2
200,168,62794,1,2
104,168,63255,2,0,B|144:208|200:208,1,99.9999999999999
240,208,63948,1,0
240,208,64409,1,2
120,264,64871,5,0
96,216,65101,1,0
144,128,65563,1,0
144,128,65794,1,0
224,72,66255,2,0,B|256:64|280:72,2,50,2|2|0
208,120,66948,2,0,B|232:152|168:208|216:224,1,99.9999999999999
240,248,67640,1,0
288,240,67871,1,0
328,208,68101,1,2
320,160,68332,1,2
288,120,68563,1,0
248,88,68794,6,0,B|192:48|136:96,2,99.9999999999999,0|0|0
248,128,69948,1,2
216,168,70178,1,2
168,176,70409,1,0
120,184,70640,2,0,B|48:192|16:240,2,99.9999999999999,0|0|0
168,184,71794,1,2
216,184,72025,1,2
264,176,72255,1,0
312,160,72486,1,0
408,120,72948,6,0,B|424:144|408:184,1,50
328,224,73640,2,0,L|312:296,2,50,2|2|0
376,216,74332,2,0,B|432:224|480:184,2,99.9999999999999
328,208,75486,1,2
280,184,75717,1,2
240,152,75948,1,0
216,104,76178,6,0,B|264:56|328:56,1,99.9999999999999
352,64,76871,1,0
400,152,77332,1,2
368,192,77563,1,2
288,248,78025,2,0,B|224:264|176:232,1,99.9999999999999
190,240,78717,1,0
224,144,79178,1,2
176,136,79409,1,2
128,144,79640,1,0
96,184,79871,1,0
96,280,80332,5,0
96,280,80563,1,0
184,240,81024,1,2
184,240,81255,1,2
256,192,81717,12,0,83101
256,192,85409,5,2
152,192,85871,2,0,B|96:192,1,50,0|2
104,88,86563,1,0
152,72,86794,1,2
200,72,87024,1,0
248,88,87255,1,2
392,136,87948,6,0,B|456:136,4,50,0|0|2|2|0
360,176,89101,1,2
280,240,89563,2,0,B|224:240,1,50,0|2
160,312,90255,2,0,B|143:326|111:310,2,50,0|2|0
208,296,90948,1,2
360,296,91640,5,0
384,256,91871,1,0
376,216,92101,1,2
352,176,92332,1,2
304,168,92563,1,0
264,192,92794,1,2
232,304,93255,6,0,B|200:312|176:304,1,50,0|2
168,208,93948,2,0,B|200:288|264:328,1,150,0|2
344,272,95101,5,0
360,224,95332,1,2
376,128,95794,1,0
344,88,96024,1,2
248,56,96486,5,2
160,96,96948,2,0,B|136:88|110:96,1,50,0|2
112,200,97640,2,0,B|128:224|168:232,2,50,0|2|0
104,152,98332,1,2
160,16,99024,5,0
208,32,99255,1,0
232,80,99486,1,2
232,136,99717,1,2
208,184,99948,1,0
168,216,100178,1,6
72,224,100640,6,0,B|32:232|40:280,1,50,0|2
128,272,101332,1,0
128,272,101563,2,0,B|200:272,1,50,2|0
232,272,102024,1,2
328,240,102486,5,0
336,192,102717,1,2
320,96,103178,1,0
272,80,103409,1,2
176,104,103871,5,2
272,128,104332,2,0,B|304:136|320:168,1,50,0|2
400,104,105024,2,0,B|360:168|280:194,1,150,0|2
232,280,106178,5,0
192,248,106409,1,2
192,144,106871,1,0
232,112,107101,1,2
304,184,107563,5,2
288,88,108024,2,0,B|256:88|240:112,1,50,0|2
144,136,108717,2,0,B|136:104|160:72,2,50,0|2|0
144,136,109409,1,2
104,224,109871,5,0
152,224,110101,1,2
248,224,110563,1,0
248,224,110794,1,2
336,272,111255,6,0,L|400:280,2,50,0|2|2
336,168,112178,2,0,L|383:152,2,50,0|2|2
240,208,113101,2,0,B|136:192|152:296,2,150,2|0|2
240,208,114948,6,0,B|376:256|384:128,2,200,4|4|4
144,208,117255,1,2
144,208,117486,1,2
144,104,117948,1,2
192,104,118178,1,2
296,104,118640,6,0,B|328:224|224:272,2,200,4|4|4
192,104,120948,1,2
192,104,121178,1,2
192,208,121640,1,2
192,256,121871,1,2
256,336,122332,6,0,B|376:352|400:224,2,200,4|4|4
152,336,124640,1,2
152,336,124871,1,2
200,248,125332,1,2
200,248,125563,1,2
272,192,126024,6,0,B|280:104|176:88|144:176,2,200,4|4|4
368,192,128332,1,2
368,192,128563,1,2
344,96,129024,2,0,B|304:80|280:112,1,50,2|2
256,192,129717,5,4
256,288,130178,2,0,B|256:352,1,50,2|0
160,304,130871,2,0,B|120:360,2,50,0|2|0
192,264,131563,5,4
256,192,132025,2,0,B|288:152,1,50,2|0
320,120,132486,1,0
352,80,132717,2,0,B|384:32,2,50,0|2|0
320,120,133409,5,4
392,192,133871,2,0,B|442:192,1,50,2|0
400,288,134563,2,0,B|464:328,2,50,0|2|0
360,264,135255,5,4
272,216,135717,2,0,B|248:184|280:160,1,50,2|0
304,136,136178,1,0
344,104,136409,2,0,B|392:64,2,50,0|2|0
384,136,137101,5,4
296,184,137563,2,0,B|232:224,1,50,2|0
160,256,138255,2,0,B|96:296,3,50,0|2|0|4
32,336,139409,6,0,B|96:296,1,50,2|0
160,256,140101,1,0
208,232,140332,1,2
256,208,140563,1,0
304,184,140794,5,0
352,168,141024,1,0
400,184,141255,1,2
400,288,141717,1,0
352,312,141948,1,0
304,288,142178,1,2
256,192,142640,12,2,144024
256,192,144486,5,4
256,88,144948,2,0,B|256:38,1,50,2|0
160,72,145640,2,0,B|128:24,2,50,0|2|0
192,112,146332,5,4
120,184,146794,2,0,B|170:184,1,50,2|0
224,184,147255,1,0
272,184,147486,2,0,B|344:184,2,50,0|2|0
224,184,148178,5,4
136,232,148640,2,0,B|192:208,1,50,2|0
264,168,149332,2,0,B|328:136,2,50,0|2|0
216,192,150024,5,4
112,192,150486,2,0,B|80:179|120:155,1,50,2|0
168,144,150948,1,0
176,96,151178,2,0,B|200:48,2,50,0|2|0
128,112,151871,5,4
216,160,152332,2,0,B|280:200,1,50,2|0
344,240,153024,2,0,B|400:272,3,50,0|2|0|4
472,320,154178,6,0,B|408:280,1,50,2|0
344,240,154871,1,0
304,208,155101,1,2
264,176,155332,1,0
216,176,155563,5,0
176,208,155794,1,0
136,176,156024,1,2
136,72,156486,1,0
176,40,156717,1,0
216,72,156948,1,2
256,192,157409,12,4,159255
272,256,170794,5,2
192,184,171255,1,0
264,120,171717,1,2
352,184,172178,2,0,L|384:184,8,25,0|0|0|0|2|0|0|0|0
248,184,173563,1,2
128,184,174025,5,0
208,104,174486,1,2
280,184,174948,1,0
208,264,175409,1,2
128,184,175871,2,0,B|144:160|176:160,1,50,4|2
280,184,176794,2,0,B|312:192|312:224,1,50,4|2
208,264,177717,1,4
208,264,178409,5,0
168,232,178640,1,0
160,184,178871,1,0
176,136,179101,1,0
208,104,179332,6,0,B|256:88|312:104,2,99.9999999999999,0|0|0
224,152,180486,1,0
240,200,180717,1,2
280,224,180948,1,2
328,200,181178,1,0
360,160,181409,6,0,B|368:216|432:248,2,99.9999999999999,0|0|0
344,112,182563,1,2
296,96,182794,1,2
240,152,183255,6,0,B|216:144|184:152,1,50,0|0
296,208,183717,2,0,B|288:240|296:272,1,50
352,152,184178,2,0,B|384:160|416:152,1,50
296,96,184640,2,0,B|304:72|296:40,1,50
296,152,185101,6,0,B|240:130|184:160,4,99.9999999999999,0|0|0|0|0
368,88,187409,2,0,B|376:64|408:48,1,50
424,152,188101,2,0,B|464:160|472:192,1,50,2|2
368,200,188794,6,0,B|392:248|368:320,1,99.9999999999999,0|0
328,296,189486,1,0
240,280,189948,1,2
208,240,190178,1,2
200,192,190409,1,0
208,144,190640,5,0
312,144,191101,2,0,L|376:144,1,50
360,248,191794,1,0
264,248,192255,2,0,L|200:248,3,50
152,168,193178,5,0
208,80,193409,1,0
304,56,193640,1,2
400,80,193871,1,2
456,160,194101,1,0
424,256,194332,2,0,B|376:277|328:253,1,99.9999999999999,4|2
400,320,195025,5,0
304,312,195255,1,0
208,280,195486,1,0
160,192,195717,1,2
184,96,195948,1,0
272,56,196178,2,0,B|328:32|392:56,1,99.9999999999999,4|2
369,49,196871,5,0
432,136,197101,1,0
408,232,197332,1,0
328,288,197563,1,2
232,312,197794,1,0
136,288,198025,6,0,B|90:268|74:212,1,99.9999999999999,4|2
74,213,198717,1,0
192,56,199178,1,0
192,56,199409,1,2
392,88,199871,6,0,B|448:104|472:152,2,99.9999999999999,4|2|0
296,80,201025,1,0
200,104,201255,1,2
136,184,201486,1,0
160,280,201717,6,0,B|200:336|256:320,1,99.9999999999999,4|2
244,322,202409,2,0,B|304:328|344:296,1,99.9999999999999
339,299,203101,1,2
344,96,203563,6,0,B|308:59|240:56,1,99.9999999999999,4|2
254,57,204255,2,0,B|200:60|150:97,1,99.9999999999999
161,90,204948,1,2
256,192,205409,12,4,207255
184,296,208409,5,0
144,264,208640,1,0
120,216,208871,1,0
128,168,209101,2,0,B|144:120|224:104,1,99.9999999999999,2|0
204,109,209794,2,0,B|257:93|310:116,1,99.9999999999999
368,248,210948,6,0,B|369:315|304:336,1,99.9999999999999,2|0
321,330,211640,2,0,B|272:347|209:330,1,99.9999999999999
256,192,212794,12,4,218332
