osu file format v7

[General]
AudioFilename: Become the Wind ~A Cat's Song~.mp3
AudioLeadIn: 0
PreviewTime: 128545
Countdown: 0
SampleSet: Soft
StackLeniency: 0.7
Mode: 0
LetterboxInBreaks: 1

[Editor]
DistanceSpacing: 0.800000011920929
BeatDivisor: 4
GridSize: 8

[Metadata]
Title:Become the Wind
Artist:Tsuji Ayano
Creator:vivicat
Version:Easy
Source:The Cat Returns
Tags:Miyazaki Hayao Studio Ghibli

[Difficulty]
HPDrainRate:3
CircleSize:4
OverallDifficulty:3
SliderMultiplier:0.499999999999999
SliderTickRate:1

[Events]
//Background and Video events
0,0,"BG.jpg"
//Break Periods
2,38532,48892
2,159455,169354
//Storyboard Layer 0 (Background)
//Storyboard Layer 1 (Fail)
//Storyboard Layer 2 (Pass)
//Storyboard Layer 3 (Foreground)
//Storyboard Sound Samples
//Background Colour Transformations
3,100,163,162,255

[TimingPoints]
6025,461.538461538462,4,2,0,30,1,0
53549,-100,4,2,0,40,0,0
54011,-100,4,2,0,40,0,1
83563,-100,4,2,0,30,0,0
84591,-100,4,1,1,48,0,0
129472,-100,4,1,1,67,0,0
129703,-100,4,1,1,70,0,1
159255,-100,4,1,1,44,0,0
178900,-100,4,2,1,18,0,0
186703,-100,4,2,0,31,0,0
194199,-100,4,1,1,71,0,0
194318,-100,4,1,1,79,0,1
207245,-100,4,1,1,64,0,0
208857,-100,4,2,0,35,0,0

[Colours]
Combo1 : 203,174,41
Combo2 : 94,221,87
Combo3 : 128,128,255
Combo4 : 206,72,38

[HitObjects]
192,88,6025,1,2
120,128,6948,1,0
72,192,7871,1,0
80,272,8794,1,0
152,312,9717,6,0,B|208:320|264:312,3,99.9999999999998,2|0|0|0
328,288,13409,5,2
368,216,14332,1,0
384,136,15255,1,0
352,64,16178,1,0
320,88,16640,1,0
288,112,17101,6,0,B|232:136|184:112,3,99.9999999999998
120,144,20794,5,2
184,192,21717,1,0
264,208,22640,1,0
344,208,23563,1,0
368,176,24025,1,0
376,136,24486,5,4
328,72,25409,1,0
248,56,26332,1,0
168,64,27255,1,0
104,112,28178,5,2
168,160,29101,1,0
248,176,30025,1,0
328,184,30948,1,0
360,208,31409,1,0
392,232,31871,5,2
416,312,32794,1,0
344,352,33717,1,0
272,320,34640,1,0
248,288,35101,1,0
232,248,35563,6,0,B|211:206|211:150,2,99.9999999999998,0|0|0
256,176,38332,1,0
256,192,50332,5,4
160,192,51255,1,4
256,192,52178,1,4
352,192,53101,1,4
312,272,54025,6,0,B|318:268|272:304|208:304,1,99.9999999999998,4|0
216,224,55871,2,0,B|209:227|256:184|312:192,1,99.9999999999998,2|0
312,112,57717,5,2
232,112,58640,1,0
232,192,59563,1,2
312,192,60486,1,0
312,272,61409,5,4
232,272,62332,1,0
232,232,62794,1,0
232,192,63255,5,2
152,192,64178,1,0
152,152,64640,1,0
152,112,65101,6,0,B|208:112,3,49.9999999999999,2|0|0|0
202,112,66948,2,0,B|226:160|202:216,1,99.9999999999998
288,208,68794,5,4
288,168,69255,1,0
288,128,69717,1,0
208,128,70640,5,2
168,128,71101,1,0
128,128,71563,1,0
128,208,72486,6,4,B|128:272,3,50,2|0|0|0
128,259,74332,2,0,B|181:277|233:257,1,99.9999999999998,2|0
232,176,76178,5,2
232,136,76640,1,0
232,96,77101,1,0
312,96,78025,5,2
352,96,78486,1,0
392,96,78948,1,0
256,192,79871,12,0,83563
256,128,85409,6,0,B|312:128,2,49.9999999999999,2|0|0
216,128,86794,1,0
176,128,87255,2,0,B|144:184|176:232,1,99.9999999999998
248,224,89101,5,2
288,224,89563,1,0
328,224,90024,2,0,B|328:168,1,49.9999999999999
328,136,90948,1,0
328,136,91871,6,0,B|278:136,1,49.9999999999999
240,136,92794,2,0,B|192:120|136:136,1,99.9999999999998,2|0
104,144,94178,1,0
80,176,94640,1,0
96,256,95563,1,0
136,272,96024,1,0
176,256,96486,6,0,B|192:208|176:152,1,99.9999999999998,2|0
192,120,97871,1,0
232,104,98332,2,0,B|280:88|336:104,1,99.9999999999998,0|0
336,40,100178,5,4
296,40,100640,2,0,B|240:40,1,49.9999999999999
208,40,101563,2,0,B|152:40,1,49.9999999999999
80,56,102948,1,0
64,88,103409,1,0
56,128,103871,6,0,B|56:184,1,49.9999999999999,2|0
56,216,104794,2,0,B|56:272,1,49.9999999999999
88,296,105717,1,0
168,312,106640,1,0
208,312,107101,1,0
248,296,107563,6,0,B|272:272|272:240,1,49.9999999999999,2|0
272,216,108486,2,0,B|272:160,2,49.9999999999999
352,216,110332,1,0
392,200,110794,1,0
408,160,111255,6,0,B|408:104,1,49.9999999999999,2|0
376,88,112178,1,2
336,72,112640,1,2
296,72,113101,1,2
136,72,114948,6,0,B|112:120|136:176,1,99.9999999999998,2|0
152,200,116332,1,0
184,224,116794,2,0,B|240:248|288:224,1,99.9999999999998,2|0
312,208,118178,1,0
328,168,118640,6,0,B|328:112,3,49.9999999999999,2|0|0|0
328,80,120486,1,2
248,80,121409,2,0,B|192:80,1,49.9999999999999,0|0
160,80,122332,6,0,B|160:24,3,49.9999999999999,2|0|0|0
120,32,124178,1,2
120,112,125101,1,0
144,144,125563,1,0
176,168,126024,6,0,B|232:184|280:168,1,99.9999999999998,2|0
274,169,127409,1,0
275,169,127871,2,0,B|296:216|275:273,1,99.9999999999998,2|0
272,312,129255,1,0
232,312,129717,5,4
192,312,130178,2,0,B|168:328|136:312,2,49.9999999999999
192,272,131563,1,2
192,232,132024,2,0,B|176:200|192:176,2,49.9999999999999
232,232,133409,5,4
272,232,133871,1,0
312,232,134332,2,0,B|344:232|368:216,1,49.9999999999999
384,184,135255,2,0,B|408:120|384:32,1,150,2|0
344,40,137101,5,4
304,40,137563,2,0,B|272:32|248:56,1,49.9999999999999
224,72,138486,1,0
224,73,138948,1,2
192,96,139409,2,0,B|168:112|136:112,1,49.9999999999999
146,112,140332,1,0
112,128,140794,5,4
80,152,141255,2,0,B|56:208|88:256,1,99.9999999999998
112,272,142640,2,0,B|192:304|264:272,1,150,2|0
280,240,144486,5,4
280,200,144948,2,0,B|256:184|224:200,2,49.9999999999999
320,200,146332,1,2
320,160,146794,2,0,B|336:128|320:104,2,49.9999999999999
280,160,148178,6,0,B|256:176|230:160,1,49.9999999999999,4|0
192,160,149101,2,0,B|168:144|142:160,1,49.9999999999999
104,160,150024,2,0,B|88:232|176:296,1,150,2|0
200,304,151871,5,4
240,312,152332,1,0
320,312,153255,2,0,B|344:320|370:312,1,49.9999999999999,0|2
408,288,154178,1,0
408,208,155101,1,0
256,192,155563,12,4,159255
160,216,170794,6,0,B|152:184|160:160,2,49.9999999999999,2|2|2
200,232,172178,2,4,B|296:296|400:232,1,200,4|2
400,152,174948,1,2
336,96,175871,2,0,B|280:88|224:96,2,99.9999999999998,4|4|4
184,112,179563,6,0,B|184:168,1,49.9999999999999,2|0
184,240,180948,1,0
184,280,181409,2,0,B|240:280,1,49.9999999999999,2|0
312,280,182794,1,0
312,240,183255,6,0,B|312:184,3,49.9999999999999,2|0|0|0
312,152,185101,2,0,B|248:112|160:128,1,150
144,152,186948,6,0,B|128:184|144:208,1,49.9999999999999,2|0
168,272,188332,1,0
208,288,188794,2,0,B|232:304|264:288,1,49.9999999999999,2|0
328,256,190178,1,0
360,232,190640,6,0,B|384:224|392:192,3,49.9999999999999,2|0|0|0
376,160,192486,2,0,B|312:96|176:112,1,200,2|4
152,120,194794,5,0
112,192,195717,1,0
112,232,196178,2,0,B|128:256|152:264,1,49.9999999999999,2|0
224,288,197563,1,0
264,288,198025,6,0,B|296:288|320:272,1,49.9999999999999,4|0
376,232,199409,1,0
392,192,199871,2,0,B|400:160|392:136,3,49.9999999999999,2|0|0|0
352,144,201717,5,4
312,144,202178,1,0
232,144,203101,2,0,B|176:144,1,49.9999999999999,0|2
144,144,204025,1,0
64,144,204948,1,0
64,184,205409,6,0,B|64:240,3,49.9999999999999,4|0|0|0
80,272,207255,2,0,B|152:304|232:272,1,150,2|0
256,248,209101,6,0,B|280:192|232:96,1,150
236,104,210948,2,0,B|156:72|84:104,1,150
56,128,212794,5,0
56,208,213717,1,0
256,192,214640,12,4,218332
