osu file format v9

[General]
AudioFilename: Yui OP.mp3
AudioLeadIn: 1500
PreviewTime: 53174
Countdown: 0
SampleSet: Normal
StackLeniency: 0.7
Mode: 1
LetterboxInBreaks: 0

[Editor]
Bookmarks: 35774,36288,41259,41774,87460,87930,88300
DistanceSpacing: 0.8
BeatDivisor: 4
GridSize: 4

[Metadata]
Title:Yuriyurarararayuruyuri Daijiken (TV Size)
Artist:Tsuda Minami
Creator:Elly-chan
Version:Taiko Oni
Source:Yuru Yuri
Tags:Opening Funami Yui Azaka Akari Toshinou Kyouko Nanamori-chu * Goraku-bu Stefan those Rikers Gabe Gezoda Gezo _Gezo_ popner taiko

[Difficulty]
HPDrainRate:5
CircleSize:5
OverallDifficulty:5
ApproachRate:5
SliderMultiplier:1.4
SliderTickRate:1

[Events]
//Background and Video events
0,0,"yurutk.jpg"
//Break Periods
//Storyboard Layer 0 (Background)
//Storyboard Layer 1 (Fail)
//Storyboard Layer 2 (Pass)
//Storyboard Layer 3 (Foreground)
//Storyboard Sound Samples
//Background Colour Transformations
3,100,163,162,255

[TimingPoints]
3411,342.857142857143,4,1,0,100,1,0
54153,-100,4,1,0,100,0,1
76096,-100,4,1,0,100,0,0

[HitObjects]
256,192,3411,1,6
256,192,3754,1,0
256,192,3925,1,2
256,192,4268,1,0
256,192,4611,1,2
256,192,4954,1,0
256,192,5296,1,0
256,192,5468,1,2
256,192,5639,1,0
256,192,5811,1,2
256,192,5982,1,2
256,192,6154,1,4
256,192,6496,1,0
256,192,6668,1,2
256,192,7011,1,0
256,192,7354,1,2
256,192,7696,1,0
256,192,8039,1,0
256,192,8211,1,2
256,192,8382,1,0
256,192,8554,1,2
256,192,8725,1,2
256,192,8896,1,4
256,192,9239,1,0
256,192,9411,1,2
256,192,9754,1,0
256,192,10096,1,2
256,192,10439,1,0
256,192,10782,1,0
256,192,10954,1,2
256,192,11125,1,0
256,192,11297,1,2
256,192,11468,1,2
256,192,11639,1,4
256,192,11982,1,6
256,192,12325,1,4
256,192,12497,1,6
256,192,12839,1,6
256,192,13182,1,2
256,192,13354,1,2
256,192,13525,1,2
256,192,13697,1,0
256,192,13782,1,0
256,192,13868,1,2
256,192,13954,1,2
256,192,14039,1,0
256,192,14211,1,0
256,192,14382,1,6
256,192,14554,1,0
256,192,14725,1,0
256,192,14897,1,0
256,192,14982,1,0
256,192,15068,1,2
256,192,15239,1,2
256,192,15411,1,0
256,192,15582,1,0
256,192,15754,1,2
256,192,15925,1,0
256,192,16097,1,0
256,192,16268,1,0
256,192,16354,1,0
256,192,16439,1,2
256,192,16611,1,2
256,192,16782,1,0
256,192,16954,1,0
256,192,17039,1,0
256,192,17125,1,2
256,192,17297,1,2
256,192,17468,1,0
256,192,17639,1,0
256,192,17725,1,0
256,192,17811,1,2
256,192,17982,1,2
256,192,18154,1,0
256,192,18325,1,0
256,192,18411,1,0
256,192,18497,1,2
256,192,18668,1,0
256,192,18839,1,2
256,192,19011,1,0
256,192,19182,1,2
256,192,19354,1,0
256,192,19439,1,0
256,192,19525,1,2
256,192,19611,1,2
256,192,19697,1,0
256,192,19782,1,0
256,192,19868,1,2
256,192,20039,1,0
256,192,20211,1,0
256,192,20382,1,2
256,192,20468,1,0
256,192,20554,1,2
256,192,20725,1,2
256,192,20897,1,0
256,192,21068,1,0
256,192,21239,1,2
256,192,21411,1,0
256,192,21582,1,0
256,192,21754,1,2
256,192,21839,1,0
256,192,21925,1,2
256,192,22097,1,2
256,192,22268,1,0
256,192,22439,1,2
256,192,22525,1,0
256,192,22611,1,2
256,192,22782,1,2
256,192,22954,1,0
256,192,23125,1,2
256,192,23211,1,0
256,192,23297,1,2
256,192,23468,1,2
256,192,23639,1,0
256,192,23811,1,0
256,192,23897,1,0
256,192,23982,1,2
256,192,24154,1,2
256,192,24325,1,2
256,192,24497,1,0
256,192,24668,1,2
256,192,24839,1,0
256,192,24925,1,0
256,192,25011,1,2
256,192,25097,1,2
256,192,25182,1,0
256,192,25268,1,0
256,192,25354,1,2
256,192,25525,1,0
256,192,25697,1,2
256,192,25868,1,6
256,192,26211,1,0
256,192,26382,1,2
256,192,26725,1,6
256,192,26897,1,0
256,192,27068,1,0
256,192,27239,1,6
256,192,27582,1,0
256,192,27668,1,0
256,192,27754,1,2
256,192,28097,1,4
256,192,28268,1,0
256,192,28439,1,2
256,192,28611,1,2
256,192,28782,1,4
256,192,28954,1,2
256,192,29125,1,0
256,192,29297,1,2
256,192,29468,1,4
256,192,29811,1,2
256,192,29982,1,2
256,192,30325,1,0
256,192,30497,1,2
256,192,30839,1,12
256,192,31011,1,0
256,192,31097,1,0
256,192,31182,1,8
256,192,31354,1,0
256,192,31525,1,0
256,192,31697,1,2
256,192,31868,1,0
256,192,32039,1,2
256,192,32211,1,0
256,192,32382,1,0
256,192,32554,1,8
256,192,32725,1,0
256,192,33068,1,8
256,192,33411,1,8
256,192,33582,1,0
256,192,33754,1,0
256,192,33839,1,0
256,192,33925,1,8
256,192,34097,1,0
256,192,34268,1,0
256,192,34439,1,8
256,192,34525,1,0
256,192,34611,1,8
256,192,34782,1,0
256,192,34954,1,0
256,192,35125,1,0
256,192,35297,1,8
256,192,35468,1,0
256,192,35811,1,12
256,192,35982,1,4
256,192,36154,1,4
256,192,36325,1,12
256,192,36497,1,0
256,192,36582,1,0
256,192,36668,1,8
256,192,36839,1,0
256,192,37011,1,0
256,192,37182,1,8
256,192,37354,1,0
256,192,37525,1,8
256,192,37696,1,0
256,192,37868,1,0
256,192,38039,1,8
256,192,38211,1,0
256,192,38554,1,8
256,192,38725,1,0
256,192,38896,1,8
256,192,39068,1,0
256,192,39239,1,0
256,192,39411,1,8
256,192,39582,1,0
256,192,39754,1,8
256,192,39925,1,0
256,192,40096,1,8
256,192,40268,1,8
256,192,40439,1,0
256,192,40611,1,0
256,192,40782,1,8
256,192,40954,1,0
256,192,41296,1,12
256,192,41468,1,6
256,192,41639,1,6
256,192,41811,1,4
256,192,42154,1,2
256,192,42325,1,0
256,192,42496,1,0
256,192,42839,1,8
256,192,43182,1,0
256,192,43354,1,0
256,192,43525,1,2
256,192,43696,1,0
256,192,43868,1,0
256,192,44039,1,0
256,192,44211,1,8
256,192,44382,1,0
256,192,44554,1,0
256,192,44896,1,2
256,192,45068,1,0
256,192,45239,1,0
256,192,45582,1,8
256,192,45925,1,0
256,192,46096,1,0
256,192,46268,1,2
256,192,46439,1,0
256,192,46611,1,0
256,192,46782,1,0
256,192,46868,1,0
256,192,46954,1,8
256,192,47039,1,2
256,192,47125,1,0
256,192,47211,1,0
256,192,47296,1,2
256,192,47639,1,2
256,192,47811,1,0
256,192,47982,1,0
256,192,48154,1,0
256,192,48325,1,8
256,192,48496,1,0
256,192,48668,1,0
256,192,48839,1,0
256,192,49011,1,2
256,192,49182,1,0
256,192,49354,1,0
256,192,49525,1,0
256,192,49611,1,0
256,192,49696,1,8
256,192,49868,1,0
256,192,50039,1,2
256,192,50211,1,0
256,192,50296,1,0
256,192,50382,1,2
256,192,50554,1,0
256,192,50725,1,2
256,192,50896,1,0
256,192,51068,1,8
256,192,51239,1,0
256,192,51411,8,0,52439
256,192,52782,5,2
256,192,53296,5,0
256,192,53639,1,0
256,192,53811,1,2
256,192,53982,1,0
256,192,54154,1,12
256,192,54325,1,0
256,192,54411,1,0
256,192,54496,1,2
256,192,54668,1,0
256,192,54839,1,0
256,192,54925,1,2
256,192,55096,1,0
256,192,55182,1,2
256,192,55354,1,0
256,192,55525,1,2
256,192,55696,1,0
256,192,55782,1,0
256,192,55868,1,2
256,192,56039,1,0
256,192,56211,1,2
256,192,56296,1,0
256,192,56382,1,0
256,192,56468,1,0
256,192,56554,1,2
256,192,56639,1,0
256,192,56725,1,0
256,192,56811,1,0
256,192,56896,1,2
256,192,57068,1,0
256,192,57154,1,0
256,192,57239,1,2
256,192,57411,1,0
256,192,57582,1,2
256,192,57668,1,0
256,192,57839,1,0
256,192,57925,1,2
256,192,58096,1,0
256,192,58268,1,0
256,192,58354,1,2
256,192,58439,1,2
256,192,58611,1,0
256,192,58696,1,2
256,192,58782,1,2
256,192,58954,1,2
256,192,59039,1,2
256,192,59125,1,2
256,192,59296,1,2
256,192,59382,1,2
256,192,59468,1,0
256,192,59554,1,0
256,192,59639,1,2
256,192,59811,1,0
256,192,59982,1,0
256,192,60154,1,0
256,192,60239,1,0
256,192,60325,1,2
256,192,60496,1,0
256,192,60668,1,0
256,192,60839,1,0
256,192,60925,1,0
256,192,61011,1,2
256,192,61182,1,0
256,192,61268,1,0
256,192,61354,1,2
256,192,61525,1,0
256,192,61611,1,0
256,192,61696,1,2
256,192,61868,1,0
256,192,61954,1,0
256,192,62039,1,2
256,192,62211,1,0
256,192,62296,1,0
256,192,62382,1,2
256,192,62554,1,2
256,192,62725,1,2
256,192,62896,1,2
256,192,63068,1,0
256,192,63239,1,0
256,192,63325,1,0
256,192,63411,1,2
256,192,63582,1,2
256,192,63754,1,2
256,192,63839,1,0
256,192,63925,1,2
256,192,64011,1,0
256,192,64096,1,2
256,192,64268,1,2
256,192,64439,1,2
256,192,64525,1,0
256,192,64611,1,2
256,192,64696,1,0
256,192,64782,1,2
256,192,64868,1,0
256,192,64954,1,2
256,192,65039,1,2
256,192,65125,1,2
256,192,65296,1,0
256,192,65468,1,0
256,192,65639,1,0
256,192,65725,1,0
256,192,65811,1,2
256,192,65896,1,2
256,192,65982,1,0
256,192,66154,1,0
256,192,66325,1,0
256,192,66496,1,2
256,192,66668,1,0
256,192,66839,1,0
256,192,67011,1,0
256,192,67096,1,2
256,192,67268,1,0
256,192,67354,1,2
256,192,67525,1,0
256,192,67696,1,0
256,192,67868,1,2
256,192,68039,1,0
256,192,68211,1,0
256,192,68382,1,0
256,192,68468,1,0
256,192,68554,1,2
256,192,68639,1,0
256,192,68725,1,2
256,192,68811,1,0
256,192,68896,1,0
256,192,69068,1,0
256,192,69239,1,2
256,192,69411,1,0
256,192,69582,1,0
256,192,69754,1,0
256,192,69839,1,2
256,192,70011,1,0
256,192,70096,1,2
256,192,70268,1,0
256,192,70439,1,0
256,192,70525,1,0
256,192,70611,1,2
256,192,70782,1,0
256,192,70954,1,0
256,192,71125,1,0
256,192,71211,1,0
256,192,71296,1,2
256,192,71468,1,0
256,192,71639,1,0
256,192,71811,1,0
256,192,71896,1,0
256,192,71982,1,2
256,192,72154,1,0
256,192,72239,1,0
256,192,72325,1,2
256,192,72496,1,0
256,192,72582,1,0
256,192,72668,1,2
256,192,72839,1,0
256,192,72925,1,0
256,192,73011,1,2
256,192,73182,1,0
256,192,73268,1,0
256,192,73354,1,2
256,192,73525,1,2
256,192,73696,1,2
256,192,73868,1,2
256,192,74039,1,2
256,192,74211,1,0
256,192,74296,1,0
256,192,74382,1,2
256,192,74554,1,0
256,192,74725,1,0
256,192,74896,1,2
256,192,74982,1,2
256,192,75068,1,0
256,192,75239,1,0
256,192,75411,1,2
256,192,75496,1,2
256,192,75582,1,0
256,192,75668,1,0
256,192,75754,1,2
256,192,75839,1,2
256,192,75925,1,0
256,192,76011,1,0
256,192,76096,1,2
256,192,76439,1,0
256,192,76782,1,0
256,192,77125,1,0
256,192,77468,1,6
256,192,77811,1,0
256,192,78154,1,2
256,192,78325,1,0
256,192,78496,1,2
256,192,78668,1,0
256,192,78839,1,12
256,192,79182,1,0
256,192,79354,1,2
256,192,79696,1,0
256,192,80039,1,2
256,192,80382,1,0
256,192,80725,1,0
256,192,80896,1,2
256,192,81068,1,0
256,192,81239,1,2
256,192,81411,1,2
256,192,81582,1,4
256,192,81925,1,0
256,192,82096,1,2
256,192,82439,1,0
256,192,82782,1,2
256,192,83125,1,0
256,192,83468,1,0
256,192,83639,1,2
256,192,83811,1,0
256,192,83982,1,2
256,192,84154,1,2
256,192,84325,1,4
256,192,84668,1,0
256,192,84839,1,2
256,192,85182,1,0
256,192,85525,1,2
256,192,85868,1,0
256,192,86211,1,0
256,192,86382,1,2
256,192,86554,1,0
256,192,86725,1,2
256,192,86896,1,2
256,192,87068,1,4
256,192,87411,1,6
256,192,87754,1,4
256,192,87925,1,6
256,192,88268,1,6
256,192,88439,1,0
256,192,88611,1,0
256,192,88782,1,2
256,192,88954,1,0
256,192,89468,1,6
