osu file format v5

[General]
AudioFilename: vxe_op.mp3
AudioLeadIn: 3000
PreviewTime: 62736
Countdown: 0
SampleSet: Soft
StackLeniency: 0.7
Mode: 0
LetterboxInBreaks: 1
EditorBookmarks: 594,21056,26181,31235,35973,41975,45766,51136,56190,62824,72932,77986,83672,96940

[Metadata]
Title:Mayonaka Kyuseishu ~ Midnight Salvatore ~
Artist:Tsubasa and Hajime
Creator:KnuckMew
Version:Easy
Source:VitaminX Evolution
Tags:Tatsuhisa Suzuki Daisuke Ono

[Difficulty]
HPDrainRate:5
CircleSize:4
OverallDifficulty:5
SliderMultiplier:1.5
SliderTickRate:1

[Events]
//Background and Video events
0,0,"vx02_M.jpg"
1,256,"vxe.AVI"
//Break Periods
2,11218,19686
2,67761,71492
2,86399,90130
//Storyboard Layer 0 (Background)
//Storyboard Layer 1 (Failing)
//Storyboard Layer 2 (Passing)
//Storyboard Layer 3 (Foreground)
//Storyboard Sound Samples
//Background Colour Transformations
3,100,0,0,0

[TimingPoints]
910,631.778456354638,4,2,0,100,1

[Colours]
Combo1 : 186,117,255
Combo2 : 255,128,128
Combo3 : 132,193,255
Combo4 : 255,255,128
Combo5 : 128,255,0

[HitObjects]
400,192,910,1,0
160,192,2173,1,0
400,192,3437,2,0,B|80:192,1,300
32,192,5016,2,0,B|188:192,1,150,0|0
256,192,7227,12,0,11018
432,288,21126,6,8,L|48:288,1,375
128,128,23654,1,0
128,240,24285,2,0,B|32:32|128:352,1,225
288,288,26181,6,8,B|464:176|240:16,1,300
288,288,28708,1,0
224,192,29340,2,0,B|224:128|304:16,1,150
304,288,31235,6,0,B|224:288|128:224,1,150
64,176,32498,2,8,B|32:144|96:96,1,75
240,48,33762,1,0
352,80,34394,1,0
432,160,35026,1,0
192,48,36289,6,0,B|80:64|144:176,2,150
80,64,38184,1,0
32,176,38816,1,0
96,256,39448,1,0
192,320,40080,2,8,B|256:384|384:288,2,150
224,144,42291,6,2,B|128:208|160:304|240:320|336:320|400:224|336:144|240:112|192:160,1,450
336,64,46082,5,8
464,192,46713,2,0,B|464:240|416:256,2,75
320,304,47661,1,8
208,256,48293,1,0
320,304,48925,1,8
32,96,51136,6,2,B|32:48|80:32,1,75
80,208,52084,2,0,B|128:288|224:256,2,150
80,144,53663,1,2
80,256,54295,1,2
432,192,56190,5,0
64,192,58085,1,0
208,80,59033,1,0
208,320,60297,1,0
128,64,62825,5,10
128,176,63456,2,0,B|128:224|192:224,1,75
224,192,64087,1,2
320,128,64718,2,2,B|352:96|336:48,1,75,0|0
384,96,65351,5,0
320,192,65983,1,0
256,288,66614,1,0
320,288,66930,2,0,B|208:176,1,150
336,64,72932,5,8
112,128,74196,1,0
336,64,75459,1,8
112,128,76723,2,0,B|32:224|176:272,1,150
112,128,77986,5,8
320,240,79250,1,0
112,128,80514,1,8
320,240,81777,2,0,B|400:144|256:96,1,150
64,48,83672,5,0
32,160,84304,1,0
80,288,84936,1,0
80,288,85568,2,0,B|144:320|240:288,1,150
256,192,91570,12,2,95044
256,192,96940,12,4,99467
