osu file format v14

[General]
AudioFilename: Inaba-tan.mp3
AudioLeadIn: 0
PreviewTime: 87235
Countdown: 0
SampleSet: Soft
StackLeniency: 0.7
Mode: 3
LetterboxInBreaks: 0
SpecialStyle: 0
WidescreenStoryboard: 0

[Editor]
DistanceSpacing: 1
BeatDivisor: 4
GridSize: 8
TimelineZoom: 2.3

[Metadata]
Title:Kyun Kyun Tamaran Inaba-tan
TitleUnicode:きゅんきゅんたまらんいなばたん。
Artist:Tsubaki
ArtistUnicode:Tsubaki
Creator:-[ Ritsune ]-
Version:Insane
Source:Touhou - Starry Presto
Tags:Starry Presto [Taketori Hishou ~ Lunatic Princess]
BeatmapID:783162
BeatmapSetID:355765

[Difficulty]
HPDrainRate:8
CircleSize:4
OverallDifficulty:8
ApproachRate:5
SliderMultiplier:1.4
SliderTickRate:1

[Events]
//Background and Video events
0,0,"bg.png",0,0
//Break Periods
//Storyboard Layer 0 (Background)
//Storyboard Layer 1 (Fail)
//Storyboard Layer 2 (Pass)
//Storyboard Layer 3 (Foreground)
//Storyboard Sound Samples

[TimingPoints]
902,333.333333333333,4,2,0,20,1,0
11568,-100,4,2,1,30,0,0
64901,-100,4,2,0,20,0,0
83568,-100,4,2,1,30,0,0
87568,-100,4,2,1,30,0,1
97568,-100,4,2,1,30,0,0
98235,-100,4,2,1,30,0,1
110235,-100,4,2,1,30,0,0

[HitObjects]
36,192,901,5,0,0:0:0:0:
475,192,901,1,0,0:0:0:0:
182,192,901,1,2,0:0:0:0:
329,192,901,1,4,0:0:0:0:
109,192,1235,1,0,0:0:0:0:
402,192,1235,1,0,0:0:0:0:
256,192,1235,1,2,0:0:0:0:
256,192,1401,1,0,0:0:0:0:
475,192,1568,1,2,0:0:0:0:
36,192,1568,1,0,0:0:0:0:
109,192,1901,1,0,0:0:0:0:
182,192,1901,1,2,0:0:0:0:
402,192,1901,1,0,0:0:0:0:
109,192,2068,1,0,0:0:0:0:
182,192,2068,1,2,0:0:0:0:
256,192,2235,1,0,0:0:0:0:
475,192,2401,1,0,0:0:0:0:
256,192,2401,1,2,0:0:0:0:
402,192,2568,1,0,0:0:0:0:
64,192,2568,1,2,0:0:0:0:
320,192,2568,1,0,0:0:0:0:
36,192,2735,1,0,0:0:0:0:
256,192,2735,1,2,0:0:0:0:
109,192,2901,1,0,0:0:0:0:
329,192,2901,1,2,0:0:0:0:
182,192,3068,1,0,0:0:0:0:
402,192,3068,1,2,0:0:0:0:
320,192,3235,1,2,0:0:0:0:
192,192,3235,1,0,0:0:0:0:
36,192,3235,1,0,0:0:0:0:
256,192,3401,1,0,0:0:0:0:
475,192,3568,1,0,0:0:0:0:
36,192,3568,1,0,0:0:0:0:
256,192,3568,1,2,0:0:0:0:
109,192,3901,1,0,0:0:0:0:
402,192,3901,1,0,0:0:0:0:
256,192,3901,1,2,0:0:0:0:
256,192,4068,1,0,0:0:0:0:
329,192,4235,1,2,0:0:0:0:
182,192,4235,1,0,0:0:0:0:
109,192,4568,1,0,0:0:0:0:
402,192,4568,1,0,0:0:0:0:
256,192,4568,1,2,0:0:0:0:
329,192,4735,1,2,0:0:0:0:
182,192,4735,1,0,0:0:0:0:
36,192,4901,1,0,0:0:0:0:
475,192,4901,1,2,0:0:0:0:
109,192,5068,1,0,0:0:0:0:
329,192,5068,1,2,0:0:0:0:
64,192,5235,1,0,0:0:0:0:
320,192,5235,1,2,0:0:0:0:
192,192,5235,1,0,0:0:0:0:
329,192,5401,1,2,0:0:0:0:
109,192,5401,1,0,0:0:0:0:
182,192,5568,1,0,0:0:0:0:
402,192,5568,1,2,0:0:0:0:
256,192,5735,1,0,0:0:0:0:
109,192,5901,1,0,0:0:0:0:
448,192,5901,1,0,0:0:0:0:
320,192,5901,1,0,0:0:0:0:
182,192,6068,1,0,0:0:0:0:
475,192,6235,1,0,0:0:0:0:
36,192,6235,1,0,0:0:0:0:
256,192,6235,1,2,0:0:0:0:
109,192,6568,1,0,0:0:0:0:
329,192,6568,1,2,0:0:0:0:
402,192,6568,1,0,0:0:0:0:
256,192,6735,1,0,0:0:0:0:
182,192,6901,1,2,0:0:0:0:
402,192,6901,1,0,0:0:0:0:
329,192,7235,1,0,0:0:0:0:
109,192,7235,1,2,0:0:0:0:
475,192,7235,1,0,0:0:0:0:
109,192,7401,1,2,0:0:0:0:
329,192,7401,1,0,0:0:0:0:
256,192,7568,1,0,0:0:0:0:
36,192,7735,1,2,0:0:0:0:
475,192,7735,1,0,0:0:0:0:
402,192,7901,1,0,0:0:0:0:
109,192,7901,1,2,0:0:0:0:
256,192,7901,1,0,0:0:0:0:
182,192,8068,1,2,0:0:0:0:
329,192,8068,1,0,0:0:0:0:
109,192,8235,1,2,0:0:0:0:
402,192,8235,1,0,0:0:0:0:
402,192,8401,1,0,0:0:0:0:
109,192,8401,1,2,0:0:0:0:
36,192,8568,1,2,0:0:0:0:
475,192,8568,1,0,0:0:0:0:
256,192,8568,1,0,0:0:0:0:
182,192,8735,1,2,0:0:0:0:
329,192,8735,1,0,0:0:0:0:
36,192,8901,1,0,0:0:0:0:
475,192,8901,1,0,0:0:0:0:
192,192,8901,1,2,0:0:0:0:
320,192,8901,1,4,0:0:0:0:
36,192,9235,1,0,0:0:0:0:
475,192,9235,1,0,0:0:0:0:
320,192,9235,1,4,0:0:0:0:
192,192,9235,1,2,0:0:0:0:
256,192,9401,1,0,0:0:0:0:
182,192,9568,1,2,0:0:0:0:
329,192,9568,1,4,0:0:0:0:
109,192,9568,1,0,0:0:0:0:
402,192,9568,1,0,0:0:0:0:
182,192,9901,1,2,0:0:0:0:
402,192,9901,1,4,0:0:0:0:
320,192,9901,1,0,0:0:0:0:
36,192,9901,1,0,0:0:0:0:
320,192,10068,1,4,0:0:0:0:
109,192,10068,1,2,0:0:0:0:
448,192,10068,1,0,0:0:0:0:
192,192,10068,1,0,0:0:0:0:
329,192,11235,1,0,0:0:0:0:
109,192,11235,1,0,0:0:0:0:
402,192,11401,1,0,0:0:0:0:
182,192,11401,1,0,0:0:0:0:
329,192,11568,1,2,0:0:0:0:
475,192,11568,1,4,0:0:0:0:
36,192,11568,1,0,0:0:0:0:
402,192,11735,1,0,0:0:0:0:
109,192,11735,1,0,0:0:0:0:
182,192,11901,1,0,0:0:0:0:
256,192,11901,1,0,0:0:0:0:
475,192,12068,1,0,0:0:0:0:
329,192,12068,1,0,0:0:0:0:
36,192,12235,1,0,0:0:0:0:
256,192,12235,1,0,0:0:0:0:
109,192,12401,1,0,0:0:0:0:
402,192,12401,1,0,0:0:0:0:
36,192,12568,1,0,0:0:0:0:
329,192,12568,1,0,0:0:0:0:
256,192,12735,1,0,0:0:0:0:
475,192,12735,1,0,0:0:0:0:
182,192,12901,1,0,0:0:0:0:
402,192,12901,1,0,0:0:0:0:
329,192,13068,1,0,0:0:0:0:
36,192,13068,1,0,0:0:0:0:
402,192,13235,1,0,0:0:0:0:
109,192,13235,1,0,0:0:0:0:
329,192,13401,1,0,0:0:0:0:
182,192,13401,1,0,0:0:0:0:
475,192,13568,1,0,0:0:0:0:
109,192,13568,1,0,0:0:0:0:
182,192,13735,1,0,0:0:0:0:
402,192,13735,1,0,0:0:0:0:
256,192,13901,1,0,0:0:0:0:
36,192,13901,1,0,0:0:0:0:
109,192,14068,1,0,0:0:0:0:
329,192,14068,1,0,0:0:0:0:
475,192,14235,1,0,0:0:0:0:
182,192,14235,1,0,0:0:0:0:
256,192,14401,1,0,0:0:0:0:
402,192,14401,1,0,0:0:0:0:
329,192,14568,1,0,0:0:0:0:
109,192,14568,1,0,0:0:0:0:
36,192,14735,1,0,0:0:0:0:
182,192,14735,1,0,0:0:0:0:
475,192,14901,1,0,0:0:0:0:
256,192,14901,1,0,0:0:0:0:
329,192,15068,1,0,0:0:0:0:
109,192,15068,1,0,0:0:0:0:
182,192,15235,1,0,0:0:0:0:
475,192,15235,1,0,0:0:0:0:
402,192,15401,1,0,0:0:0:0:
36,192,15401,1,0,0:0:0:0:
109,192,15568,1,0,0:0:0:0:
329,192,15568,1,0,0:0:0:0:
256,192,15735,1,0,0:0:0:0:
475,192,15735,1,0,0:0:0:0:
36,192,15901,1,0,0:0:0:0:
402,192,15901,1,0,0:0:0:0:
109,192,16068,1,0,0:0:0:0:
329,192,16068,1,0,0:0:0:0:
182,192,16235,1,0,0:0:0:0:
475,192,16235,1,0,0:0:0:0:
402,192,16401,1,0,0:0:0:0:
256,192,16401,1,0,0:0:0:0:
329,192,16568,1,0,0:0:0:0:
109,192,16568,1,0,0:0:0:0:
36,192,16735,1,0,0:0:0:0:
256,192,16735,1,0,0:0:0:0:
182,192,16901,1,2,0:0:0:0:
329,192,16901,1,4,0:0:0:0:
475,192,16901,1,0,0:0:0:0:
36,192,16901,1,0,0:0:0:0:
109,192,17068,1,0,0:0:0:0:
402,192,17068,1,0,0:0:0:0:
329,192,17235,1,0,0:0:0:0:
36,192,17235,1,0,0:0:0:0:
256,192,17401,1,0,0:0:0:0:
109,192,17401,1,0,0:0:0:0:
475,192,17568,1,0,0:0:0:0:
329,192,17568,1,0,0:0:0:0:
402,192,17735,1,0,0:0:0:0:
109,192,17735,1,0,0:0:0:0:
329,192,17901,1,0,0:0:0:0:
36,192,17901,1,0,0:0:0:0:
256,192,18068,1,0,0:0:0:0:
109,192,18068,1,0,0:0:0:0:
475,192,18235,1,0,0:0:0:0:
329,192,18235,1,4,0:0:0:0:
36,192,18235,1,0,0:0:0:0:
182,192,18235,1,2,0:0:0:0:
402,192,18401,1,0,0:0:0:0:
182,192,18401,1,0,0:0:0:0:
329,192,18568,1,0,0:0:0:0:
36,192,18568,1,0,0:0:0:0:
109,192,18735,1,0,0:0:0:0:
475,192,18735,1,0,0:0:0:0:
329,192,18901,1,0,0:0:0:0:
182,192,18901,1,0,0:0:0:0:
402,192,19068,1,0,0:0:0:0:
109,192,19068,1,0,0:0:0:0:
256,192,19235,1,0,0:0:0:0:
36,192,19235,1,0,0:0:0:0:
182,192,19401,1,0,0:0:0:0:
329,192,19401,1,0,0:0:0:0:
36,192,19568,1,0,0:0:0:0:
402,192,19568,1,4,0:0:0:0:
256,192,19735,1,0,0:0:0:0:
182,192,19818,1,0,0:0:0:0:
448,192,19901,1,0,0:0:0:0:
320,192,19901,1,4,0:0:0:0:
109,192,19901,1,2,0:0:0:0:
192,192,20068,1,0,0:0:0:0:
329,192,20151,1,0,0:0:0:0:
36,192,20235,1,0,0:0:0:0:
192,192,20235,1,2,0:0:0:0:
402,192,20235,1,4,0:0:0:0:
329,192,20401,1,2,0:0:0:0:
182,192,20485,1,2,0:0:0:0:
402,192,20568,1,2,0:0:0:0:
109,192,20651,1,2,0:0:0:0:
475,192,20735,1,2,0:0:0:0:
36,192,20818,1,2,0:0:0:0:
256,192,20901,1,8,0:0:0:0:
109,192,21735,128,0,21901:0:0:0:0:
402,192,21735,128,0,21901:0:0:0:0:
182,192,21901,128,0,22151:0:0:0:0:
329,192,21901,128,0,22151:0:0:0:0:
402,192,22068,128,0,22151:0:0:0:0:
109,192,22068,128,0,22151:0:0:0:0:
64,192,22235,1,4,0:0:0:0:
320,192,22235,1,2,0:0:0:0:
448,192,22235,128,0,22401:0:0:0:0:
329,192,22401,1,0,0:0:0:0:
182,192,22401,1,0,0:0:0:0:
182,192,22568,128,2,22735:0:0:0:0:
402,192,22568,1,8,0:0:0:0:
36,192,22735,1,0,0:0:0:0:
256,192,22735,1,0,0:0:0:0:
475,192,22901,128,0,23235:0:0:0:0:
109,192,22901,1,2,0:0:0:0:
329,192,23068,1,0,0:0:0:0:
182,192,23068,1,0,0:0:0:0:
256,192,23235,1,8,0:0:0:0:
36,192,23235,1,2,0:0:0:0:
182,192,23401,1,0,0:0:0:0:
402,192,23401,1,0,0:0:0:0:
36,192,23568,128,0,23735:0:0:0:0:
475,192,23568,1,2,0:0:0:0:
182,192,23735,1,0,0:0:0:0:
402,192,23735,1,0,0:0:0:0:
36,192,23901,128,8,24068:0:0:0:0:
329,192,23901,1,2,0:0:0:0:
182,192,24068,128,0,24235:0:0:0:0:
475,192,24068,1,0,0:0:0:0:
36,192,24235,128,0,24568:0:0:0:0:
329,192,24235,1,2,0:0:0:0:
402,192,24401,1,0,0:0:0:0:
256,192,24401,1,0,0:0:0:0:
182,192,24568,128,8,24735:0:0:0:0:
475,192,24568,1,2,0:0:0:0:
329,192,24735,128,0,24901:0:0:0:0:
109,192,24735,1,0,0:0:0:0:
475,192,24901,128,2,25068:0:0:0:0:
36,192,24901,1,0,0:0:0:0:
109,192,25068,1,0,0:0:0:0:
256,192,25068,1,0,0:0:0:0:
182,192,25235,128,2,25401:0:0:0:0:
402,192,25235,1,8,0:0:0:0:
329,192,25401,128,0,25568:0:0:0:0:
36,192,25401,1,0,0:0:0:0:
475,192,25568,128,0,25735:0:0:0:0:
182,192,25568,1,2,0:0:0:0:
36,192,25735,128,0,25818:0:0:0:0:
256,192,25735,1,0,0:0:0:0:
182,192,25818,1,0,0:0:0:0:
329,192,25860,1,0,0:0:0:0:
109,192,25901,1,2,0:0:0:0:
448,192,25901,128,8,26068:0:0:0:0:
182,192,26068,128,0,26235:0:0:0:0:
448,192,26235,128,0,26401:0:0:0:0:
109,192,26235,1,2,0:0:0:0:
36,192,26401,1,0,0:0:0:0:
256,192,26401,1,0,0:0:0:0:
182,192,26568,128,2,26735:0:0:0:0:
402,192,26568,1,8,0:0:0:0:
475,192,26735,1,0,0:0:0:0:
256,192,26735,1,0,0:0:0:0:
36,192,26901,128,0,27068:0:0:0:0:
329,192,26901,1,2,0:0:0:0:
182,192,27068,128,0,27235:0:0:0:0:
475,192,27068,1,0,0:0:0:0:
329,192,27235,128,2,27401:0:0:0:0:
109,192,27235,1,8,0:0:0:0:
192,192,27401,128,0,27568:0:0:0:0:
36,192,27401,1,2,0:0:0:0:
402,192,27568,1,0,0:0:0:0:
64,192,27568,128,2,27735:0:0:0:0:
329,192,27735,1,0,0:0:0:0:
64,192,27901,128,8,28068:0:0:0:0:
182,192,27901,1,2,0:0:0:0:
475,192,28068,1,0,0:0:0:0:
192,192,28068,128,0,28235:0:0:0:0:
109,192,28235,128,2,28568:0:0:0:0:
329,192,28235,1,0,0:0:0:0:
475,192,28401,1,0,0:0:0:0:
256,192,28401,1,0,0:0:0:0:
402,192,28568,1,8,0:0:0:0:
182,192,28568,1,2,0:0:0:0:
36,192,28735,1,0,0:0:0:0:
329,192,28735,1,0,0:0:0:0:
192,192,28901,128,0,29235:0:0:0:0:
109,192,28901,1,2,0:0:0:0:
36,192,29068,1,0,0:0:0:0:
256,192,29068,1,0,0:0:0:0:
109,192,29235,128,2,29401:0:0:0:0:
475,192,29235,1,8,0:0:0:0:
192,192,29401,128,0,29568:0:0:0:0:
256,192,29401,1,0,0:0:0:0:
36,192,29568,128,0,29735:0:0:0:0:
475,192,29568,1,2,0:0:0:0:
256,192,29735,1,0,0:0:0:0:
182,192,29735,128,0,29901:0:0:0:0:
329,192,29901,128,8,30068:0:0:0:0:
475,192,29901,1,2,0:0:0:0:
475,192,30068,128,0,30235:0:0:0:0:
109,192,30068,1,0,0:0:0:0:
256,192,30235,128,0,30568:0:0:0:0:
36,192,30235,1,2,0:0:0:0:
182,192,30401,1,0,0:0:0:0:
475,192,30401,1,0,0:0:0:0:
192,192,30568,128,8,30735:0:0:0:0:
402,192,30568,1,2,0:0:0:0:
320,192,30735,128,0,30901:0:0:0:0:
109,192,30735,1,0,0:0:0:0:
448,192,30901,128,2,31068:0:0:0:0:
64,192,30901,1,0,0:0:0:0:
64,192,31068,128,0,31151:0:0:0:0:
182,192,31151,1,0,0:0:0:0:
256,192,31193,1,0,0:0:0:0:
402,192,31235,128,2,31401:0:0:0:0:
256,192,31401,128,0,31568:0:0:0:0:
109,192,31401,1,2,0:0:0:0:
36,192,31568,128,4,31901:0:0:0:0:
475,192,31568,1,0,0:0:0:0:
182,192,31568,1,2,0:0:0:0:
402,192,31735,1,0,0:0:0:0:
329,192,31735,1,0,0:0:0:0:
256,192,31901,128,0,32068:0:0:0:0:
475,192,31901,1,2,0:0:0:0:
182,192,31901,1,4,0:0:0:0:
448,192,32068,128,0,32235:0:0:0:0:
109,192,32068,1,0,0:0:0:0:
192,192,32235,128,0,32568:0:0:0:0:
36,192,32235,1,4,0:0:0:0:
320,192,32235,1,2,0:0:0:0:
109,192,32318,1,2,0:0:0:0:
402,192,32401,1,2,0:0:0:0:
109,192,32485,1,2,0:0:0:0:
64,192,32568,128,0,32735:0:0:0:0:
475,192,32568,1,4,0:0:0:0:
256,192,32735,128,0,32901:0:0:0:0:
182,192,32735,1,2,0:0:0:0:
109,192,32818,1,2,0:0:0:0:
448,192,32901,128,2,33068:0:0:0:0:
64,192,32901,1,0,0:0:0:0:
109,192,33068,1,0,0:0:0:0:
182,192,33068,1,0,0:0:0:0:
329,192,33235,128,2,33401:0:0:0:0:
475,192,33235,1,8,0:0:0:0:
182,192,33401,128,0,33568:0:0:0:0:
402,192,33401,1,0,0:0:0:0:
64,192,33568,128,0,33901:0:0:0:0:
475,192,33568,1,2,0:0:0:0:
448,192,33735,1,0,0:0:0:0:
329,192,33735,1,0,0:0:0:0:
402,192,33901,1,2,0:0:0:0:
182,192,34068,1,0,0:0:0:0:
329,192,34068,1,0,0:0:0:0:
402,192,34235,128,0,34401:0:0:0:0:
36,192,34235,1,2,0:0:0:0:
109,192,34401,1,0,0:0:0:0:
256,192,34401,1,0,0:0:0:0:
64,192,34568,128,8,34735:0:0:0:0:
182,192,34568,1,2,0:0:0:0:
256,192,34735,128,0,34901:0:0:0:0:
475,192,34735,1,0,0:0:0:0:
64,192,34901,128,0,35235:0:0:0:0:
402,192,35068,1,0,0:0:0:0:
329,192,35068,1,0,0:0:0:0:
475,192,35235,128,8,35401:0:0:0:0:
182,192,35235,1,2,0:0:0:0:
256,192,35401,128,0,35568:0:0:0:0:
109,192,35401,1,0,0:0:0:0:
36,192,35568,128,2,35735:0:0:0:0:
402,192,35568,1,0,0:0:0:0:
475,192,35735,1,0,0:0:0:0:
182,192,35735,1,0,0:0:0:0:
192,192,35901,128,8,36068:0:0:0:0:
329,192,35901,1,2,0:0:0:0:
256,192,36068,128,0,36235:0:0:0:0:
36,192,36068,1,0,0:0:0:0:
448,192,36235,128,0,36401:0:0:0:0:
182,192,36235,1,2,0:0:0:0:
64,192,36401,128,0,36485:0:0:0:0:
182,192,36526,1,0,0:0:0:0:
320,192,36568,128,2,36735:0:0:0:0:
192,192,36735,128,0,36901:0:0:0:0:
109,192,36735,1,0,0:0:0:0:
36,192,36901,128,0,37235:0:0:0:0:
402,192,36901,1,2,0:0:0:0:
475,192,37068,1,0,0:0:0:0:
182,192,37068,1,0,0:0:0:0:
320,192,37235,128,2,37568:0:0:0:0:
448,192,37235,1,8,0:0:0:0:
109,192,37401,1,0,0:0:0:0:
402,192,37401,1,0,0:0:0:0:
448,192,37568,128,0,37901:0:0:0:0:
182,192,37568,1,2,0:0:0:0:
329,192,37735,1,0,0:0:0:0:
36,192,37735,1,0,0:0:0:0:
109,192,37901,128,2,38068:0:0:0:0:
320,192,38068,128,0,38235:0:0:0:0:
448,192,38235,128,0,38401:0:0:0:0:
36,192,38235,1,2,0:0:0:0:
182,192,38235,1,4,0:0:0:0:
109,192,38401,1,0,0:0:0:0:
256,192,38568,128,2,38735:0:0:0:0:
402,192,38568,1,8,0:0:0:0:
192,192,38735,128,0,38901:0:0:0:0:
475,192,38735,1,0,0:0:0:0:
448,192,38901,128,0,39235:0:0:0:0:
36,192,38901,1,2,0:0:0:0:
256,192,39068,1,0,0:0:0:0:
182,192,39068,1,0,0:0:0:0:
36,192,39235,1,8,0:0:0:0:
329,192,39401,1,0,0:0:0:0:
182,192,39401,1,2,0:0:0:0:
109,192,39568,1,4,0:0:0:0:
320,192,39568,1,2,0:0:0:0:
192,192,39568,128,0,39735:0:0:0:0:
475,192,39735,1,0,0:0:0:0:
329,192,39735,1,0,0:0:0:0:
182,192,39901,128,8,40068:0:0:0:0:
402,192,39901,1,2,0:0:0:0:
329,192,40068,128,0,40235:0:0:0:0:
36,192,40068,1,0,0:0:0:0:
448,192,40235,128,0,40568:0:0:0:0:
109,192,40235,1,2,0:0:0:0:
182,192,40401,1,0,0:0:0:0:
329,192,40568,1,2,0:0:0:0:
36,192,40568,128,8,40735:0:0:0:0:
402,192,40735,1,2,0:0:0:0:
256,192,40735,128,0,40901:0:0:0:0:
182,192,40901,1,2,0:0:0:0:
36,192,40901,1,0,0:0:0:0:
475,192,40901,128,4,41068:0:0:0:0:
329,192,41068,1,2,0:0:0:0:
182,192,41068,1,0,0:0:0:0:
402,192,41235,1,2,0:0:0:0:
36,192,41235,1,0,0:0:0:0:
192,192,41235,128,8,41401:0:0:0:0:
256,192,41401,128,0,41568:0:0:0:0:
475,192,41401,1,2,0:0:0:0:
402,192,41568,128,0,41735:0:0:0:0:
36,192,41568,1,0,0:0:0:0:
192,192,41568,1,2,0:0:0:0:
36,192,41735,128,0,41818:0:0:0:0:
256,192,41735,1,2,0:0:0:0:
182,192,41818,1,0,0:0:0:0:
329,192,41860,1,0,0:0:0:0:
475,192,41901,128,8,42068:0:0:0:0:
109,192,41901,1,2,0:0:0:0:
182,192,41985,1,2,0:0:0:0:
320,192,42068,128,0,42235:0:0:0:0:
182,192,42151,1,2,0:0:0:0:
192,192,42235,128,2,42401:0:0:0:0:
109,192,42235,1,0,0:0:0:0:
475,192,42235,1,4,0:0:0:0:
256,192,42568,128,2,42735:0:0:0:0:
182,192,42568,1,4,0:0:0:0:
475,192,42568,1,0,0:0:0:0:
475,192,42901,128,4,43068:0:0:0:0:
329,192,42901,1,2,0:0:0:0:
109,192,42901,1,0,0:0:0:0:
475,192,43568,1,2,0:0:0:0:
109,192,43568,1,0,0:0:0:0:
320,192,43568,1,4,0:0:0:0:
192,192,43568,1,0,0:0:0:0:
182,192,43735,1,0,0:0:0:0:
256,192,43901,1,2,0:0:0:0:
475,192,43901,1,0,0:0:0:0:
109,192,44068,1,0,0:0:0:0:
329,192,44235,1,2,0:0:0:0:
36,192,44235,1,0,0:0:0:0:
256,192,44401,1,0,0:0:0:0:
109,192,44568,1,0,0:0:0:0:
402,192,44568,1,2,0:0:0:0:
182,192,44735,1,0,0:0:0:0:
256,192,44901,1,2,0:0:0:0:
475,192,44901,1,0,0:0:0:0:
109,192,45068,1,0,0:0:0:0:
329,192,45068,1,0,0:0:0:0:
402,192,45235,1,2,0:0:0:0:
36,192,45235,1,0,0:0:0:0:
475,192,45401,1,0,0:0:0:0:
182,192,45401,1,0,0:0:0:0:
109,192,45568,1,0,0:0:0:0:
329,192,45568,1,2,0:0:0:0:
402,192,45735,1,0,0:0:0:0:
36,192,45735,1,0,0:0:0:0:
182,192,45901,1,2,0:0:0:0:
475,192,45901,1,0,0:0:0:0:
402,192,46068,1,0,0:0:0:0:
329,192,46235,1,0,0:0:0:0:
36,192,46235,1,2,0:0:0:0:
256,192,46401,1,0,0:0:0:0:
109,192,46568,1,2,0:0:0:0:
402,192,46568,1,0,0:0:0:0:
182,192,46735,1,0,0:0:0:0:
256,192,46901,1,2,0:0:0:0:
475,192,46901,1,0,0:0:0:0:
402,192,47068,1,0,0:0:0:0:
329,192,47235,1,2,0:0:0:0:
36,192,47235,1,0,0:0:0:0:
182,192,47401,1,0,0:0:0:0:
475,192,47401,1,0,0:0:0:0:
402,192,47568,1,2,0:0:0:0:
109,192,47568,1,0,0:0:0:0:
256,192,47735,1,0,0:0:0:0:
36,192,47735,1,0,0:0:0:0:
182,192,47901,1,2,0:0:0:0:
475,192,47901,1,0,0:0:0:0:
402,192,48068,1,0,0:0:0:0:
109,192,48068,1,0,0:0:0:0:
256,192,48235,1,2,0:0:0:0:
475,192,48235,1,0,0:0:0:0:
36,192,48401,1,0,0:0:0:0:
109,192,48568,1,2,0:0:0:0:
475,192,48568,1,0,0:0:0:0:
475,192,48735,1,0,0:0:0:0:
256,192,48735,1,2,0:0:0:0:
475,192,48901,1,0,0:0:0:0:
329,192,48901,1,2,0:0:0:0:
36,192,48901,1,0,0:0:0:0:
182,192,49068,1,0,0:0:0:0:
109,192,49235,1,2,0:0:0:0:
402,192,49235,1,8,0:0:0:0:
475,192,49401,1,0,0:0:0:0:
329,192,49568,1,2,0:0:0:0:
36,192,49568,1,0,0:0:0:0:
182,192,49735,1,0,0:0:0:0:
109,192,49901,1,2,0:0:0:0:
475,192,49901,1,8,0:0:0:0:
36,192,50068,1,0,0:0:0:0:
402,192,50235,1,0,0:0:0:0:
329,192,50235,1,2,0:0:0:0:
182,192,50401,1,0,0:0:0:0:
109,192,50401,1,0,0:0:0:0:
36,192,50568,1,8,0:0:0:0:
475,192,50568,1,2,0:0:0:0:
402,192,50735,1,0,0:0:0:0:
182,192,50735,1,0,0:0:0:0:
109,192,50901,1,2,0:0:0:0:
329,192,50901,1,0,0:0:0:0:
402,192,51068,1,0,0:0:0:0:
256,192,51068,1,8,0:0:0:0:
475,192,51235,1,8,0:0:0:0:
36,192,51235,1,2,0:0:0:0:
109,192,51401,1,0,0:0:0:0:
402,192,51568,1,0,0:0:0:0:
329,192,51568,1,2,0:0:0:0:
256,192,51735,1,0,0:0:0:0:
475,192,51901,1,8,0:0:0:0:
109,192,51901,1,2,0:0:0:0:
402,192,52068,1,0,0:0:0:0:
256,192,52235,1,2,0:0:0:0:
36,192,52235,1,0,0:0:0:0:
329,192,52401,1,0,0:0:0:0:
36,192,52568,1,8,0:0:0:0:
475,192,52568,1,2,0:0:0:0:
109,192,52735,1,0,0:0:0:0:
256,192,52735,1,0,0:0:0:0:
448,192,52901,1,2,0:0:0:0:
64,192,52901,1,4,0:0:0:0:
192,192,52901,128,0,53068:0:0:0:0:
320,192,52901,128,0,53068:0:0:0:0:
64,192,53068,128,0,53235:0:0:0:0:
448,192,53068,128,0,53235:0:0:0:0:
182,192,53235,128,0,53401:0:0:0:0:
329,192,53235,128,0,53401:0:0:0:0:
448,192,53401,128,0,53568:0:0:0:0:
36,192,53568,1,0,0:0:0:0:
109,192,53651,1,0,0:0:0:0:
402,192,53651,1,2,0:0:0:0:
329,192,53735,1,2,0:0:0:0:
182,192,53735,1,0,0:0:0:0:
320,192,53901,1,2,0:0:0:0:
192,192,53901,1,0,0:0:0:0:
109,192,53985,1,0,0:0:0:0:
402,192,53985,1,2,0:0:0:0:
182,192,54068,1,0,0:0:0:0:
329,192,54068,1,2,0:0:0:0:
402,192,54151,1,2,0:0:0:0:
109,192,54151,1,0,0:0:0:0:
475,192,54235,1,2,0:0:0:0:
36,192,54235,1,0,0:0:0:0:
256,192,54235,1,4,0:0:0:0:
109,192,54401,1,0,0:0:0:0:
329,192,54401,1,0,0:0:0:0:
182,192,54568,1,2,0:0:0:0:
402,192,54568,1,8,0:0:0:0:
256,192,54735,1,0,0:0:0:0:
475,192,54735,1,0,0:0:0:0:
36,192,54901,1,0,0:0:0:0:
329,192,54985,1,0,0:0:0:0:
109,192,55068,1,0,0:0:0:0:
256,192,55235,1,2,0:0:0:0:
475,192,55235,1,8,0:0:0:0:
182,192,55401,1,0,0:0:0:0:
402,192,55401,1,0,0:0:0:0:
329,192,55568,1,0,0:0:0:0:
36,192,55568,1,2,0:0:0:0:
182,192,55735,1,0,0:0:0:0:
475,192,55735,1,0,0:0:0:0:
329,192,55901,1,8,0:0:0:0:
109,192,55901,1,2,0:0:0:0:
182,192,56068,1,0,0:0:0:0:
402,192,56068,1,0,0:0:0:0:
256,192,56235,1,2,0:0:0:0:
36,192,56235,1,0,0:0:0:0:
475,192,56318,1,0,0:0:0:0:
256,192,56401,1,0,0:0:0:0:
109,192,56568,1,8,0:0:0:0:
402,192,56568,1,2,0:0:0:0:
182,192,56735,1,0,0:0:0:0:
475,192,56735,1,0,0:0:0:0:
256,192,56901,1,2,0:0:0:0:
36,192,56901,1,0,0:0:0:0:
329,192,57068,1,0,0:0:0:0:
109,192,57068,1,0,0:0:0:0:
182,192,57235,1,2,0:0:0:0:
475,192,57235,1,8,0:0:0:0:
256,192,57401,1,0,0:0:0:0:
402,192,57401,1,0,0:0:0:0:
36,192,57568,1,0,0:0:0:0:
182,192,57568,1,2,0:0:0:0:
475,192,57651,1,0,0:0:0:0:
182,192,57735,1,0,0:0:0:0:
109,192,57901,1,2,0:0:0:0:
256,192,57901,1,8,0:0:0:0:
36,192,58068,1,0,0:0:0:0:
402,192,58068,1,0,0:0:0:0:
256,192,58235,1,2,0:0:0:0:
475,192,58235,1,0,0:0:0:0:
109,192,58401,1,0,0:0:0:0:
329,192,58401,1,0,0:0:0:0:
402,192,58568,1,2,0:0:0:0:
36,192,58568,1,8,0:0:0:0:
182,192,58735,1,0,0:0:0:0:
475,192,58735,1,0,0:0:0:0:
36,192,58901,1,0,0:0:0:0:
256,192,58901,1,2,0:0:0:0:
475,192,58985,1,0,0:0:0:0:
256,192,59068,1,0,0:0:0:0:
182,192,59235,1,2,0:0:0:0:
36,192,59235,1,8,0:0:0:0:
36,192,59401,1,0,0:0:0:0:
256,192,59401,1,2,0:0:0:0:
109,192,59568,1,0,0:0:0:0:
329,192,59568,1,2,0:0:0:0:
475,192,59568,1,4,0:0:0:0:
182,192,59735,1,0,0:0:0:0:
402,192,59901,1,8,0:0:0:0:
36,192,59901,1,2,0:0:0:0:
182,192,60068,1,0,0:0:0:0:
475,192,60068,1,0,0:0:0:0:
329,192,60235,1,0,0:0:0:0:
109,192,60235,1,2,0:0:0:0:
475,192,60318,1,0,0:0:0:0:
329,192,60401,1,0,0:0:0:0:
256,192,60568,1,2,0:0:0:0:
36,192,60568,1,8,0:0:0:0:
182,192,60735,1,0,0:0:0:0:
475,192,60735,1,0,0:0:0:0:
448,192,60901,1,4,0:0:0:0:
36,192,60901,1,0,0:0:0:0:
182,192,61068,1,0,0:0:0:0:
329,192,61068,1,0,0:0:0:0:
475,192,61235,1,2,0:0:0:0:
256,192,61235,1,8,0:0:0:0:
402,192,61401,1,0,0:0:0:0:
109,192,61401,1,0,0:0:0:0:
256,192,61568,1,2,0:0:0:0:
36,192,61568,1,0,0:0:0:0:
475,192,61651,1,0,0:0:0:0:
256,192,61735,1,0,0:0:0:0:
109,192,61901,1,2,0:0:0:0:
402,192,61901,1,8,0:0:0:0:
329,192,62068,1,0,0:0:0:0:
182,192,62068,1,2,0:0:0:0:
36,192,62235,1,0,0:0:0:0:
402,192,62235,1,2,0:0:0:0:
475,192,62401,1,0,0:0:0:0:
192,192,62401,1,0,0:0:0:0:
109,192,62401,1,4,0:0:0:0:
475,192,62568,1,0,0:0:0:0:
36,192,62568,1,0,0:0:0:0:
320,192,62568,1,2,0:0:0:0:
256,192,62735,1,0,0:0:0:0:
109,192,62901,1,0,0:0:0:0:
182,192,62901,1,2,0:0:0:0:
329,192,62901,1,4,0:0:0:0:
402,192,62901,1,0,0:0:0:0:
109,192,63068,1,0,0:0:0:0:
182,192,63068,1,2,0:0:0:0:
402,192,63068,1,0,0:0:0:0:
329,192,63068,1,4,0:0:0:0:
109,192,63235,1,0,0:0:0:0:
182,192,63235,1,2,0:0:0:0:
329,192,63235,1,4,0:0:0:0:
402,192,63235,1,0,0:0:0:0:
256,192,63401,1,0,0:0:0:0:
475,192,63568,1,0,0:0:0:0:
329,192,63568,1,4,0:0:0:0:
182,192,63568,1,2,0:0:0:0:
36,192,63568,1,0,0:0:0:0:
182,192,63735,1,2,0:0:0:0:
36,192,63735,1,0,0:0:0:0:
475,192,63735,1,0,0:0:0:0:
329,192,63735,1,4,0:0:0:0:
475,192,63901,1,0,0:0:0:0:
329,192,63901,1,4,0:0:0:0:
182,192,63901,1,2,0:0:0:0:
36,192,63901,1,0,0:0:0:0:
256,192,64068,1,0,0:0:0:0:
36,192,64235,1,0,0:0:0:0:
320,192,64235,1,2,0:0:0:0:
475,192,64318,1,0,0:0:0:0:
256,192,64401,1,0,0:0:0:0:
402,192,64485,1,0,0:0:0:0:
182,192,64568,1,0,0:0:0:0:
329,192,64651,1,0,0:0:0:0:
109,192,64735,1,0,0:0:0:0:
256,192,64818,1,0,0:0:0:0:
64,192,64901,1,0,0:0:0:0:
448,192,64901,128,0,66235:0:0:0:0:
182,192,65068,1,2,0:0:0:0:
329,192,65235,1,2,0:0:0:0:
109,192,65401,1,2,0:0:0:0:
36,192,65568,1,0,0:0:0:0:
256,192,65568,1,2,0:0:0:0:
182,192,65901,1,2,0:0:0:0:
36,192,66068,1,2,0:0:0:0:
192,192,66235,1,2,0:0:0:0:
320,192,66235,128,0,66901:0:0:0:0:
109,192,66401,1,2,0:0:0:0:
448,192,66568,1,2,0:0:0:0:
182,192,66735,1,2,0:0:0:0:
475,192,66901,1,2,0:0:0:0:
64,192,66901,128,0,67568:0:0:0:0:
329,192,67068,1,2,0:0:0:0:
320,192,67235,1,2,0:0:0:0:
256,192,67401,1,2,0:0:0:0:
475,192,67568,1,2,0:0:0:0:
329,192,67568,1,0,0:0:0:0:
182,192,67735,1,2,0:0:0:0:
256,192,67901,1,2,0:0:0:0:
109,192,68068,1,2,0:0:0:0:
329,192,68235,1,2,0:0:0:0:
36,192,68235,1,0,0:0:0:0:
182,192,68401,1,2,0:0:0:0:
256,192,68568,1,2,0:0:0:0:
402,192,68735,1,2,0:0:0:0:
182,192,68901,1,2,0:0:0:0:
475,192,68901,1,0,0:0:0:0:
329,192,69068,1,2,0:0:0:0:
475,192,69235,1,2,0:0:0:0:
256,192,69401,1,2,0:0:0:0:
109,192,69401,1,0,0:0:0:0:
402,192,69568,1,2,0:0:0:0:
36,192,69568,1,0,0:0:0:0:
182,192,69735,1,2,0:0:0:0:
329,192,69735,1,0,0:0:0:0:
256,192,69901,1,2,0:0:0:0:
475,192,69901,1,0,0:0:0:0:
109,192,70068,1,2,0:0:0:0:
182,192,70235,1,2,0:0:0:0:
448,192,70235,128,0,71568:0:0:0:0:
36,192,70401,1,2,0:0:0:0:
256,192,70568,1,2,0:0:0:0:
109,192,70735,1,2,0:0:0:0:
329,192,70901,1,2,0:0:0:0:
36,192,70901,1,0,0:0:0:0:
182,192,71068,1,2,0:0:0:0:
192,192,71235,1,2,0:0:0:0:
256,192,71401,1,2,0:0:0:0:
36,192,71568,1,2,0:0:0:0:
320,192,71568,128,0,72235:0:0:0:0:
182,192,71735,1,2,0:0:0:0:
109,192,71901,1,2,0:0:0:0:
192,192,72068,1,2,0:0:0:0:
36,192,72235,1,2,0:0:0:0:
182,192,72235,128,0,72901:0:0:0:0:
402,192,72401,1,2,0:0:0:0:
256,192,72568,1,2,0:0:0:0:
475,192,72735,1,2,0:0:0:0:
329,192,72901,1,2,0:0:0:0:
36,192,72901,1,0,0:0:0:0:
109,192,73068,1,2,0:0:0:0:
402,192,73235,1,2,0:0:0:0:
182,192,73401,1,2,0:0:0:0:
36,192,73568,1,2,0:0:0:0:
475,192,73568,1,0,0:0:0:0:
256,192,73735,1,2,0:0:0:0:
109,192,73901,1,2,0:0:0:0:
402,192,74068,1,2,0:0:0:0:
36,192,74235,1,0,0:0:0:0:
256,192,74235,1,2,0:0:0:0:
182,192,74401,1,2,0:0:0:0:
402,192,74568,1,2,0:0:0:0:
109,192,74735,1,0,0:0:0:0:
329,192,74735,1,2,0:0:0:0:
182,192,74901,1,0,0:0:0:0:
475,192,74901,1,2,0:0:0:0:
36,192,75068,1,0,0:0:0:0:
402,192,75068,1,2,0:0:0:0:
329,192,75235,1,2,0:0:0:0:
109,192,75235,1,0,0:0:0:0:
182,192,75401,1,2,0:0:0:0:
36,192,75568,1,2,0:0:0:0:
192,192,75568,128,0,76901:0:0:0:0:
256,192,75735,1,2,0:0:0:0:
109,192,75901,1,2,0:0:0:0:
329,192,76068,1,2,0:0:0:0:
36,192,76235,1,2,0:0:0:0:
402,192,76235,1,0,0:0:0:0:
64,192,76401,1,2,0:0:0:0:
329,192,76568,1,2,0:0:0:0:
109,192,76735,1,2,0:0:0:0:
36,192,76901,1,2,0:0:0:0:
256,192,76901,128,0,77568:0:0:0:0:
402,192,77068,1,2,0:0:0:0:
109,192,77235,1,2,0:0:0:0:
475,192,77401,1,2,0:0:0:0:
182,192,77568,1,2,0:0:0:0:
64,192,77568,128,0,78235:0:0:0:0:
402,192,77735,1,2,0:0:0:0:
256,192,77901,1,2,0:0:0:0:
475,192,78068,1,2,0:0:0:0:
448,192,78235,1,2,0:0:0:0:
320,192,78235,1,0,0:0:0:0:
182,192,78401,1,2,0:0:0:0:
329,192,78568,1,2,0:0:0:0:
109,192,78735,1,2,0:0:0:0:
475,192,78901,1,2,0:0:0:0:
36,192,78901,1,0,0:0:0:0:
329,192,79068,1,2,0:0:0:0:
182,192,79235,1,2,0:0:0:0:
475,192,79401,1,2,0:0:0:0:
256,192,79568,1,2,0:0:0:0:
36,192,79568,1,0,0:0:0:0:
402,192,79735,1,2,0:0:0:0:
182,192,79901,1,2,0:0:0:0:
329,192,80068,1,0,0:0:0:0:
192,192,80068,1,2,0:0:0:0:
109,192,80235,1,2,0:0:0:0:
475,192,80235,1,0,0:0:0:0:
402,192,80401,1,0,0:0:0:0:
182,192,80401,1,2,0:0:0:0:
36,192,80568,1,2,0:0:0:0:
329,192,80568,1,0,0:0:0:0:
256,192,80735,1,2,0:0:0:0:
109,192,80901,1,0,0:0:0:0:
448,192,80901,128,0,82235:0:0:0:0:
329,192,81068,1,2,0:0:0:0:
36,192,81235,1,2,0:0:0:0:
256,192,81401,1,2,0:0:0:0:
109,192,81568,1,0,0:0:0:0:
256,192,81735,1,2,0:0:0:0:
36,192,81901,1,2,0:0:0:0:
182,192,82068,1,2,0:0:0:0:
36,192,82235,1,2,0:0:0:0:
329,192,82235,128,0,82901:0:0:0:0:
402,192,82401,1,2,0:0:0:0:
109,192,82568,1,2,0:0:0:0:
475,192,82735,1,2,0:0:0:0:
36,192,82901,1,2,0:0:0:0:
182,192,82901,128,0,83568:0:0:0:0:
402,192,83068,1,2,0:0:0:0:
109,192,83235,1,2,0:0:0:0:
475,192,83401,1,2,0:0:0:0:
402,192,83568,1,0,0:0:0:0:
320,192,83568,1,4,0:0:0:0:
109,192,83568,1,2,0:0:0:0:
109,192,83735,1,2,0:0:0:0:
320,192,83735,1,4,0:0:0:0:
402,192,83735,1,0,0:0:0:0:
402,192,83901,1,0,0:0:0:0:
256,192,83901,1,4,0:0:0:0:
36,192,83901,1,0,0:0:0:0:
475,192,84235,1,0,0:0:0:0:
64,192,84235,1,0,0:0:0:0:
256,192,84235,1,2,0:0:0:0:
256,192,84401,1,2,0:0:0:0:
64,192,84401,1,0,0:0:0:0:
475,192,84401,1,0,0:0:0:0:
109,192,84568,1,0,0:0:0:0:
256,192,84568,1,2,0:0:0:0:
402,192,84568,1,4,0:0:0:0:
36,192,84901,1,0,0:0:0:0:
320,192,84901,1,2,0:0:0:0:
475,192,84901,1,0,0:0:0:0:
36,192,85068,1,0,0:0:0:0:
182,192,85068,1,2,0:0:0:0:
475,192,85068,1,4,0:0:0:0:
182,192,85235,1,2,0:0:0:0:
109,192,85235,1,0,0:0:0:0:
329,192,85235,1,0,0:0:0:0:
402,192,85235,1,4,0:0:0:0:
109,192,85401,1,2,0:0:0:0:
320,192,85401,1,4,0:0:0:0:
475,192,85401,1,0,0:0:0:0:
475,192,85568,1,4,0:0:0:0:
36,192,85568,1,2,0:0:0:0:
182,192,85568,1,0,0:0:0:0:
475,192,86235,1,0,0:0:0:0:
192,192,86235,1,0,0:0:0:0:
109,192,86235,1,2,0:0:0:0:
475,192,86401,1,0,0:0:0:0:
182,192,86401,1,0,0:0:0:0:
109,192,86401,1,2,0:0:0:0:
320,192,86568,1,0,0:0:0:0:
402,192,86568,1,4,0:0:0:0:
36,192,86568,1,0,0:0:0:0:
402,192,86735,1,4,0:0:0:0:
329,192,86735,1,0,0:0:0:0:
109,192,86735,1,2,0:0:0:0:
475,192,86901,1,0,0:0:0:0:
256,192,86985,1,0,0:0:0:0:
402,192,87068,1,0,0:0:0:0:
182,192,87151,1,0,0:0:0:0:
329,192,87235,1,0,0:0:0:0:
109,192,87318,1,0,0:0:0:0:
256,192,87401,1,0,0:0:0:0:
36,192,87485,1,0,0:0:0:0:
402,192,87568,1,4,0:0:0:0:
192,192,87568,1,0,0:0:0:0:
329,192,87568,1,2,0:0:0:0:
109,192,87735,1,0,0:0:0:0:
256,192,87735,1,0,0:0:0:0:
475,192,87901,1,8,0:0:0:0:
36,192,87901,1,2,0:0:0:0:
256,192,88068,1,0,0:0:0:0:
329,192,88235,1,2,0:0:0:0:
36,192,88235,1,0,0:0:0:0:
182,192,88401,1,0,0:0:0:0:
475,192,88401,1,0,0:0:0:0:
402,192,88568,1,8,0:0:0:0:
36,192,88568,1,0,0:0:0:0:
256,192,88735,1,0,0:0:0:0:
475,192,88901,1,0,0:0:0:0:
182,192,88901,1,2,0:0:0:0:
402,192,89068,1,0,0:0:0:0:
36,192,89068,1,0,0:0:0:0:
109,192,89235,1,2,0:0:0:0:
329,192,89235,1,8,0:0:0:0:
475,192,89401,1,0,0:0:0:0:
256,192,89401,1,0,0:0:0:0:
36,192,89568,1,0,0:0:0:0:
329,192,89568,1,2,0:0:0:0:
109,192,89735,1,0,0:0:0:0:
402,192,89735,1,0,0:0:0:0:
182,192,89735,1,0,0:0:0:0:
256,192,89901,1,2,0:0:0:0:
475,192,89901,1,8,0:0:0:0:
182,192,89901,1,0,0:0:0:0:
329,192,90068,1,0,0:0:0:0:
36,192,90068,1,0,0:0:0:0:
109,192,90235,1,2,0:0:0:0:
402,192,90235,1,0,0:0:0:0:
475,192,90401,1,0,0:0:0:0:
182,192,90401,1,0,0:0:0:0:
329,192,90568,1,2,0:0:0:0:
109,192,90568,1,8,0:0:0:0:
36,192,90735,1,0,0:0:0:0:
256,192,90735,1,0,0:0:0:0:
402,192,90901,1,0,0:0:0:0:
182,192,90901,1,2,0:0:0:0:
329,192,91068,1,0,0:0:0:0:
475,192,91235,1,8,0:0:0:0:
109,192,91235,1,2,0:0:0:0:
182,192,91401,1,0,0:0:0:0:
402,192,91401,1,0,0:0:0:0:
36,192,91568,1,0,0:0:0:0:
256,192,91568,1,2,0:0:0:0:
182,192,91735,1,0,0:0:0:0:
475,192,91735,1,0,0:0:0:0:
109,192,91901,1,8,0:0:0:0:
402,192,91901,1,2,0:0:0:0:
182,192,92068,1,0,0:0:0:0:
36,192,92068,1,0,0:0:0:0:
256,192,92235,1,2,0:0:0:0:
475,192,92235,1,0,0:0:0:0:
109,192,92401,1,0,0:0:0:0:
182,192,92568,1,2,0:0:0:0:
402,192,92568,1,8,0:0:0:0:
329,192,92735,1,2,0:0:0:0:
475,192,92735,1,0,0:0:0:0:
256,192,92901,1,2,0:0:0:0:
36,192,92901,1,0,0:0:0:0:
109,192,93068,1,0,0:0:0:0:
402,192,93068,1,0,0:0:0:0:
182,192,93235,1,2,0:0:0:0:
475,192,93235,1,8,0:0:0:0:
36,192,93235,1,0,0:0:0:0:
329,192,93401,1,0,0:0:0:0:
109,192,93568,1,2,0:0:0:0:
182,192,93735,1,0,0:0:0:0:
402,192,93735,1,0,0:0:0:0:
475,192,93901,1,8,0:0:0:0:
329,192,93901,1,2,0:0:0:0:
36,192,93901,1,0,0:0:0:0:
256,192,94068,1,0,0:0:0:0:
109,192,94235,1,0,0:0:0:0:
182,192,94235,1,2,0:0:0:0:
475,192,94401,1,0,0:0:0:0:
256,192,94401,1,0,0:0:0:0:
402,192,94568,1,2,0:0:0:0:
329,192,94568,1,8,0:0:0:0:
182,192,94735,1,0,0:0:0:0:
36,192,94735,1,0,0:0:0:0:
256,192,94901,1,2,0:0:0:0:
475,192,94901,1,0,0:0:0:0:
329,192,95068,1,0,0:0:0:0:
109,192,95068,1,0,0:0:0:0:
402,192,95068,1,0,0:0:0:0:
182,192,95235,1,2,0:0:0:0:
36,192,95235,1,0,0:0:0:0:
402,192,95235,1,8,0:0:0:0:
475,192,95401,1,0,0:0:0:0:
256,192,95401,1,0,0:0:0:0:
329,192,95568,1,2,0:0:0:0:
109,192,95568,1,0,0:0:0:0:
182,192,95735,1,0,0:0:0:0:
36,192,95901,1,8,0:0:0:0:
475,192,95901,1,2,0:0:0:0:
256,192,96068,1,0,0:0:0:0:
402,192,96068,1,0,0:0:0:0:
109,192,96235,1,0,0:0:0:0:
182,192,96235,1,2,0:0:0:0:
329,192,96401,1,0,0:0:0:0:
475,192,96568,1,2,0:0:0:0:
36,192,96568,1,8,0:0:0:0:
402,192,96735,1,0,0:0:0:0:
256,192,96735,1,0,0:0:0:0:
329,192,96901,1,0,0:0:0:0:
36,192,96901,1,4,0:0:0:0:
475,192,96901,1,2,0:0:0:0:
109,192,97068,1,4,0:0:0:0:
475,192,97068,1,2,0:0:0:0:
256,192,97068,1,0,0:0:0:0:
36,192,97235,1,4,0:0:0:0:
182,192,97235,1,0,0:0:0:0:
475,192,97235,1,2,0:0:0:0:
329,192,97401,1,2,0:0:0:0:
36,192,97401,1,4,0:0:0:0:
402,192,97568,1,0,0:0:0:0:
182,192,97651,1,2,0:0:0:0:
109,192,97651,1,0,0:0:0:0:
402,192,97735,1,0,0:0:0:0:
329,192,97735,1,0,0:0:0:0:
109,192,97818,1,0,0:0:0:0:
256,192,97901,1,0,0:0:0:0:
475,192,97985,1,0,0:0:0:0:
36,192,98068,1,0,0:0:0:0:
329,192,98151,1,2,0:0:0:0:
402,192,98235,1,0,0:0:0:0:
182,192,98235,1,2,0:0:0:0:
109,192,98235,1,0,0:0:0:0:
329,192,98401,1,0,0:0:0:0:
36,192,98401,1,0,0:0:0:0:
475,192,98568,1,2,0:0:0:0:
256,192,98568,1,8,0:0:0:0:
182,192,98568,1,0,0:0:0:0:
329,192,98735,1,0,0:0:0:0:
36,192,98901,1,2,0:0:0:0:
475,192,98901,1,0,0:0:0:0:
402,192,99068,1,0,0:0:0:0:
109,192,99068,1,0,0:0:0:0:
329,192,99235,1,2,0:0:0:0:
182,192,99235,1,0,0:0:0:0:
475,192,99235,1,8,0:0:0:0:
109,192,99401,1,0,0:0:0:0:
256,192,99568,1,2,0:0:0:0:
475,192,99568,1,0,0:0:0:0:
36,192,99735,1,0,0:0:0:0:
329,192,99735,1,0,0:0:0:0:
402,192,99901,1,8,0:0:0:0:
182,192,99901,1,2,0:0:0:0:
329,192,100068,1,0,0:0:0:0:
109,192,100068,1,0,0:0:0:0:
256,192,100235,1,0,0:0:0:0:
182,192,100235,1,2,0:0:0:0:
36,192,100401,1,0,0:0:0:0:
329,192,100401,1,0,0:0:0:0:
475,192,100401,1,0,0:0:0:0:
402,192,100568,1,2,0:0:0:0:
192,192,100568,1,0,0:0:0:0:
109,192,100735,1,0,0:0:0:0:
256,192,100735,1,0,0:0:0:0:
329,192,100901,1,2,0:0:0:0:
36,192,100901,1,0,0:0:0:0:
256,192,101068,1,0,0:0:0:0:
182,192,101235,1,2,0:0:0:0:
402,192,101235,1,8,0:0:0:0:
329,192,101401,1,0,0:0:0:0:
109,192,101401,1,0,0:0:0:0:
256,192,101568,1,2,0:0:0:0:
475,192,101568,1,0,0:0:0:0:
36,192,101735,1,0,0:0:0:0:
109,192,101901,1,2,0:0:0:0:
402,192,101901,1,8,0:0:0:0:
256,192,102068,1,0,0:0:0:0:
182,192,102235,1,2,0:0:0:0:
475,192,102235,1,0,0:0:0:0:
329,192,102401,1,0,0:0:0:0:
109,192,102401,1,0,0:0:0:0:
402,192,102568,1,2,0:0:0:0:
36,192,102568,1,8,0:0:0:0:
182,192,102735,1,0,0:0:0:0:
475,192,102735,1,0,0:0:0:0:
256,192,102901,1,2,0:0:0:0:
402,192,102901,1,0,0:0:0:0:
109,192,103068,1,0,0:0:0:0:
402,192,103235,1,2,0:0:0:0:
256,192,103401,1,0,0:0:0:0:
182,192,103401,1,2,0:0:0:0:
109,192,103568,1,2,0:0:0:0:
329,192,103568,1,0,0:0:0:0:
475,192,103568,1,4,0:0:0:0:
256,192,103735,1,0,0:0:0:0:
402,192,103735,1,0,0:0:0:0:
329,192,103901,1,2,0:0:0:0:
36,192,103901,1,8,0:0:0:0:
475,192,103901,1,0,0:0:0:0:
109,192,104068,1,0,0:0:0:0:
256,192,104235,1,2,0:0:0:0:
475,192,104235,1,0,0:0:0:0:
402,192,104401,1,0,0:0:0:0:
36,192,104401,1,0,0:0:0:0:
109,192,104568,1,2,0:0:0:0:
329,192,104568,1,8,0:0:0:0:
475,192,104568,1,0,0:0:0:0:
256,192,104735,1,2,0:0:0:0:
36,192,104735,1,0,0:0:0:0:
182,192,104901,1,2,0:0:0:0:
475,192,104901,1,0,0:0:0:0:
109,192,104901,1,0,0:0:0:0:
256,192,105068,1,0,0:0:0:0:
36,192,105235,1,2,0:0:0:0:
475,192,105235,1,8,0:0:0:0:
402,192,105401,1,0,0:0:0:0:
182,192,105401,1,0,0:0:0:0:
256,192,105568,1,2,0:0:0:0:
36,192,105568,1,0,0:0:0:0:
329,192,105735,1,0,0:0:0:0:
475,192,105735,1,0,0:0:0:0:
109,192,105735,1,0,0:0:0:0:
256,192,105901,1,0,0:0:0:0:
402,192,105901,1,8,0:0:0:0:
182,192,105901,1,2,0:0:0:0:
109,192,106068,1,0,0:0:0:0:
329,192,106068,1,2,0:0:0:0:
36,192,106235,1,0,0:0:0:0:
182,192,106235,1,0,0:0:0:0:
475,192,106235,1,4,0:0:0:0:
109,192,106401,1,0,0:0:0:0:
182,192,106568,1,0,0:0:0:0:
329,192,106735,1,0,0:0:0:0:
475,192,106901,1,4,0:0:0:0:
36,192,106901,1,0,0:0:0:0:
256,192,106901,1,2,0:0:0:0:
182,192,106901,1,0,0:0:0:0:
109,192,107068,1,0,0:0:0:0:
182,192,107235,1,0,0:0:0:0:
329,192,107401,1,0,0:0:0:0:
475,192,107568,1,0,0:0:0:0:
36,192,107568,1,0,0:0:0:0:
192,192,107568,1,2,0:0:0:0:
109,192,107735,1,2,0:0:0:0:
402,192,107735,1,0,0:0:0:0:
109,192,107901,1,2,0:0:0:0:
256,192,107901,1,0,0:0:0:0:
475,192,107901,1,4,0:0:0:0:
256,192,108068,1,2,0:0:0:0:
402,192,108068,1,0,0:0:0:0:
329,192,108235,1,0,0:0:0:0:
182,192,108235,1,0,0:0:0:0:
402,192,108235,1,4,0:0:0:0:
36,192,108235,1,0,0:0:0:0:
109,192,108401,1,2,0:0:0:0:
475,192,108401,1,0,0:0:0:0:
475,192,108568,1,2,0:0:0:0:
36,192,108568,1,0,0:0:0:0:
256,192,108568,1,0,0:0:0:0:
109,192,108651,1,0,0:0:0:0:
402,192,108651,1,2,0:0:0:0:
329,192,108735,1,2,0:0:0:0:
182,192,108735,1,0,0:0:0:0:
402,192,108818,1,2,0:0:0:0:
109,192,108818,1,0,0:0:0:0:
36,192,108901,1,0,0:0:0:0:
475,192,108901,1,8,0:0:0:0:
402,192,109735,128,0,109901:0:0:0:0:
109,192,109735,128,0,109901:0:0:0:0:
329,192,109901,128,0,110151:0:0:0:0:
182,192,109901,128,0,110151:0:0:0:0:
109,192,110068,128,0,110151:0:0:0:0:
402,192,110068,128,0,110151:0:0:0:0:
475,192,110235,1,0,0:0:0:0:
320,192,110235,1,2,0:0:0:0:
64,192,110235,128,4,110401:0:0:0:0:
329,192,110401,1,0,0:0:0:0:
475,192,110401,1,0,0:0:0:0:
402,192,110568,1,2,0:0:0:0:
182,192,110568,128,8,110735:0:0:0:0:
329,192,110735,128,0,110901:0:0:0:0:
109,192,110735,1,0,0:0:0:0:
36,192,110901,1,2,0:0:0:0:
192,192,110901,128,0,111235:0:0:0:0:
402,192,111068,1,0,0:0:0:0:
109,192,111068,1,0,0:0:0:0:
329,192,111235,1,8,0:0:0:0:
36,192,111401,1,0,0:0:0:0:
402,192,111401,1,0,0:0:0:0:
256,192,111568,128,0,111735:0:0:0:0:
182,192,111568,1,2,0:0:0:0:
475,192,111735,1,0,0:0:0:0:
109,192,111735,1,0,0:0:0:0:
36,192,111901,128,8,112068:0:0:0:0:
402,192,111901,1,2,0:0:0:0:
182,192,112068,128,0,112235:0:0:0:0:
475,192,112068,1,0,0:0:0:0:
320,192,112235,128,0,112568:0:0:0:0:
109,192,112235,1,2,0:0:0:0:
36,192,112401,1,0,0:0:0:0:
475,192,112568,128,8,112735:0:0:0:0:
182,192,112568,1,2,0:0:0:0:
256,192,112735,128,0,112901:0:0:0:0:
109,192,112735,1,0,0:0:0:0:
36,192,112901,128,2,113068:0:0:0:0:
402,192,112901,1,0,0:0:0:0:
329,192,113068,1,0,0:0:0:0:
182,192,113068,1,0,0:0:0:0:
109,192,113235,128,8,113401:0:0:0:0:
402,192,113235,1,2,0:0:0:0:
256,192,113401,128,0,113568:0:0:0:0:
475,192,113401,1,0,0:0:0:0:
402,192,113568,128,0,113735:0:0:0:0:
182,192,113568,1,2,0:0:0:0:
36,192,113735,128,0,113818:0:0:0:0:
256,192,113735,1,0,0:0:0:0:
182,192,113818,1,0,0:0:0:0:
329,192,113860,1,0,0:0:0:0:
475,192,113901,128,8,114068:0:0:0:0:
109,192,113901,1,2,0:0:0:0:
256,192,114068,128,0,114235:0:0:0:0:
182,192,114068,1,0,0:0:0:0:
36,192,114235,128,2,114568:0:0:0:0:
402,192,114235,1,0,0:0:0:0:
475,192,114401,1,0,0:0:0:0:
329,192,114401,1,0,0:0:0:0:
182,192,114568,128,8,114901:0:0:0:0:
256,192,114568,1,2,0:0:0:0:
109,192,114735,1,0,0:0:0:0:
475,192,114735,1,0,0:0:0:0:
320,192,114901,128,2,115235:0:0:0:0:
402,192,114901,1,0,0:0:0:0:
36,192,115068,1,0,0:0:0:0:
475,192,115235,128,8,115401:0:0:0:0:
182,192,115235,1,2,0:0:0:0:
329,192,115401,128,0,115568:0:0:0:0:
36,192,115401,1,2,0:0:0:0:
182,192,115568,128,2,115735:0:0:0:0:
402,192,115568,1,0,0:0:0:0:
475,192,115735,1,0,0:0:0:0:
109,192,115735,1,0,0:0:0:0:
36,192,115901,128,8,116068:0:0:0:0:
329,192,115901,1,2,0:0:0:0:
182,192,116068,128,0,116235:0:0:0:0:
256,192,116068,1,0,0:0:0:0:
329,192,116235,128,0,116568:0:0:0:0:
402,192,116235,1,2,0:0:0:0:
109,192,116401,1,0,0:0:0:0:
475,192,116401,1,0,0:0:0:0:
182,192,116568,1,8,0:0:0:0:
36,192,116568,1,2,0:0:0:0:
475,192,116735,1,0,0:0:0:0:
256,192,116735,1,0,0:0:0:0:
329,192,116901,128,2,117068:0:0:0:0:
109,192,116901,1,0,0:0:0:0:
402,192,117068,1,0,0:0:0:0:
182,192,117068,1,0,0:0:0:0:
329,192,117235,128,2,117401:0:0:0:0:
36,192,117235,1,8,0:0:0:0:
475,192,117401,128,0,117568:0:0:0:0:
109,192,117401,1,0,0:0:0:0:
64,192,117568,128,0,117735:0:0:0:0:
256,192,117568,1,2,0:0:0:0:
182,192,117735,128,0,117901:0:0:0:0:
475,192,117735,1,0,0:0:0:0:
36,192,117901,128,8,118068:0:0:0:0:
402,192,117901,1,2,0:0:0:0:
192,192,118068,128,0,118235:0:0:0:0:
329,192,118068,1,0,0:0:0:0:
475,192,118235,128,2,118401:0:0:0:0:
109,192,118235,1,0,0:0:0:0:
329,192,118401,1,0,0:0:0:0:
36,192,118401,1,0,0:0:0:0:
475,192,118568,128,8,118735:0:0:0:0:
182,192,118568,1,2,0:0:0:0:
192,192,118735,128,0,118901:0:0:0:0:
109,192,118735,1,0,0:0:0:0:
64,192,118901,128,0,119068:0:0:0:0:
329,192,118901,1,2,0:0:0:0:
448,192,119068,128,0,119151:0:0:0:0:
329,192,119151,1,0,0:0:0:0:
182,192,119193,1,0,0:0:0:0:
64,192,119235,128,2,119401:0:0:0:0:
320,192,119401,128,0,119568:0:0:0:0:
475,192,119401,1,0,0:0:0:0:
448,192,119568,128,0,119901:0:0:0:0:
36,192,119568,1,4,0:0:0:0:
182,192,119735,1,0,0:0:0:0:
192,192,119901,128,0,120235:0:0:0:0:
109,192,119901,1,2,0:0:0:0:
329,192,120068,1,0,0:0:0:0:
475,192,120068,1,0,0:0:0:0:
64,192,120235,128,0,120568:0:0:0:0:
402,192,120235,1,2,0:0:0:0:
329,192,120318,1,2,0:0:0:0:
402,192,120401,1,2,0:0:0:0:
329,192,120485,1,2,0:0:0:0:
448,192,120568,128,4,120735:0:0:0:0:
192,192,120568,1,0,0:0:0:0:
320,192,120735,128,0,120901:0:0:0:0:
182,192,120735,1,2,0:0:0:0:
109,192,120818,1,2,0:0:0:0:
36,192,120901,128,2,121068:0:0:0:0:
402,192,120901,1,4,0:0:0:0:
402,192,121068,1,0,0:0:0:0:
329,192,121068,1,0,0:0:0:0:
36,192,121235,128,2,121401:0:0:0:0:
256,192,121235,1,8,0:0:0:0:
182,192,121401,128,0,121568:0:0:0:0:
475,192,121401,1,0,0:0:0:0:
329,192,121568,128,0,121901:0:0:0:0:
109,192,121568,1,2,0:0:0:0:
402,192,121735,1,0,0:0:0:0:
109,192,121901,1,2,0:0:0:0:
475,192,122068,1,0,0:0:0:0:
256,192,122068,1,0,0:0:0:0:
182,192,122235,128,2,122401:0:0:0:0:
36,192,122235,1,0,0:0:0:0:
329,192,122401,1,0,0:0:0:0:
402,192,122401,1,0,0:0:0:0:
475,192,122568,128,2,122735:0:0:0:0:
109,192,122568,1,8,0:0:0:0:
256,192,122735,128,0,122901:0:0:0:0:
182,192,122735,1,0,0:0:0:0:
36,192,122901,128,0,123068:0:0:0:0:
402,192,122901,1,2,0:0:0:0:
329,192,123068,1,0,0:0:0:0:
182,192,123068,1,0,0:0:0:0:
192,192,123235,128,8,123401:0:0:0:0:
109,192,123235,1,2,0:0:0:0:
320,192,123401,128,0,123568:0:0:0:0:
475,192,123401,1,0,0:0:0:0:
109,192,123568,128,0,123735:0:0:0:0:
402,192,123735,1,0,0:0:0:0:
182,192,123735,1,0,0:0:0:0:
64,192,123901,128,2,124068:0:0:0:0:
475,192,123901,1,8,0:0:0:0:
320,192,124068,128,0,124235:0:0:0:0:
448,192,124235,128,0,124401:0:0:0:0:
182,192,124235,1,2,0:0:0:0:
64,192,124401,128,0,124485:0:0:0:0:
182,192,124485,1,0,0:0:0:0:
329,192,124526,1,0,0:0:0:0:
448,192,124568,128,2,124735:0:0:0:0:
320,192,124735,128,0,124901:0:0:0:0:
36,192,124735,1,0,0:0:0:0:
192,192,124901,128,0,125235:0:0:0:0:
402,192,125068,1,0,0:0:0:0:
320,192,125235,128,2,125568:0:0:0:0:
36,192,125235,1,8,0:0:0:0:
182,192,125401,1,0,0:0:0:0:
475,192,125401,1,0,0:0:0:0:
448,192,125568,128,0,125901:0:0:0:0:
36,192,125568,1,2,0:0:0:0:
182,192,125735,1,0,0:0:0:0:
109,192,125735,1,0,0:0:0:0:
64,192,125901,128,8,126068:0:0:0:0:
320,192,126068,128,0,126235:0:0:0:0:
448,192,126235,128,4,126568:0:0:0:0:
182,192,126235,1,2,0:0:0:0:
36,192,126401,1,0,0:0:0:0:
329,192,126401,1,0,0:0:0:0:
64,192,126568,128,2,126735:0:0:0:0:
182,192,126568,1,8,0:0:0:0:
320,192,126735,128,0,126901:0:0:0:0:
448,192,126901,128,0,127235:0:0:0:0:
109,192,127068,1,0,0:0:0:0:
182,192,127068,1,0,0:0:0:0:
256,192,127235,1,2,0:0:0:0:
36,192,127235,1,8,0:0:0:0:
182,192,127401,1,2,0:0:0:0:
329,192,127401,1,0,0:0:0:0:
448,192,127568,128,0,127735:0:0:0:0:
109,192,127568,1,4,0:0:0:0:
256,192,127735,1,0,0:0:0:0:
36,192,127735,1,0,0:0:0:0:
329,192,127901,128,2,128068:0:0:0:0:
109,192,127901,1,8,0:0:0:0:
192,192,128068,128,0,128235:0:0:0:0:
475,192,128068,1,0,0:0:0:0:
64,192,128235,128,0,128568:0:0:0:0:
402,192,128235,1,2,0:0:0:0:
256,192,128401,1,0,0:0:0:0:
192,192,128568,128,8,128735:0:0:0:0:
256,192,128735,128,0,128901:0:0:0:0:
475,192,128735,1,0,0:0:0:0:
64,192,128901,128,4,129235:0:0:0:0:
475,192,128901,1,2,0:0:0:0:
182,192,129068,1,2,0:0:0:0:
329,192,129068,1,0,0:0:0:0:
448,192,129235,128,0,129401:0:0:0:0:
320,192,129401,128,0,129568:0:0:0:0:
182,192,129568,128,0,129735:0:0:0:0:
36,192,129568,1,2,0:0:0:0:
475,192,129568,1,4,0:0:0:0:
36,192,129735,128,0,129818:0:0:0:0:
402,192,129735,1,2,0:0:0:0:
256,192,129818,1,0,0:0:0:0:
448,192,129901,128,8,130068:0:0:0:0:
109,192,129901,1,2,0:0:0:0:
182,192,129985,1,2,0:0:0:0:
320,192,130068,128,0,130235:0:0:0:0:
109,192,130068,1,2,0:0:0:0:
182,192,130151,1,2,0:0:0:0:
402,192,130235,1,4,0:0:0:0:
64,192,130235,128,2,130401:0:0:0:0:
256,192,130568,128,0,130735:0:0:0:0:
475,192,130568,1,4,0:0:0:0:
109,192,130568,1,2,0:0:0:0:
182,192,130901,1,2,0:0:0:0:
36,192,130901,1,0,0:0:0:0:
448,192,130901,128,0,131068:0:0:0:0:
109,192,131568,1,0,0:0:0:0:
402,192,131568,1,2,0:0:0:0:
256,192,131568,1,4,0:0:0:0:
