osu file format v14

[General]
AudioFilename: Inaba-tan.mp3
AudioLeadIn: 0
PreviewTime: 87235
Countdown: 0
SampleSet: Soft
StackLeniency: 0.7
Mode: 3
LetterboxInBreaks: 0
SpecialStyle: 0
WidescreenStoryboard: 0

[Editor]
DistanceSpacing: 1
BeatDivisor: 4
GridSize: 8
TimelineZoom: 1.5

[Metadata]
Title:Kyun Kyun Tamaran Inaba-tan
TitleUnicode:きゅんきゅんたまらんいなばたん。
Artist:Tsubaki
ArtistUnicode:Tsubaki
Creator:-[ Ritsune ]-
Version:Easy+
Source:Touhou - Starry Presto
Tags:Starry Presto [Taketori Hishou ~ Lunatic Princess]
BeatmapID:783160
BeatmapSetID:355765

[Difficulty]
HPDrainRate:6
CircleSize:4
OverallDifficulty:7
ApproachRate:5
SliderMultiplier:1.4
SliderTickRate:1

[Events]
//Background and Video events
0,0,"bg.png",0,0
//Break Periods
//Storyboard Layer 0 (Background)
//Storyboard Layer 1 (Fail)
//Storyboard Layer 2 (Pass)
//Storyboard Layer 3 (Foreground)
//Storyboard Sound Samples

[TimingPoints]
902,333.333333333333,4,2,0,20,1,0
11568,-100,4,2,1,30,0,0
64901,-100,4,2,0,20,0,0
83568,-100,4,2,1,30,0,0
87568,-100,4,2,1,30,0,1
97568,-100,4,2,1,30,0,0
98235,-100,4,2,1,30,0,1
110235,-100,4,2,1,30,0,0

[HitObjects]
475,192,901,5,4,0:0:0:0:
36,192,901,1,2,0:0:0:0:
109,192,1235,1,2,0:0:0:0:
402,192,1901,1,2,0:0:0:0:
109,192,2568,1,2,0:0:0:0:
329,192,3235,1,2,0:0:0:0:
36,192,3901,1,2,0:0:0:0:
402,192,4568,1,2,0:0:0:0:
36,192,5235,1,2,0:0:0:0:
329,192,5901,1,2,0:0:0:0:
182,192,6568,1,2,0:0:0:0:
475,192,7235,1,2,0:0:0:0:
256,192,7901,1,2,0:0:0:0:
402,192,8568,1,2,0:0:0:0:
182,192,8901,1,2,0:0:0:0:
329,192,8901,1,4,0:0:0:0:
329,192,9235,1,4,0:0:0:0:
182,192,9235,1,2,0:0:0:0:
402,192,9568,1,4,0:0:0:0:
109,192,9568,1,2,0:0:0:0:
475,192,9901,1,4,0:0:0:0:
36,192,9901,1,2,0:0:0:0:
256,192,10068,1,4,0:0:0:0:
36,192,11568,1,2,0:0:0:0:
475,192,11568,1,4,0:0:0:0:
109,192,11735,1,0,0:0:0:0:
256,192,12068,1,0,0:0:0:0:
109,192,12401,1,0,0:0:0:0:
256,192,12735,1,0,0:0:0:0:
402,192,13068,1,0,0:0:0:0:
256,192,13401,1,0,0:0:0:0:
402,192,13735,1,0,0:0:0:0:
402,192,14068,1,0,0:0:0:0:
182,192,14401,1,0,0:0:0:0:
329,192,14735,1,0,0:0:0:0:
182,192,15068,1,0,0:0:0:0:
329,192,15401,1,0,0:0:0:0:
475,192,15735,1,0,0:0:0:0:
329,192,16068,1,0,0:0:0:0:
475,192,16401,1,0,0:0:0:0:
329,192,16735,1,0,0:0:0:0:
402,192,16901,1,4,0:0:0:0:
109,192,16901,1,2,0:0:0:0:
36,192,17068,1,0,0:0:0:0:
182,192,17401,1,0,0:0:0:0:
36,192,17735,1,0,0:0:0:0:
182,192,18068,1,0,0:0:0:0:
402,192,18235,1,4,0:0:0:0:
109,192,18235,1,2,0:0:0:0:
329,192,18401,1,0,0:0:0:0:
182,192,18735,1,2,0:0:0:0:
329,192,19068,1,2,0:0:0:0:
182,192,19401,1,2,0:0:0:0:
36,192,19568,1,2,0:0:0:0:
475,192,19568,1,4,0:0:0:0:
475,192,19901,1,4,0:0:0:0:
36,192,19901,1,2,0:0:0:0:
109,192,20235,1,2,0:0:0:0:
402,192,20235,1,4,0:0:0:0:
109,192,20568,1,2,0:0:0:0:
402,192,20568,1,4,0:0:0:0:
36,192,22235,1,2,0:0:0:0:
475,192,22235,1,4,0:0:0:0:
109,192,22568,1,8,0:0:0:0:
329,192,22901,1,2,0:0:0:0:
182,192,23235,1,8,0:0:0:0:
402,192,23568,1,2,0:0:0:0:
36,192,23901,1,8,0:0:0:0:
329,192,24235,1,2,0:0:0:0:
109,192,24568,1,8,0:0:0:0:
475,192,24901,1,2,0:0:0:0:
182,192,25235,1,8,0:0:0:0:
402,192,25568,1,2,0:0:0:0:
36,192,25901,1,8,0:0:0:0:
256,192,26235,1,2,0:0:0:0:
109,192,26568,1,8,0:0:0:0:
402,192,26901,1,2,0:0:0:0:
36,192,27235,1,8,0:0:0:0:
182,192,27401,1,2,0:0:0:0:
329,192,27568,1,2,0:0:0:0:
475,192,27901,1,8,0:0:0:0:
109,192,28235,1,2,0:0:0:0:
402,192,28568,1,8,0:0:0:0:
36,192,28901,1,2,0:0:0:0:
329,192,29235,1,8,0:0:0:0:
109,192,29568,1,2,0:0:0:0:
475,192,29901,1,8,0:0:0:0:
256,192,30235,1,2,0:0:0:0:
402,192,30568,1,8,0:0:0:0:
36,192,30901,1,2,0:0:0:0:
329,192,31235,1,8,0:0:0:0:
109,192,31568,1,2,0:0:0:0:
402,192,31568,1,4,0:0:0:0:
402,192,31901,1,4,0:0:0:0:
109,192,31901,1,2,0:0:0:0:
402,192,32235,1,4,0:0:0:0:
109,192,32235,1,2,0:0:0:0:
256,192,32568,1,4,0:0:0:0:
475,192,32901,1,4,0:0:0:0:
36,192,32901,1,2,0:0:0:0:
402,192,33235,1,8,0:0:0:0:
109,192,33568,1,2,0:0:0:0:
475,192,33901,1,8,0:0:0:0:
182,192,34235,1,2,0:0:0:0:
329,192,34568,1,8,0:0:0:0:
36,192,34901,1,2,0:0:0:0:
402,192,35235,1,8,0:0:0:0:
182,192,35568,1,2,0:0:0:0:
36,192,35901,1,8,0:0:0:0:
329,192,36235,1,2,0:0:0:0:
109,192,36568,1,8,0:0:0:0:
475,192,36901,1,2,0:0:0:0:
182,192,37235,1,8,0:0:0:0:
402,192,37568,1,2,0:0:0:0:
475,192,37901,1,8,0:0:0:0:
329,192,38068,1,2,0:0:0:0:
182,192,38235,1,4,0:0:0:0:
36,192,38568,1,8,0:0:0:0:
329,192,38901,1,2,0:0:0:0:
109,192,39235,1,8,0:0:0:0:
256,192,39401,1,2,0:0:0:0:
402,192,39568,1,4,0:0:0:0:
36,192,39901,1,8,0:0:0:0:
475,192,40235,1,2,0:0:0:0:
329,192,40568,1,8,0:0:0:0:
182,192,40735,1,2,0:0:0:0:
36,192,40901,1,4,0:0:0:0:
109,192,41235,1,8,0:0:0:0:
256,192,41568,1,2,0:0:0:0:
402,192,41901,1,2,0:0:0:0:
36,192,42235,5,2,0:0:0:0:
182,192,42235,1,4,0:0:0:0:
475,192,42568,1,4,0:0:0:0:
329,192,42568,1,2,0:0:0:0:
402,192,42901,1,4,0:0:0:0:
109,192,42901,1,2,0:0:0:0:
36,192,43568,1,4,0:0:0:0:
36,192,43901,1,2,0:0:0:0:
36,192,44235,1,2,0:0:0:0:
36,192,44568,1,2,0:0:0:0:
475,192,44901,1,2,0:0:0:0:
475,192,45235,1,2,0:0:0:0:
475,192,45568,1,2,0:0:0:0:
475,192,45901,1,2,0:0:0:0:
182,192,46235,1,2,0:0:0:0:
182,192,46568,1,2,0:0:0:0:
182,192,46901,1,2,0:0:0:0:
182,192,47235,1,2,0:0:0:0:
182,192,47568,1,2,0:0:0:0:
182,192,47901,1,2,0:0:0:0:
36,192,48235,1,2,0:0:0:0:
109,192,48568,1,2,0:0:0:0:
256,192,48735,1,2,0:0:0:0:
402,192,48901,1,2,0:0:0:0:
329,192,49235,1,8,0:0:0:0:
329,192,49568,1,2,0:0:0:0:
329,192,49901,1,8,0:0:0:0:
109,192,50235,1,2,0:0:0:0:
109,192,50568,1,8,0:0:0:0:
109,192,50901,1,2,0:0:0:0:
109,192,51235,1,8,0:0:0:0:
402,192,51568,1,2,0:0:0:0:
402,192,51901,1,8,0:0:0:0:
402,192,52235,1,2,0:0:0:0:
402,192,52568,1,8,0:0:0:0:
256,192,52735,1,8,0:0:0:0:
36,192,52901,1,2,0:0:0:0:
475,192,52901,1,0,0:0:0:0:
109,192,53568,128,2,53735:0:0:0:0:
402,192,53901,128,2,54235:0:0:0:0:
329,192,54235,1,4,0:0:0:0:
182,192,54235,1,2,0:0:0:0:
36,192,54568,1,8,0:0:0:0:
182,192,54901,1,2,0:0:0:0:
109,192,55235,1,8,0:0:0:0:
475,192,55568,1,2,0:0:0:0:
329,192,55901,1,8,0:0:0:0:
402,192,56235,1,2,0:0:0:0:
256,192,56568,1,8,0:0:0:0:
109,192,56901,1,2,0:0:0:0:
256,192,57235,1,8,0:0:0:0:
182,192,57568,1,2,0:0:0:0:
329,192,57901,1,8,0:0:0:0:
475,192,58235,1,2,0:0:0:0:
256,192,58568,1,8,0:0:0:0:
402,192,58901,1,2,0:0:0:0:
256,192,59235,1,8,0:0:0:0:
109,192,59401,1,2,0:0:0:0:
36,192,59568,1,2,0:0:0:0:
475,192,59568,1,4,0:0:0:0:
182,192,59901,1,8,0:0:0:0:
402,192,60235,1,2,0:0:0:0:
36,192,60568,1,8,0:0:0:0:
109,192,60735,1,2,0:0:0:0:
329,192,60901,1,4,0:0:0:0:
182,192,60901,1,2,0:0:0:0:
475,192,61235,1,8,0:0:0:0:
329,192,61568,1,2,0:0:0:0:
36,192,61901,1,8,0:0:0:0:
109,192,62068,1,2,0:0:0:0:
182,192,62235,1,4,0:0:0:0:
402,192,62401,1,4,0:0:0:0:
256,192,62568,1,4,0:0:0:0:
329,192,62901,1,4,0:0:0:0:
182,192,63068,1,4,0:0:0:0:
36,192,63235,1,4,0:0:0:0:
182,192,63568,1,4,0:0:0:0:
329,192,63735,1,4,0:0:0:0:
475,192,63901,1,4,0:0:0:0:
109,192,64235,1,2,0:0:0:0:
402,192,64235,1,4,0:0:0:0:
256,192,64901,1,4,0:0:0:0:
109,192,65235,1,2,0:0:0:0:
36,192,65568,1,2,0:0:0:0:
256,192,65901,1,2,0:0:0:0:
402,192,66235,1,2,0:0:0:0:
256,192,66568,1,2,0:0:0:0:
182,192,66901,1,2,0:0:0:0:
402,192,67235,1,2,0:0:0:0:
475,192,67568,1,2,0:0:0:0:
329,192,67901,1,2,0:0:0:0:
256,192,68235,1,2,0:0:0:0:
182,192,68568,1,2,0:0:0:0:
109,192,68901,1,2,0:0:0:0:
256,192,69235,1,2,0:0:0:0:
329,192,69568,1,2,0:0:0:0:
402,192,69901,1,2,0:0:0:0:
36,192,70235,1,2,0:0:0:0:
402,192,70568,1,2,0:0:0:0:
329,192,70901,1,2,0:0:0:0:
256,192,71235,1,2,0:0:0:0:
109,192,71568,1,2,0:0:0:0:
256,192,71901,1,2,0:0:0:0:
182,192,72235,1,2,0:0:0:0:
109,192,72568,1,2,0:0:0:0:
36,192,72901,1,2,0:0:0:0:
182,192,73235,1,2,0:0:0:0:
256,192,73568,1,2,0:0:0:0:
329,192,73901,1,2,0:0:0:0:
402,192,74235,1,2,0:0:0:0:
256,192,74568,1,2,0:0:0:0:
182,192,74901,1,2,0:0:0:0:
109,192,75235,1,2,0:0:0:0:
256,192,75568,1,2,0:0:0:0:
402,192,75901,1,2,0:0:0:0:
329,192,76235,1,2,0:0:0:0:
256,192,76568,1,2,0:0:0:0:
36,192,76901,1,2,0:0:0:0:
109,192,77235,1,2,0:0:0:0:
182,192,77568,1,2,0:0:0:0:
256,192,77901,1,2,0:0:0:0:
402,192,78235,1,2,0:0:0:0:
109,192,78568,1,2,0:0:0:0:
329,192,78901,1,2,0:0:0:0:
402,192,79235,1,2,0:0:0:0:
256,192,79568,1,2,0:0:0:0:
109,192,79901,1,2,0:0:0:0:
182,192,80235,1,2,0:0:0:0:
256,192,80568,1,2,0:0:0:0:
402,192,80901,1,0,0:0:0:0:
109,192,80901,128,2,82235:0:0:0:0:
475,192,82235,128,2,82901:0:0:0:0:
329,192,82901,128,2,83568:0:0:0:0:
109,192,83568,5,4,0:0:0:0:
256,192,83735,1,4,0:0:0:0:
402,192,83901,1,4,0:0:0:0:
36,192,84235,1,4,0:0:0:0:
182,192,84401,1,4,0:0:0:0:
329,192,84568,1,4,0:0:0:0:
475,192,84901,1,4,0:0:0:0:
329,192,85068,1,4,0:0:0:0:
182,192,85235,1,4,0:0:0:0:
36,192,85401,1,4,0:0:0:0:
182,192,85568,1,4,0:0:0:0:
109,192,86235,1,4,0:0:0:0:
402,192,86401,1,4,0:0:0:0:
109,192,86568,1,4,0:0:0:0:
402,192,86735,1,4,0:0:0:0:
36,192,87568,1,2,0:0:0:0:
475,192,87568,1,4,0:0:0:0:
329,192,87901,1,8,0:0:0:0:
109,192,88235,1,2,0:0:0:0:
256,192,88568,1,8,0:0:0:0:
182,192,88568,1,2,0:0:0:0:
475,192,88901,1,2,0:0:0:0:
182,192,89235,1,8,0:0:0:0:
36,192,89235,1,2,0:0:0:0:
402,192,89568,1,2,0:0:0:0:
36,192,89901,1,2,0:0:0:0:
329,192,90235,1,2,0:0:0:0:
109,192,90568,1,2,0:0:0:0:
182,192,90568,1,8,0:0:0:0:
475,192,90901,1,2,0:0:0:0:
182,192,91235,1,2,0:0:0:0:
256,192,91235,1,8,0:0:0:0:
36,192,91568,1,2,0:0:0:0:
329,192,91901,1,2,0:0:0:0:
475,192,91901,1,8,0:0:0:0:
182,192,92235,1,2,0:0:0:0:
402,192,92568,1,8,0:0:0:0:
256,192,92735,1,2,0:0:0:0:
109,192,92901,1,2,0:0:0:0:
329,192,93235,1,8,0:0:0:0:
182,192,93235,1,2,0:0:0:0:
36,192,93568,1,2,0:0:0:0:
402,192,93901,1,8,0:0:0:0:
256,192,93901,1,2,0:0:0:0:
109,192,94235,1,2,0:0:0:0:
475,192,94568,1,8,0:0:0:0:
329,192,94568,1,2,0:0:0:0:
402,192,94901,1,2,0:0:0:0:
182,192,95235,1,2,0:0:0:0:
256,192,95235,1,8,0:0:0:0:
475,192,95568,1,2,0:0:0:0:
109,192,95901,1,8,0:0:0:0:
256,192,96235,1,2,0:0:0:0:
329,192,96568,1,2,0:0:0:0:
402,192,96568,1,8,0:0:0:0:
475,192,96901,1,4,0:0:0:0:
36,192,97068,1,4,0:0:0:0:
402,192,97235,1,4,0:0:0:0:
109,192,97401,1,4,0:0:0:0:
256,192,97568,128,2,98235:0:0:0:0:
475,192,98235,1,4,0:0:0:0:
36,192,98235,1,2,0:0:0:0:
109,192,98568,1,2,0:0:0:0:
402,192,98568,1,8,0:0:0:0:
182,192,98901,1,2,0:0:0:0:
256,192,99235,1,8,0:0:0:0:
36,192,99235,1,2,0:0:0:0:
329,192,99568,1,2,0:0:0:0:
402,192,99901,1,8,0:0:0:0:
182,192,99901,1,2,0:0:0:0:
256,192,100235,1,2,0:0:0:0:
475,192,100568,1,8,0:0:0:0:
109,192,100568,1,2,0:0:0:0:
36,192,100901,1,2,0:0:0:0:
329,192,101235,1,2,0:0:0:0:
402,192,101235,1,8,0:0:0:0:
109,192,101568,1,2,0:0:0:0:
402,192,101901,1,2,0:0:0:0:
256,192,102235,1,2,0:0:0:0:
329,192,102568,1,8,0:0:0:0:
182,192,102568,1,2,0:0:0:0:
475,192,102901,1,2,0:0:0:0:
329,192,103235,1,2,0:0:0:0:
182,192,103401,1,2,0:0:0:0:
36,192,103568,1,2,0:0:0:0:
475,192,103568,1,4,0:0:0:0:
256,192,103901,1,2,0:0:0:0:
402,192,103901,1,8,0:0:0:0:
329,192,104235,1,2,0:0:0:0:
109,192,104568,1,8,0:0:0:0:
256,192,104735,1,2,0:0:0:0:
402,192,104901,1,4,0:0:0:0:
182,192,105235,1,2,0:0:0:0:
329,192,105235,1,8,0:0:0:0:
475,192,105568,1,2,0:0:0:0:
109,192,105901,1,8,0:0:0:0:
256,192,106068,1,2,0:0:0:0:
402,192,106235,1,2,0:0:0:0:
36,192,106235,128,4,106901:0:0:0:0:
182,192,106901,128,4,107568:0:0:0:0:
329,192,107568,1,2,0:0:0:0:
475,192,107568,1,4,0:0:0:0:
329,192,107901,1,2,0:0:0:0:
475,192,107901,1,4,0:0:0:0:
182,192,108235,1,4,0:0:0:0:
36,192,108235,1,2,0:0:0:0:
36,192,108568,1,2,0:0:0:0:
182,192,108568,1,4,0:0:0:0:
329,192,109901,1,0,0:0:0:0:
182,192,110068,1,0,0:0:0:0:
475,192,110235,1,4,0:0:0:0:
36,192,110235,1,2,0:0:0:0:
109,192,110568,1,8,0:0:0:0:
402,192,110901,1,2,0:0:0:0:
182,192,111235,1,8,0:0:0:0:
475,192,111568,1,2,0:0:0:0:
36,192,111901,1,8,0:0:0:0:
329,192,112235,1,2,0:0:0:0:
109,192,112568,1,8,0:0:0:0:
475,192,112901,1,2,0:0:0:0:
182,192,113235,1,8,0:0:0:0:
402,192,113568,1,2,0:0:0:0:
36,192,113901,1,8,0:0:0:0:
475,192,114235,1,2,0:0:0:0:
109,192,114568,1,8,0:0:0:0:
402,192,114901,1,2,0:0:0:0:
36,192,115235,1,8,0:0:0:0:
182,192,115401,1,2,0:0:0:0:
329,192,115568,1,2,0:0:0:0:
109,192,115901,1,8,0:0:0:0:
475,192,116235,1,2,0:0:0:0:
182,192,116568,1,8,0:0:0:0:
402,192,116901,1,2,0:0:0:0:
36,192,117235,1,8,0:0:0:0:
475,192,117568,1,2,0:0:0:0:
182,192,117901,1,8,0:0:0:0:
329,192,118235,1,2,0:0:0:0:
36,192,118568,1,8,0:0:0:0:
402,192,118901,1,2,0:0:0:0:
109,192,119235,1,8,0:0:0:0:
182,192,119568,1,2,0:0:0:0:
329,192,119568,1,4,0:0:0:0:
329,192,119901,1,4,0:0:0:0:
182,192,119901,1,2,0:0:0:0:
36,192,120235,1,2,0:0:0:0:
448,192,120235,128,4,120901:0:0:0:0:
64,192,120901,1,2,0:0:0:0:
36,192,121235,1,8,0:0:0:0:
329,192,121568,1,2,0:0:0:0:
182,192,121901,1,8,0:0:0:0:
475,192,122235,1,2,0:0:0:0:
329,192,122568,1,8,0:0:0:0:
109,192,122901,1,2,0:0:0:0:
475,192,123235,1,8,0:0:0:0:
182,192,123568,1,2,0:0:0:0:
402,192,123901,1,8,0:0:0:0:
109,192,124235,1,2,0:0:0:0:
329,192,124568,1,8,0:0:0:0:
36,192,124901,1,2,0:0:0:0:
182,192,125235,1,8,0:0:0:0:
402,192,125568,1,2,0:0:0:0:
109,192,125901,1,8,0:0:0:0:
256,192,126068,1,2,0:0:0:0:
475,192,126235,1,2,0:0:0:0:
36,192,126235,1,4,0:0:0:0:
329,192,126568,1,8,0:0:0:0:
182,192,126901,1,2,0:0:0:0:
475,192,127235,1,8,0:0:0:0:
329,192,127401,1,2,0:0:0:0:
402,192,127568,1,4,0:0:0:0:
109,192,127568,1,2,0:0:0:0:
36,192,127901,1,8,0:0:0:0:
182,192,128235,1,2,0:0:0:0:
475,192,128568,1,8,0:0:0:0:
256,192,128735,1,2,0:0:0:0:
402,192,128901,1,4,0:0:0:0:
109,192,128901,1,2,0:0:0:0:
182,192,129235,1,2,0:0:0:0:
329,192,129235,1,4,0:0:0:0:
329,192,129568,1,4,0:0:0:0:
182,192,129568,1,2,0:0:0:0:
36,192,129901,1,2,0:0:0:0:
475,192,129901,1,4,0:0:0:0:
256,192,130235,1,2,0:0:0:0:
256,192,130568,1,2,0:0:0:0:
256,192,130901,1,2,0:0:0:0:
36,192,131568,1,2,0:0:0:0:
475,192,131568,1,4,0:0:0:0:
