osu file format v9

[General]
AudioFilename: Tsubaki - .mp3
AudioLeadIn: 3000
PreviewTime: 128356
Countdown: 0
SampleSet: Normal
StackLeniency: 0.6
Mode: 0
LetterboxInBreaks: 0

[Editor]
Bookmarks: 32522,64522,97522,131189,152522,174856,197522,206689,218856,229522,241856
DistanceSpacing: 0
BeatDivisor: 4
GridSize: 8

[Metadata]
Title:Kyun Kyun Tamaran Inaba-tan!
Artist:Tsubaki
Creator:qinche
Version:Inaba!
Source:Touhou
Tags:Halozy Taketori Hishou Lunatic Princess Starry Presto Licnect NanaDesu TristanShi Komeiji Yuki

[Difficulty]
HPDrainRate:5
CircleSize:4
OverallDifficulty:6
ApproachRate:8
SliderMultiplier:1.6
SliderTickRate:1

[Events]
//Background and Video events
0,0,"bg.jpg"
//Break Periods
2,109222,119439
//Storyboard Layer 0 (Background)
//Storyboard Layer 1 (Fail)
//Storyboard Layer 2 (Pass)
//Storyboard Layer 3 (Foreground)
Sprite,Foreground,Centre,"grey.png",320,240 F,0,-3000,2606,0,0.2 F,0,109189,109856,0.2,0 F,0,119856,120522,0,0.2 F,0,197189,197856,0.2,0
Sprite,Foreground,Centre,"o.png",320,240 F,0,8522,8689,1,0 S,0,8522,8689,1.02,1 F,0,8856,9022,1,0 S,0,8856,9022,1.02,1 F,0,9189,9356,1,0 S,0,9189,9356,1.02,1 F,0,9522,9689,1,0 S,0,9522,9689,1.02,1 F,0,19189,19356,1,0 S,0,19189,19356,1.02,1 F,0,19856,20022,1,0 S,0,19856,20022,1.02,1 F,0,41856,42022,1,0 S,0,41856,42022,1.02,1 F,0,42189,42356,1,0 S,0,42189,42356,1.02,1 F,0,42522,42689,1,0 S,0,42522,42689,1.02,1 F,0,61856,62022,1,0 S,0,61856,62022,1.02,1 F,0,62522,62689,1,0 S,0,62522,62689,1.02,1 F,0,63189,63356,1,0 S,0,63189,63356,1.02,1 F,0,63522,63689,1,0 S,0,63522,63689,1.02,1 F,0,63856,64022,1,0 S,0,63856,64022,1.02,1 F,0,83189,83356,1,0 S,0,83189,83356,1.02,1 F,0,83856,84022,1,0 S,0,83856,84022,1.02,1 F,0,84522,84689,1,0 S,0,84522,84689,1.02,1 F,0,85189,85356,1,0 S,0,85189,85356,1.02,1 F,0,85856,86022,1,0 S,0,85856,86022,1.02,1 F,0,86189,86356,1,0 S,0,86189,86356,1.02,1 F,0,129856,130022,1,0 S,0,129856,130022,1.02,1 F,0,130189,130356,1,0 S,0,130189,130356,1.02,1 F,0,130522,130689,1,0 S,0,130522,130689,1.02,1 F,0,149856,150022,1,0 S,0,149856,150022,1.02,1 F,0,150522,150689,1,0 S,0,150522,150689,1.02,1 F,0,151189,151356,1,0 S,0,151189,151356,1.02,1 F,0,151522,151689,1,0 S,0,151522,151689,1.02,1 F,0,151856,152022,1,0 S,0,151856,152022,1.02,1 F,0,171189,171356,1,0 S,0,171189,171356,1.02,1 F,0,171856,172022,1,0 S,0,171856,172022,1.02,1 F,0,172522,172689,1,0 S,0,172522,172689,1.02,1 F,0,173189,173356,1,0 S,0,173189,173356,1.02,1 F,0,173856,174022,1,0 S,0,173856,174022,1.02,1 F,0,174189,174356,1,0 S,0,174189,174356,1.02,1
Sprite,Foreground,Centre,"o.png",320,240 F,0,9689,9856,1,0 S,0,9689,9856,1.02,1 F,0,86022,86189,1,0 S,0,86022,86189,1.02,1 F,0,86356,86522,1,0 S,0,86356,86522,1.02,1 F,0,174022,174189,1,0 S,0,174022,174189,1.02,1 F,0,174356,174522,1,0 S,0,174356,174522,1.02,1
Sprite,Foreground,Centre,"dai_a.png",320,240 S,0,1189,,0.55 M,0,1189,1856,365,371,320,371 F,0,1189,1856,0,1 F,0,31856,32522,1,0 M,0,64522,65189,365,371,320,371 F,0,64522,65189,0,1 F,0,96856,97522,1,0 M,0,131189,131856,365,371,320,371 F,0,131189,131856,0,1 F,0,151856,152522,1,0 M,0,174856,175523,365,371,320,371 F,0,174856,175523,0,1 F,0,197189,197856,1,0
Sprite,Foreground,Centre,"dai.png",320,240 M,0,2356,,428,405 F,0,2356,2606,0,1 S,0,2356,2606,0.55,0.75 S,0,2606,3189,0.75,0.65 F,0,31856,32522,1,0 F,0,65689,65939,0,1 S,0,65689,65939,0.55,0.75 S,0,65939,66522,0.75,0.65 F,0,96856,97522,1,0 F,0,132356,132606,0,1 S,0,132356,132606,0.55,0.75 S,0,132606,133189,0.75,0.65 F,0,151856,152522,1,0 F,0,176023,176273,0,1 S,0,176023,176273,0.55,0.75 S,0,176273,176856,0.75,0.65 F,0,197189,197856,1,0
Sprite,Foreground,Centre,"nana_a.png",320,240 S,0,32522,,0.55 M,0,32522,33189,494,106,545,106 F,0,32522,33189,0,1 F,0,63856,64522,1,0 M,0,97522,98189,494,106,545,106 F,0,97522,98189,0,1 F,0,109189,109856,1,0 F,0,119856,120522,0,1 F,0,130522,131189,1,0 M,0,152522,153189,494,106,545,106 F,0,152522,153189,0,1 F,0,174189,174856,1,0
Sprite,Foreground,Centre,"nana.png",320,240 M,0,33689,,444,133 F,0,33689,33939,0,1 S,0,33689,33939,0.45,0.65 S,0,33939,34522,0.65,0.55 F,0,63856,64522,1,0 F,0,98689,98939,0,1 S,0,98689,98939,0.45,0.65 S,0,98939,99522,0.65,0.55 F,0,109189,109856,1,0 F,0,119856,120522,0,1 F,0,130522,131189,1,0 F,0,153689,153939,0,1 S,0,153689,153939,0.45,0.65 S,0,153939,154522,0.65,0.55 F,0,174189,174856,1,0
//Storyboard Sound Samples
//Background Colour Transformations
3,100,232,236,181

[TimingPoints]
523,333.333333333333,4,1,1,45,1,0
8522,-100,4,1,1,40,0,0
21522,-100,4,1,1,45,0,0
42606,-100,4,1,1,30,0,0
42939,-100,4,1,1,40,0,0
43106,-100,4,1,1,50,0,0
64272,-100,4,1,1,40,0,0
64356,-100,4,1,1,30,0,0
64439,-100,4,1,1,20,0,0
64522,-200,4,2,1,50,0,0
64522,-200,4,2,1,50,0,0
83189,-200,4,1,1,50,0,0
85619,-200,4,1,1,20,0,0
85856,-100,4,1,1,50,0,0
87189,-100,4,1,1,50,0,1
108356,-100,4,1,1,50,0,0
108456,-100,4,1,1,31,0,0
120189,-100,4,1,1,50,0,0
130856,-100,4,1,1,30,0,0
131189,-100,4,1,1,35,0,0
141189,-100,4,1,1,40,0,0
141856,-100,4,1,1,45,0,0
152439,-200,4,2,1,51,0,0
171189,-100,4,1,1,51,0,0
175189,-100,4,1,1,51,0,1
197022,-100,4,1,1,51,0,0

[Colours]
Combo1 : 239,173,133
Combo2 : 240,155,155
Combo3 : 239,215,141
Combo4 : 255,225,252

[HitObjects]
240,96,523,2,0,B|272:64|312:72,1,80,2|0
384,152,856,2,0,B|360:192|312:192,1,80,2|0
216,192,1189,2,0,B|120:176|120:80,1,160,2|0
56,168,1689,2,0,B|88:248|56:328,1,160,2|2
160,288,2189,1,0
264,312,2356,1,2
352,256,2522,1,2
344,144,2689,1,2
240,96,2856,2,0,B|168:64|80:96,2,160,2|2|2
256,256,3856,6,0,B|312:312|408:304,1,160,2|2
456,224,4356,1,0
432,128,4522,1,2
336,96,4689,1,0
256,160,4856,1,2
256,256,5022,1,0
256,160,5189,2,0,B|328:192|376:272,1,160,2|0
136,104,5856,6,0,B|88:104|64:136,1,80,2|0
208,232,6189,2,0,B|168:232|136:200,1,80,2|0
144,344,6522,2,0,B|56:320|64:224,1,160,2|0
160,224,7022,2,0,B|248:200|248:104,1,160,2|2
152,88,7522,5,0
272,0,7689,1,2
264,200,7856,1,0
240,56,8022,5,2
192,176,8189,1,2
336,96,8356,1,0
400,184,8522,6,0,B|496:184,1,80,6|4
296,272,8856,2,0,B|216:272,1,80,4|0
176,176,9189,2,0,B|256:136|336:176|336:176,1,160,6|4
368,272,9689,1,0
96,144,10856,5,0
192,176,11022,1,0
288,208,11189,2,0,B|344:152,2,80,2|0|0
96,144,11856,2,0,B|40:200,2,80,2|0|0
288,208,12522,1,2
376,152,12689,1,0
464,96,12856,1,0
376,152,13022,2,0,B|408:224|376:312,1,160,2|0
288,256,13522,1,0
192,272,13689,1,0
112,336,13856,6,0,B|32:336,1,80,2|0
96,240,14189,2,0,B|176:240,1,80,2|0
232,152,14522,2,0,B|280:224|376:216,1,160,2|2
336,120,15022,1,0
400,40,15189,2,0,B|448:112,1,80,2|0
336,120,15522,2,0,B|336:208,1,80,2|0
232,200,15856,2,0,B|208:280,2,80,2|0|0
240,176,16272,1,0
248,152,16356,1,0
304,56,16522,1,2
400,120,16689,1,0
400,120,16856,6,0,B|488:152|488:248,1,160,0|2
392,232,17356,1,0
384,328,17522,2,0,B|296:296|296:200,1,160,0|2
288,104,18022,1,0
144,200,18189,1,2
208,280,18356,2,0,B|224:320|256:344,1,80
344,296,18689,5,0
408,224,18856,1,0
408,128,19022,1,2
344,56,19189,2,8,B|352:16|400:8|424:48,1,80,2|8
256,104,19522,2,0,B|272:144|320:152,1,80
448,79,19856,2,0,B|472:88|448:136|408:128,1,80,2|0
408,224,20189,2,0,B|360:216|341:180,1,80
296,80,20522,5,0
200,120,20689,1,0
176,224,20856,1,0
240,304,21022,1,0
80,272,21522,5,0
80,272,21689,1,0
80,272,21856,2,0,B|32:200|104:160|104:160|96:120,1,160,4|8
168,216,22356,1,0
224,296,22522,2,0,B|288:256|248:192|248:192|280:160,1,160,0|8
275,164,23022,1,0
320,80,23189,1,0
320,80,23522,5,8
392,144,23689,1,0
464,208,23856,1,0
464,208,24189,5,8
384,264,24356,1,0
288,280,24522,2,0,B|224:296|176:224|176:224|144:240,1,160,0|8
112,144,25022,1,0
192,80,25189,2,0,B|240:144,1,80,0|0
260,168,25439,1,0
280,192,25522,2,0,B|344:144,1,80,8|0
448,160,25856,5,8
256,32,26189,1,8
64,160,26522,1,8
256,288,26856,1,8
256,288,27022,1,0
256,288,27189,6,0,B|320:248|320:192|296:160|296:160|272:176,1,160,0|8
200,120,27689,1,0
176,216,27856,2,0,B|232:248|304:216|304:216|320:264,1,160,0|8
408,216,28356,1,0
456,136,28522,1,0
176,216,28856,1,8
176,216,29022,1,0
176,216,29189,2,0,B|152:304|56:304,1,160,0|8
16,216,29689,1,0
88,136,29856,1,0
88,136,30189,5,8
184,96,30356,1,0
288,96,30522,2,0,B|375:97,1,80,0|0
392,112,30772,1,0
416,128,30856,2,0,B|336:128,1,80,8|0
224,128,31189,1,0
80,232,31522,1,8
176,264,31689,1,0
272,296,31856,1,0
376,328,32022,1,0
376,328,32106,1,0
376,328,32189,2,0,B|432:272,1,80,8|0
432,88,32522,6,0,B|336:80|264:152,1,160,4|8
216,216,33022,1,0
216,216,33189,1,0
144,288,33356,2,0,B|64:296,2,80,0|8|0
248,320,33856,2,0,B|328:344|408:320,1,160,0|8
472,240,34356,2,0,B|440:208|384:216,1,80
296,216,34689,1,0
136,216,34856,1,8
288,168,35022,1,0
160,264,35189,1,0
256,136,35356,6,0,B|160:136,2,80,0|8|0
360,160,35856,1,8
304,248,36022,1,0
304,248,36106,1,0
304,248,36189,1,8
392,304,36356,1,0
440,216,36522,2,0,B|440:56,2,160,0|0|0
424,248,37272,1,0
400,264,37356,1,0
376,280,37439,1,0
344,296,37522,2,0,B|248:296,1,80,8|0
88,192,37856,6,0,B|200:192,1,80
256,128,38189,1,8
344,192,38356,1,0
312,288,38522,1,0
208,288,38689,1,0
168,192,38856,2,0,B|64:192,1,80,8|0
256,72,39189,2,0,B|320:72|336:120|408:120,1,160,0|8
472,200,39689,2,0,B|488:304,2,80
368,200,40189,1,8
296,280,40356,1,0
200,232,40522,6,0,B|120:240,1,80,0|8
88,216,40772,1,0
72,256,40856,2,0,B|40:336,1,80,8|0
240,288,41189,2,0,B|288:272|344:280,1,80,0|8
352,304,41439,1,0
384,320,41522,2,0,B|424:328|464:320,1,80,8|0
424,248,41856,2,0,B|424:88,2,160,0|4|4
344,320,42689,5,0
264,248,42856,1,0
184,320,43022,1,0
104,248,43189,1,0
192,64,43523,6,0,B|288:64,2,80,8|0|0
120,144,44023,1,0
64,232,44189,2,0,B|64:312,2,80,8|0|0
152,288,44689,1,0
256,304,44856,1,8
360,288,45023,1,0
256,304,45189,1,0
400,120,45522,5,8
480,184,45689,1,0
400,120,45856,2,0,B|304:96|232:136,1,160,0|8
152,184,46356,1,0
80,256,46523,2,0,B|32:344,2,80,8|0|0
176,288,47023,2,0,B|208:344,2,40,0|0|8
248,216,47356,1,0
328,280,47523,1,8
408,216,47689,1,0
328,152,47856,1,8
248,216,48023,1,0
168,152,48189,5,8
88,216,48356,2,0,B|72:256|88:320,1,80,0|0
288,336,48856,1,8
440,192,49189,1,0
288,48,49523,1,8
208,112,49689,1,0
280,184,49856,2,0,B|264:232|216:256,1,80,0|0
128,232,50189,2,0,B|128:296|176:328,1,80,8|0
256,336,50523,2,0,B|424:336,1,160,0|8
472,248,51023,5,0
432,152,51189,1,0
336,120,51356,1,0
432,152,51523,1,8
336,120,51689,1,0
232,120,51856,1,0
128,160,52022,1,0
64,248,52189,1,8
40,352,52356,1,0
40,352,52439,1,0
40,352,52522,2,0,B|120:352,1,80,8|0
424,120,53189,5,8
400,152,53273,1,0
360,160,53356,1,0
264,128,53523,1,8
248,160,53606,1,0
264,200,53689,1,0
352,256,53856,6,0,B|328:304|272:336|216:328,1,160,8|0
120,288,54356,1,0
216,256,54523,2,0,B|288:256|344:280|376:304,1,160,8|0
464,344,55023,1,0
440,240,55189,2,0,B|456:152,1,80,8|0
408,256,55523,2,0,B|344:184,1,80
376,296,55856,2,0,B|208:296,1,160,8|0
216,296,56356,1,0
136,224,56522,6,0,B|104:256|120:304,1,80,8|0
232,192,56856,2,0,B|224:144|176:128,1,80,8|0
96,80,57189,2,0,B|48:112|48:112|72:168|48:224,1,160,0|8
112,304,57689,1,0
208,256,57856,2,0,B|296:240|296:240|320:280|384:296,1,160,0|8
392,192,58356,1,0
304,136,58523,1,8
208,168,58689,1,0
120,224,58856,2,0,B|96:256|96:328,1,80,8|0
200,304,59189,6,0,B|376:304,1,160
360,304,59689,1,8
416,216,59856,2,0,B|248:216,1,160
256,216,60356,1,8
168,168,60523,1,0
272,128,60689,1,8
352,208,60856,1,0
288,296,61023,1,8
184,272,61189,2,0,B|144:256|112:304|112:304|72:312|32:272,1,160
32,176,61689,1,8
112,112,61856,5,4
208,152,62023,1,4
280,80,62189,1,12
280,80,62523,1,4
208,152,62690,1,4
280,224,62856,1,12
280,224,63189,1,4
208,152,63356,1,4
128,224,63522,2,0,B|128:320|128:320|72:368,1,160
288,224,64189,1,2
300,252,64272,1,0
300,284,64356,1,2
288,304,64439,1,0
288,304,64522,6,0,B|228:324|164:300,2,120,2|2|0
208,216,65856,2,0,B|168:208|128:216,1,80,2|0
40,328,66522,2,0,B|68:269|28:213,1,120,2|0
80,152,67189,2,0,B|120:176|160:176,1,80,2|0
232,192,67689,2,0,B|280:160,2,40,0|2|0
312,232,68189,1,0
368,168,68356,1,2
256,64,68856,5,0
256,160,69189,1,2
256,256,69522,1,2
256,160,69856,6,0,B|192:152|136:176,1,120,2|2
80,232,70522,2,0,B|48:160,1,80
136,312,71189,2,0,B|176:304|216:280,1,80,2|0
296,168,71856,2,0,B|296:232|352:272,1,120,2|0
349,270,72522,1,2
416,232,72689,1,0
440,160,72856,1,0
272,80,73189,1,2
200,112,73356,1,0
160,184,73522,1,0
152,264,73689,1,2
432,192,74189,5,0
336,192,74523,1,2
240,192,74856,1,2
144,192,75189,6,0,B|104:264|96:352,1,160,2|2
232,288,76356,1,0
232,288,76522,2,0,B|304:288|344:248,1,120,2|0
392,184,77189,2,0,B|440:240|448:248,1,80,2|0
336,120,77856,2,0,B|272:112|224:152,1,120,2|0
184,224,78522,1,0
360,208,78856,1,0
424,264,79022,1,2
136,296,79522,5,0
136,200,79856,1,2
136,104,80189,1,2
136,104,80356,1,0
136,104,80522,6,0,B|256:104,1,120,2|0
256,104,81189,1,2
400,192,81522,1,0
256,280,81856,2,0,B|136:280,1,120,2|0
56,264,82522,2,0,B|112:200,1,80,2|0
256,192,83189,5,12
336,224,83356,1,0
416,192,83522,1,8
256,80,83856,1,12
160,56,84022,1,0
64,80,84189,1,8
104,256,84522,1,12
200,304,84689,1,4
312,304,84856,1,12
408,256,85022,1,4
256,224,85189,6,0,B|256:96,1,120,4|4
352,104,85856,5,4
256,8,86022,1,4
160,104,86189,1,4
256,104,86356,6,0,B|256:200,1,80
256,208,86606,1,0
256,232,86689,1,0
176,288,86856,5,0
104,216,87022,1,0
152,128,87189,2,0,B|88:64|88:64,1,80,8|0
48,160,87522,2,0,B|56:280|-16:328,1,160,0|8
112,304,88022,1,0
200,248,88189,2,0,B|248:312|344:312,1,160,0|8
432,256,88689,1,0
304,200,88856,1,8
168,144,89022,2,0,B|224:88|320:88,1,160,0|8
344,88,89439,1,0
368,96,89522,5,0
424,176,89689,1,0
432,280,89856,2,0,B|392:320|320:320,1,120,8|0
288,304,90189,1,0
216,224,90356,1,0
120,264,90522,2,0,B|120:200|168:152,1,120,8|0
192,136,90856,1,0
288,88,91022,1,0
368,168,91189,6,0,B|272:168,1,80,8|0
160,232,91522,2,0,B|240:232,1,80,8|0
432,312,91856,2,0,B|272:312,1,160,8|0
240,312,92272,1,0
208,312,92356,1,0
144,232,92522,6,0,B|144:192|176:160,1,80,8|0
256,128,92856,2,0,B|296:104|296:56,1,80,0|0
248,216,93189,6,0,B|288:200|328:216,1,80,8|0
392,160,93522,2,0,B|432:184|432:232|432:232,1,80,0|0
400,312,93856,2,0,B|360:328|360:328|320:312,1,80,8|0
88,272,94189,2,0,B|128:288|128:288|160:272,2,80,0|0|8
56,176,94689,1,8
136,112,94856,1,0
216,176,95022,1,0
184,272,95189,2,0,B|208:328|248:304|216:288,1,80,8|0
304,232,95522,2,0,B|352:248|352:296,1,80
184,272,95856,6,0,B|192:332|237:319|210:295,1,80,8|0
400,192,96189,2,0,B|442:219|429:266,1,80
256,64,96522,5,8
232,168,96689,1,0
136,216,96856,1,8
32,176,97022,1,0
128,88,97189,1,0
152,112,97272,1,0
160,144,97356,1,0
160,176,97439,1,0
136,208,97522,6,0,B|160:248|216:248,1,80
296,200,97856,2,0,B|320:240|304:288,1,80
216,320,98189,1,8
104,144,98522,2,0,B|152:104|208:120,1,80
280,112,98856,1,8
368,168,99022,1,0
272,208,99189,2,0,B|200:208|208:240|208:240|168:264|104:240,1,160,0|8
48,184,99689,1,0
56,288,99856,2,0,B|80:328|128:344,2,80,0|0|8
48,184,100356,5,0
48,144,100439,1,0
48,104,100522,1,8
144,56,100689,2,0,B|192:80|200:120,1,80,0|8
128,192,101022,1,0
216,248,101189,2,0,B|240:288|304:296,1,80
360,224,101522,2,0,B|400:248|416:304,2,80,8|0|0
272,168,102022,1,0
168,192,102189,1,8
208,96,102356,1,0
272,168,102522,1,0
416,320,102856,6,0,B|368:312|328:248,1,80
352,176,103189,2,0,B|296:184|256:224,1,80,8|8
232,296,103522,2,0,B|176:280|128:304|128:304|80:272,1,160
32,184,104022,1,8
128,144,104189,2,0,B|168:128|248:128|280:160,1,160,8|0
328,256,104689,1,0
432,256,104856,2,0,B|488:200,2,80,8|0|0
376,344,105356,5,0
272,328,105522,1,8
232,232,105689,1,0
312,160,105856,1,0
104,168,106189,2,0,B|72:224|104:264|104:264|72:344,1,160
296,336,106856,2,0,B|360:336|360:336|392:304|392:304|392:240,1,160
384,56,107522,2,0,B|320:56|320:56|288:88|288:88|288:152,1,160
256,240,108022,1,0
152,240,108189,1,8
120,144,108356,1,8
208,80,108522,2,0,B|296:80,1,80
352,160,108856,2,0,B|240:160,1,80
88,64,120189,5,0
48,168,120356,1,0
152,152,120522,2,0,B|176:224|160:264,1,80,8|0
88,304,120856,2,0,B|192:336|152:344|152:344|248:320,1,160,0|8
312,288,121356,1,0
408,240,121522,2,0,B|376:184|368:136|392:72,1,160,0|8
480,32,122022,1,0
456,136,122189,2,0,B|400:192|344:192|280:192,1,160,0|8
216,144,122689,5,0
208,184,122772,1,0
184,216,122856,1,0
112,296,123022,1,0
216,320,123189,2,0,B|248:352|296:352,1,80,8|0
384,312,123522,6,0,B|384:264|352:240,1,80
256,216,123856,1,8
192,296,124022,1,0
152,328,124106,1,0
104,320,124189,1,8
24,248,124356,1,0
120,200,124522,2,0,B|176:168|176:168|216:192|232:200|272:184,1,160,8|0
240,88,125022,1,0
344,120,125189,2,0,B|384:160|384:232|344:264,1,160,8|0
248,288,125689,6,0,B|152:288,1,80,0|8
120,200,126022,2,0,B|224:200,1,80,0|0
232,176,126272,1,0
264,152,126356,2,0,B|304:144|360:152,1,80,0|8
440,176,126689,1,0
456,272,126856,2,0,B|456:368,1,80
368,288,127189,2,0,B|352:232|392:208|392:208|416:176|392:120,1,160,8|0
328,72,127689,1,0
256,144,127856,2,0,B|160:160,2,80,8|0|8
328,224,128356,5,0
328,224,128439,1,0
328,224,128522,1,8
432,208,128689,2,0,B|472:304,2,80,0|8|0
376,120,129189,1,8
376,120,129356,1,0
248,96,129522,1,8
248,96,129689,1,0
144,160,129856,5,12
256,336,130189,1,4
432,224,130522,2,0,B|376:160|416:136|448:160|400:200|352:152|352:104,1,160
144,160,131189,6,0,B|112:192|72:168,1,80,2|0
128,88,131522,2,0,B|176:80|200:112,1,80,2|0
272,184,131856,2,0,B|280:232|328:232,1,80,2|0
336,136,132189,2,0,B|336:80|288:80,1,80,2|0
208,128,132522,1,2
120,264,132689,1,0
264,208,132856,1,2
112,168,133022,1,0
208,288,133189,2,0,B|272:336|360:320,1,160,2|0
456,272,133689,1,0
464,248,133772,1,0
472,224,133856,6,0,B|376:272|344:176|312:224,1,160,2|0
40,296,134522,2,0,B|136:344|168:248|200:296,1,160,2|0
280,232,135022,1,0
216,152,135189,2,0,B|280:96,1,80,2|0
344,176,135522,2,0,B|424:176,1,80
384,272,135856,2,0,B|440:328,1,80
96,200,136189,5,0
160,128,136356,1,0
256,144,136522,2,0,B|336:192|408:144,1,160,2|2
406,144,137022,1,0
256,248,137189,2,0,B|185:295|105:247,1,160,2|2
104,248,137689,1,0
184,176,137856,1,2
304,64,138022,1,0
200,64,138189,1,2
320,176,138356,1,0
184,176,138522,6,0,B|144:192|104:176,1,80,2|0
32,104,138856,1,0
128,72,139022,1,0
224,120,139189,1,2
256,216,139356,1,0
336,304,139522,1,2
416,224,139689,1,0
224,120,139856,5,2
144,208,140022,1,0
344,136,140189,1,2
416,224,140356,1,0
256,320,140522,2,0,B|256:224,1,80,2|0
256,240,140856,2,0,B|256:200,2,40
144,128,141189,5,0
160,96,141272,1,0
192,72,141356,1,0
320,152,141522,1,0
304,192,141606,1,0
280,216,141689,1,0
160,232,141856,6,0,B|120:216|112:168,1,80,2|0
224,176,142189,1,2
320,224,142356,1,0
368,312,142522,2,0,B|408:296|424:256,1,80,2|0
464,160,142856,1,2
376,104,143022,1,0
272,96,143189,5,2
168,96,143356,1,0
48,208,143522,1,2
168,208,143689,1,0
272,304,143856,2,0,B|136:304,1,120,2|0
152,304,144189,1,0
64,248,144356,1,0
128,160,144522,5,2
272,304,144856,1,0
416,168,145189,1,2
272,16,145522,1,0
168,56,145689,1,0
168,56,145772,1,0
168,56,145855,2,0,B|112:120,1,80,0|0
208,160,146189,2,0,B|184:240,1,80
288,240,146522,2,0,B|288:320,1,80
400,344,146856,6,0,B|376:264,1,80,0|0
368,240,147106,1,0
368,208,147189,2,0,B|432:160|432:160|416:120|448:80,1,160,2|0
344,104,147689,1,0
240,80,147856,2,0,B|288:16|288:16|328:40|368:8,1,160,2|0
344,104,148356,1,0
272,176,148522,2,0,B|192:176,1,80,2|0
328,256,148856,2,0,B|408:256,1,80,2|0
272,336,149189,2,0,B|192:360|112:336,1,160,2|0
114,336,149689,1,0
256,192,149856,5,4
256,80,150022,1,0
256,80,150189,1,0
256,304,150522,5,4
256,80,150689,1,0
256,80,150856,1,0
256,80,151189,5,4
168,224,151356,1,4
344,224,151522,1,4
256,80,151856,6,0,B|256:240,1,160,4|0
256,240,152272,1,0
256,240,152356,1,0
152,304,152522,6,0,B|112:336|64:328,1,80
56,248,153022,1,2
128,216,153189,2,0,B|176:208|216:216,1,80,0|2
328,320,153856,2,0,B|376:320|400:288,1,80
432,216,154356,1,2
352,208,154522,2,0,B|352:160|408:136,1,80,0|2
248,64,155189,6,0,B|200:72|160:104,1,80,0|2
112,144,155689,1,0
64,208,155856,1,2
80,288,156022,1,0
152,320,156189,1,2
160,240,156356,2,0,B|200:240|232:272,1,80
280,336,156856,2,0,B|328:336,1,40,2|0
344,264,157189,2,0,B|392:264,1,40,2|0
408,336,157522,2,0,B|464:336,1,40,2|0
464,256,157856,6,0,B|456:208|416:184,1,80
352,160,158356,1,2
320,88,158522,2,0,B|272:104|264:152,1,80,0|2
296,304,159189,2,0,B|256:312|216:304,1,80,0|2
168,152,159856,2,0,B|208:144|256:152,1,80,0|2
312,200,160356,1,0
376,248,160522,6,0,B|416:272,1,40,0|2
336,288,160856,2,0,B|352:336,1,40,0|2
280,280,161189,2,0,B|248:320,1,40
248,232,161522,2,0,B|208:232,1,40,0|2
264,176,161856,2,0,B|280:128|320:112,1,80
384,80,162356,1,2
368,160,162522,2,0,B|384:240,1,80,0|2
248,328,163189,6,0,B|200:344|152:328,1,80
112,280,163689,1,2
176,224,163856,1,0
176,224,164189,1,2
112,280,164356,1,0
169,332,164522,6,0,B|200:344|248:328,1,80
304,272,165022,1,2
376,296,165189,2,0,B|384:248|360:216,1,80,0|2
256,96,165856,2,0,B|208:160|208:160|208:160|216:200|168:240,1,160,0|2
48,144,166856,1,0
48,224,167022,2,0,B|48:264|54:303,1,80,2|0
136,312,167522,2,0,B|136:256|128:232,1,80,2|0
88,80,168189,1,2
248,80,168522,6,0,B|336:80,2,80,0|2|0
408,80,169522,1,2
344,224,169856,2,0,B|344:320,2,80,0|2|0
184,224,170856,1,2
368,64,171189,5,0
424,168,171356,1,0
384,280,171522,1,8
144,304,171856,1,8
72,208,172022,1,0
104,96,172189,1,8
312,136,172522,1,8
336,256,172689,1,4
176,256,172856,1,8
200,136,173022,1,4
256,288,173189,2,0,B|256:128,1,160
424,88,173856,5,0
272,48,174022,1,0
120,104,174189,1,0
80,256,174356,1,0
120,104,174522,2,0,B|160:144,3,40
160,160,174856,6,0,B|176:200|224:216,1,80,0|0
288,128,175189,1,8
352,224,175356,1,0
280,312,175522,1,0
280,312,175856,5,8
352,224,176022,1,0
288,128,176189,2,0,B|248:64|136:64,1,160,0|8
72,128,176689,2,0,B|72:176|32:200,1,80
96,272,177022,2,0,B|136:312|136:312|168:256|200:312|200:312|216:296,2,160,8|0|0
144,192,177856,2,0,B|224:160,1,80,8|0
144,192,178189,5,8
144,192,178356,1,0
256,240,178522,2,0,B|344:240,1,80,8|0
256,240,178856,5,8
256,240,179022,1,0
224,144,179189,1,8
312,80,179356,1,0
400,144,179522,1,0
368,240,179689,1,0
256,240,179856,2,0,B|336:272|416:240,1,160,8|0
448,144,180356,5,0
384,56,180522,1,8
280,96,180689,1,0
288,208,180856,2,0,B|224:256|136:216,1,160,0|8
80,136,181356,1,0
176,88,181522,2,0,B|208:128|200:176,1,80
224,264,181856,2,0,B|264:272|312:264,1,80,8|0
400,160,182189,2,8,B|360:168|320:160,2,80
216,160,182689,5,0
112,136,182856,1,0
184,64,183022,1,0
184,64,183189,2,0,B|224:64|192:104|192:112|216:128|232:112,1,80,8|0
320,96,183522,2,0,B|328:136|304:176,1,80
224,240,183856,2,0,B|224:280|184:248|176:248|160:272|176:288,1,80,8|0
256,344,184189,2,0,B|304:344|328:312,1,80
328,216,184522,5,8
328,120,184689,1,0
408,56,184856,1,8
408,152,185022,1,0
408,248,185189,1,0
376,272,185272,1,0
344,280,185356,1,0
304,288,185439,1,0
272,288,185522,6,0,B|184:288,1,80
112,232,185856,2,0,B|112:184|152:152,1,80,8|0
128,72,186189,2,0,B|168:152|264:152,1,160,0|8
256,56,186689,1,0
256,152,186856,2,0,B|304:88|400:104,1,160,0|8
400,256,187356,1,0
400,104,187522,1,0
400,256,187689,6,8,B|344:304|296:288|296:288|264:336,2,160,8|8|0
344,168,188522,2,0,B|264:168,1,80,8|0
264,168,188856,1,8
264,168,189022,1,0
80,232,189189,2,0,B|160:232,1,80,8|0
160,232,189522,1,8
160,232,189689,1,0
160,128,189856,6,0,B|232:88,1,80,8|0
368,232,190189,2,0,B|296:184,1,80
256,280,190522,2,0,B|256:360,1,80,8|0
256,192,190856,5,0
256,96,191022,1,0
360,96,191189,1,8
360,192,191356,1,8
256,192,191522,2,0,B|168:192,1,80,0|0
152,96,191856,5,0
256,96,192022,1,8
256,192,192189,2,0,B|344:192,1,80,8|0
256,288,192522,2,0,B|176:288,1,80,8|0
88,240,192856,1,8
88,240,193022,2,0,B|64:160|88:80,1,160
176,40,193522,2,0,B|256:40,1,80
336,104,193856,6,0,B|336:264,1,160,4|0
176,264,194522,2,0,B|176:104,1,160,4|0
336,104,195189,2,0,B|344:184|336:264,1,160,4|0
256,320,195689,1,0
175,263,195856,2,0,B|168:184|176:104,1,160,4|0
256,48,196522,5,0
256,192,196856,1,0
256,192,197022,1,0
