osu file format v9

[General]
AudioFilename: tamaran.mp3
AudioLeadIn: 1000
PreviewTime: 86986
Countdown: 0
SampleSet: Normal
StackLeniency: 0.7
Mode: 0
LetterboxInBreaks: 1

[Editor]
DistanceSpacing: 1.3
BeatDivisor: 2
GridSize: 4

[Metadata]
Title:Kyun Kyun Tamaran Inaba tan!
Artist:Tsubaki
Creator:Aenna
Version:Yukitan!
Source:Touhou
Tags:Halozy taketori hishou starrypresto Apricot Komeiji Yuki

[Difficulty]
HPDrainRate:3
CircleSize:3
OverallDifficulty:4
ApproachRate:5
SliderMultiplier:0.8
SliderTickRate:1

[Events]
//Background and Video events
0,0,"aaaaa.jpg"
//Break Periods
2,64852,74119
2,130852,137786
2,152852,162119
//Storyboard Layer 0 (Background)
//Storyboard Layer 1 (Fail)
//Storyboard Layer 2 (Pass)
//Storyboard Layer 3 (Foreground)
//Storyboard Sound Samples
//Background Colour Transformations
3,100,163,162,255

[TimingPoints]
653,333.333333333333,4,1,1,50,1,0
11152,-100,4,1,1,60,0,0
21319,-100,4,1,1,5,0,0
21819,-100,4,1,0,40,0,0
43152,-100,4,1,1,50,0,0
53819,-100,4,1,1,60,0,0
64486,-100,4,1,1,40,0,0
75152,-133.333333333333,4,1,1,40,0,0
75319,-133.333333333333,4,1,1,40,0,0
83152,-133.333333333333,4,1,1,50,0,0
83319,-100,4,1,1,50,0,0
87152,-100,4,1,0,60,0,0
87319,-100,4,1,0,60,0,1
108486,-100,4,1,0,50,0,1
109986,-100,4,1,0,50,0,0
130652,-100,4,1,0,50,0,0
141819,-100,4,1,1,60,0,0
152486,-100,4,1,1,40,0,0
163152,-133.333333333333,4,1,1,40,0,0
171152,-100,4,1,1,50,0,0
175152,-100,4,1,1,60,0,0
175319,-100,4,1,1,60,0,1
196652,-100,4,1,1,50,0,0

[Colours]
Combo1 : 255,196,136
Combo2 : 255,151,203
Combo3 : 247,123,0

[HitObjects]
204,256,653,2,0,B|212:304|260:316,2,80,0|0|2
108,212,1652,2,0,B|64:112|144:60,1,160,0|2
188,156,2652,1,0
188,156,2986,1,2
288,188,3319,6,0,B|280:236|232:248,2,80,0|0|2
268,84,4319,2,0,B|324:72|384:108|396:168,1,160,0|2
392,264,5319,2,0,B|392:360,1,80,0|2
288,340,5986,6,0,B|204:340,2,80,0|0|2
288,236,6986,2,0,B|344:160|284:84,1,160,0|2
212,164,7986,2,0,B|116:164,1,80,0|2
48,224,8652,5,0
84,324,8986,2,0,B|176:324|176:324,1,80,2|0
260,284,9652,2,0,B|260:244,1,40,2|0
260,284,10986,5,0
164,244,11319,2,0,B|128:344|227:388,1,160,2|0
260,284,12319,1,0
308,196,12652,2,0,B|391:232|355:332,1,160,2|0
260,284,13652,1,0
160,264,13986,6,0,B|160:104,1,160,2|0
360,164,15319,1,2
360,268,15652,1,0
256,268,15986,1,2
256,268,16652,6,0,B|278:165|186:145,1,160,2|0
132,348,17986,2,0,B|40:328|64:216,1,160,2|0
204,76,19319,5,2
308,76,19652,1,0
256,168,19986,1,2
256,168,20319,1,0
256,168,20652,2,0,B|256:336,1,160,4|0
348,140,21986,6,0,B|440:140,3,80,0|2|0|2
480,232,23319,1,2
380,260,23653,2,0,B|380:304,2,40,0|0|2
172,232,24653,6,0,B|76:232,1,80,0|2
56,136,25319,2,0,B|56:56,1,80,0|2
160,40,25986,1,2
232,116,26319,2,0,B|280:116,2,40,0|0|2
428,180,27319,6,0,B|428:272,1,80,0|2
344,324,27986,1,0
324,220,28319,2,0,B|236:220,1,80,2|2
148,256,28986,2,0,B|148:312,2,40,0|0|2
304,120,29986,5,0
224,52,30319,1,2
120,52,30653,2,0,B|56:120,1,80,0|2
52,212,31319,1,0
152,192,31652,2,0,B|152:232,2,40,0|0|2
340,280,32653,5,0
440,244,32986,1,2
480,148,33319,2,0,B|480:52,1,80,0|2
380,44,33986,1,2
352,144,34319,2,0,B|300:144,2,40,0|0|2
228,312,35319,5,0
140,256,35653,2,0,B|48:256,2,80,2|0|2
180,160,36653,1,2
88,108,36986,2,0,B|88:56,2,40,0|0|2
268,212,37986,5,0
328,128,38319,1,2
412,192,38652,2,0,B|496:192,1,80,0|2
448,288,39319,1,2
344,292,39652,2,0,B|300:292,2,40,0|0|2
372,96,40652,6,0,B|308:156,1,80,0|2
236,80,41319,2,0,B|144:80,1,80,0|2
200,176,41986,2,0,B|200:264,2,80,2|2|2
392,256,43319,5,2
420,156,43652,1,0
396,56,43986,1,0
288,236,44652,2,0,B|196:236,2,80,2|0|2
392,256,45652,1,0
456,172,45986,5,2
456,172,46319,1,2
388,92,46652,2,0,B|304:92,2,80,0|2|2
360,300,47986,1,0
156,268,48652,6,0,B|76:212|128:128,1,160,2|0
320,212,49986,2,0,B|408:252|384:356,1,160,2|2
284,320,50986,1,0
284,320,51319,6,0,B|188:320,1,80,2|0
128,248,51986,1,2
128,248,52319,2,0,B|128:160,1,80,0|2
308,64,53319,1,0
400,116,53652,1,0
472,192,53986,5,2
400,268,54319,1,0
308,316,54652,1,0
140,192,55319,2,0,B|44:192,2,80,2|0|2
232,140,56319,1,0
232,244,56652,5,2
320,192,56986,1,2
320,192,57319,2,0,B|412:192,2,80,0|2|2
152,316,58652,1,0
80,120,59319,6,0,B|108:100|108:100|132:160|216:176,1,160,2|0
408,216,60652,2,0,B|412:250|412:250|348:243|294:309,1,160,2|0
104,232,61986,6,0,B|56:208|64:152,1,80,6|0
156,124,62652,2,0,B|204:148|196:204,1,80,6|0
192,292,63319,2,0,B|192:344,2,40,6|0|0
296,292,63986,2,0,B|460:292,1,160,4|2
484,184,75319,6,0,B|484:92|484:92|452:52|452:52|344:52|344:52,1,239.999992847443
200,56,77319,1,2
332,136,77986,2,0,B|376:136|376:136|404:156|404:156|404:204|404:204,2,119.999996423721,0|2|0
200,56,79986,1,2
96,172,80653,6,0,B|116:256|164:268|164:268|220:260|264:188,1,239.999992847443
200,56,82653,1,2
388,144,83319,6,0,B|476:144,1,80,0|6
424,240,83986,2,0,B|328:240,1,80,0|2
280,320,84653,1,2
280,320,84986,2,0,B|184:320,1,80,0|6
144,120,85986,6,0,B|208:120,3,40
336,152,86986,1,0
392,240,87319,6,0,B|376:304|329:315,1,80,0|8
248,300,87986,2,0,B|216:280|208:224,1,80,0|8
220,128,88653,2,0,B|136:124,2,80,0|8|0
300,60,89653,1,8
300,60,89986,6,0,B|408:40|424:164|424:164,1,160
372,240,90986,1,8
284,300,91319,2,0,B|196:300,2,80,0|8|0
372,240,92319,1,8
288,180,92653,6,0,B|192:192|164:100,1,160
264,64,93653,1,8
368,64,93986,2,0,B|460:64,2,80,0|8|0
264,64,94986,1,8
172,112,95319,6,0,B|172:220,1,80,0|8
272,168,95986,2,0,B|272:276,1,80,0|8
352,316,96653,2,0,B|276:360|200:316,1,160
176,216,97653,1,8
88,160,97986,6,0,B|112:112|112:112|168:112,1,80,0|8
240,120,98653,2,0,B|264:144|264:144|276:208,1,80,0|8
304,288,99319,2,0,B|424:316,2,120,0|0|8
200,288,100653,6,0,B|96:288,1,80,0|8
56,204,101319,2,0,B|112:116,1,80,0|8
192,184,101986,2,0,B|296:124,2,120,0|0|8
100,232,103319,6,0,B|100:336,1,80,0|8
196,352,103986,1,0
292,316,104319,1,8
392,352,104653,2,0,B|392:232,2,120,0|0|8
292,316,105986,6,0,B|224:232,2,80,0|8|0
368,244,106986,1,8
468,272,107319,2,0,B|500:176,2,80,0|8|0
368,244,108319,1,8
400,144,108653,2,0,B|328:120|284:184,2,120,0|0|4
368,244,109986,6,0,B|368:336,1,80,0|2
264,308,110653,2,0,B|160:308,1,80,0|2
92,260,111319,1,2
128,164,111653,2,0,B|192:164,2,40,0|0|2
316,76,112653,6,0,B|408:76,2,80,0|2|0
212,72,113653,1,2
124,132,113986,1,2
204,200,114319,2,0,B|204:264,2,40,0|0|2
384,304,115319,5,0
464,236,115653,1,2
376,180,115986,2,0,B|268:180,2,80,0|2|2
464,236,116986,2,0,B|464:300,2,40,0|0|2
260,272,117986,6,0,B|192:344,1,80,0|2
100,328,118653,2,0,B|44:260,1,80,0|2
112,184,119319,1,0
216,184,119653,1,2
216,184,119986,2,0,B|224:88|336:80,1,160,2|0
312,184,120986,5,2
304,288,121319,2,2,B|392:264|408:180,1,160,0|0
312,184,122319,1,0
312,184,122653,2,0,B|232:124|144:196,1,160,2|0
236,256,123653,5,2
316,324,123986,2,2,B|228:376|152:324,1,160
236,256,124986,1,0
236,256,125319,2,0,B|140:236|136:140,1,160,2|0
240,156,126319,5,2
252,52,126653,2,2,B|340:80|344:176,1,160
240,156,127653,1,0
240,156,127986,2,0,B|188:232|248:316,1,160,2|0
312,232,128986,5,2
312,232,129319,2,0,B|416:232,1,80,0|2
460,156,129986,2,0,B|460:60,2,80,2|2|2
256,192,138986,12,0,141319
172,84,141986,5,2
172,292,142653,1,0
356,192,143319,2,0,B|436:192,2,80,2|0|2
252,192,144319,1,0
164,140,144653,5,2
164,244,144986,1,2
164,244,145319,2,0,B|164:344,2,80,0|2|2
256,56,146653,1,0
76,160,147319,6,0,B|32:244|108:312,1,160,2|0
212,128,148653,2,0,B|284:176|248:288,1,160,2|0
76,160,149986,6,0,B|28:136|36:80,1,80,6|0
128,48,150653,2,0,B|176:72|168:128,1,80,6|0
168,216,151319,2,0,B|116:240,2,40,6|0|0
272,232,151986,2,0,B|360:220|420:288,1,160,4|2
8,256,163319,6,0,B|112:228|112:228|72:320|84:360|128:324,1,239.999992847443
220,220,165319,2,0,B|272:200|272:200|296:240|284:344|284:344|236:360|212:324|248:288|304:268|368:272|368:272|396:316|368:356|368:356,1,479.999985694886,2|2
464,212,168652,6,0,B|424:68|272:76,1,239.999992847443
156,156,170652,1,0
288,316,171319,6,0,B|376:316,1,80,0|6
412,220,171986,2,0,B|316:220,1,80,0|2
256,148,172652,1,2
256,148,172986,2,0,B|160:148,1,80,0|6
80,332,173986,6,0,B|80:264,3,40
180,172,174986,1,0
264,108,175319,6,0,B|280:172|327:183,1,80,0|8
376,252,175986,2,0,B|408:232|416:176,1,80,0|8
444,84,176652,2,0,B|360:80,2,80,0|8|0
492,176,177652,1,8
472,280,177986,6,0,B|440:372|336:352|336:352,1,160
368,252,178986,1,8
276,300,179319,2,0,B|188:300,2,80,0|8|0
368,252,180319,1,8
468,224,180652,6,0,B|432:136|336:152,1,160
368,252,181652,1,8
268,284,181986,2,0,B|180:284,2,80,0|8|0
268,180,182986,1,8
164,164,183319,6,0,B|164:72,1,80,0|8
264,52,183986,2,0,B|356:52,1,80,0|8
408,136,184652,2,0,B|440:88|504:112|500:180|440:192,1,160
368,256,185652,1,8
464,296,185986,6,0,B|452:344|384:344,1,80,0|8
304,324,186652,2,0,B|260:300|268:236,1,80,0|8
328,172,187319,2,0,B|476:204,2,120,0|0|8
272,260,188652,6,0,B|176:260,2,80,0|8|0
328,172,189652,1,0
372,76,189986,2,0,B|512:76,2,120,0|0|8
272,48,191319,6,0,B|160:48,2,80,0|8|0
372,76,192319,1,8
316,164,192652,2,0,B|316:312,2,120,0|0|8
216,128,193986,6,0,B|112:128,2,80,0|8|0
316,164,194986,1,8
412,200,195319,2,0,B|492:200,2,80,0|8|0
316,164,196319,1,8
252,244,196652,1,0
252,244,196986,2,0,B|252:312,1,40,8|2
