osu file format v9

[General]
AudioFilename: tamaran.mp3
AudioLeadIn: 1000
PreviewTime: 86986
Countdown: 0
SampleSet: Normal
StackLeniency: 0.7
Mode: 0
LetterboxInBreaks: 1

[Editor]
DistanceSpacing: 1.2
BeatDivisor: 4
GridSize: 8

[Metadata]
Title:Kyun Kyun Tamaran Inaba tan!
Artist:Tsubaki
Creator:Aenna
Version:Inaba!
Source:Touhou
Tags:Halozy taketori hishou starrypresto Apricot Komeiji Yuki

[Difficulty]
HPDrainRate:7
CircleSize:4
OverallDifficulty:6
ApproachRate:9
SliderMultiplier:1.6
SliderTickRate:1

[Events]
//Background and Video events
0,0,"aaaaa.jpg"
//Break Periods
2,64853,74719
2,131185,140052
2,152852,162719
//Storyboard Layer 0 (Background)
//Storyboard Layer 1 (Fail)
//Storyboard Layer 2 (Pass)
//Storyboard Layer 3 (Foreground)
//Storyboard Sound Samples
//Background Colour Transformations
3,100,163,162,255

[TimingPoints]
653,333.333333333333,4,1,1,60,1,0
20569,-100,4,1,1,35,0,0
21319,-100,4,1,2,60,0,0
40569,-100,4,1,2,65,0,0
41883,-100,4,1,2,50,0,0
43152,-100,4,1,2,60,0,0
52569,-200,4,1,1,60,0,0
53236,-100,4,1,1,60,0,0
53986,-100,4,1,2,60,0,0
61902,-100,4,1,2,70,0,0
64319,-100,4,1,2,60,0,0
75152,-133.333333333333,4,1,1,60,0,0
79736,-133.333333333333,4,1,1,5,0,0
79819,-133.333333333333,4,1,1,60,0,0
82986,-100,4,1,2,70,0,0
85652,-100,4,1,2,5,0,0
85819,-100,4,1,2,70,0,0
86569,-100,4,1,1,60,0,0
87236,-100,4,1,1,70,0,0
87319,-100,4,1,1,70,0,1
108902,-100,4,1,1,5,0,1
108986,-100,4,1,1,70,0,1
109402,-100,4,1,2,60,0,1
109986,-100,4,1,2,60,0,0
130736,-200,4,1,2,60,0,0
131152,-100,4,1,1,60,0,0
145819,-100,4,1,2,60,0,0
149902,-100,4,1,2,70,0,0
162986,-133.333333333333,4,1,1,60,0,0
170986,-100,4,1,2,70,0,0
173652,-100,4,1,2,5,0,0
173819,-100,4,1,2,70,0,0
174569,-100,4,1,1,60,0,0
175236,-100,4,1,1,70,0,0
175319,-100,4,1,1,70,0,1
197652,-100,4,1,1,5,0,0

[Colours]
Combo1 : 255,196,136
Combo2 : 255,151,203
Combo3 : 247,123,0

[HitObjects]
344,104,653,2,0,B|376:184|320:272,1,160,2|2
240,288,1152,1,0
64,144,1319,2,0,B|152:136|208:200,1,160,2|2
240,288,1819,1,0
280,64,2152,5,0
376,40,2319,1,2
376,136,2486,1,0
256,120,2652,5,2
352,96,2819,1,0
352,192,2986,1,2
152,328,3319,6,0,B|144:240|72:184,1,160,0|2
40,104,3819,1,0
272,16,3986,2,0,B|208:64|104:40,1,160,2|2
40,104,4486,5,0
88,184,4652,1,2
184,168,4819,1,0
160,48,4986,5,2
64,120,5152,1,0
152,200,5319,2,0,B|248:192|304:272,1,160,2|2
416,48,5986,6,0,B|432:88|424:128,1,80,2|0
312,192,6319,2,0,B|296:152|304:112,1,80,2|0
392,208,6652,2,0,B|424:288|368:368,1,160,2|2
280,368,7152,1,0
88,248,7486,6,0,B|112:208|112:168,2,80,0|2|0
160,312,7986,1,0
248,280,8152,1,0
256,184,8319,1,0
256,168,8486,1,0
256,152,8652,5,6
184,88,8986,1,2
256,24,9319,1,2
328,88,9652,1,2
328,88,9819,1,4
48,280,10986,6,0,B|72:320|112:336,1,80,2|0
200,352,11319,1,4
296,328,11486,2,0,B|336:312|384:320,1,80,0|2
456,272,11819,1,0
456,272,11986,5,0
344,192,12153,1,0
448,120,12319,1,2
360,32,12486,1,0
272,72,12653,6,0,B|280:112|264:152,1,80
184,104,12986,2,0,B|176:152|136:184,1,80,2|0
88,96,13319,1,0
72,240,13486,1,0
72,240,13569,1,0
72,240,13653,1,2
152,288,13819,1,0
248,264,13986,6,0,B|288:192,1,80
264,120,14319,2,0,B|224:192,1,80,2|0
280,304,14653,6,0,B|320:232,1,80
232,80,14986,2,0,B|192:152,1,80,2|0
320,128,15319,5,0
416,112,15486,1,0
472,192,15653,2,0,B|480:232|472:272,1,80,2|0
400,344,15986,2,0,B|360:360|312:352,1,80
256,280,16319,5,2
256,104,16486,1,0
256,192,16653,1,4
256,192,16736,1,0
256,192,16819,1,0
168,160,16986,2,0,B|160:120|144:80,1,80,2|0
64,40,17319,1,0
16,144,17486,1,0
56,248,17653,2,0,B|88:272|112:304,1,80,2|0
200,344,17986,5,4
200,344,18069,1,0
200,344,18153,1,0
296,328,18319,2,0,B|336:312|376:320,1,80,2|0
464,280,18653,1,0
464,280,18819,1,0
432,192,18986,1,2
432,192,19152,1,0
464,104,19319,5,4
464,104,19402,1,0
464,104,19486,1,0
352,48,19652,1,2
328,176,19819,1,0
248,120,19986,5,4
248,120,20069,1,0
248,120,20152,1,0
216,248,20319,1,2
96,200,20486,1,0
112,72,20652,5,2
144,72,20819,1,0
176,72,20986,1,2
208,72,21152,1,0
408,176,21486,5,0
248,328,21652,1,2
64,216,21819,1,0
136,152,21986,6,0,B|184:160|224:144,1,80,6|0
376,96,22319,2,0,B|328:104|288:88,1,80,2|0
215,147,22652,1,2
296,91,22819,1,0
320,184,22986,1,2
240,240,23152,1,0
128,248,23319,5,2
208,328,23486,1,0
320,320,23652,1,2
320,320,23736,1,0
320,320,23819,1,0
320,320,23986,2,0,B|360:304|400:304,1,80,2|0
464,176,24319,2,0,B|480:216|480:256,1,80,2|0
360,208,24652,6,0,B|272:224|224:136,1,160,2|2
208,48,25152,1,0
136,112,25319,1,2
136,112,25402,1,0
136,112,25486,1,0
296,80,25652,1,2
136,112,25819,1,0
128,208,25986,6,0,B|144:296,1,80,2|0
384,176,26319,2,0,B|368:88,1,80,2|0
256,192,26652,1,2
256,104,26986,5,2
256,280,27152,1,0
168,160,27319,6,0,B|136:240|32:256,1,160,2|2
32,144,27819,1,0
112,64,27986,2,0,B|192:24|272:56,1,160,2|2
352,104,28486,1,0
266,54,28652,5,2
392,24,28819,1,0
437,153,28986,1,2
312,184,29152,1,0
352,104,29319,1,2
352,104,29402,1,0
352,104,29486,1,0
437,153,29652,2,0,B|448:192|440:232,1,80,2|0
304,328,29986,6,0,B|240:272|144:296,1,160,2|2
64,256,30486,1,0
112,168,30652,1,2
112,168,30736,1,0
112,168,30819,1,0
232,208,30986,1,2
264,88,31152,1,0
144,40,31319,5,6
320,56,31486,1,0
176,168,31652,1,2
352,184,31819,1,0
264,272,31986,1,2
264,280,32069,1,0
264,288,32152,1,0
264,296,32236,1,0
264,304,32319,1,2
264,312,32402,1,0
264,320,32486,1,0
264,328,32569,1,0
264,336,32652,6,0,B|328:384|416:360,1,160,2|2
464,208,33152,1,0
376,248,33319,2,0,B|328:176|352:80,1,160,2|2
432,40,33819,1,0
272,40,33986,6,0,B|216:96|112:80,1,160,2|2
123,81,34402,1,0
123,81,34486,1,0
56,152,34652,1,2
152,176,34819,1,0
123,81,34986,5,2
80,248,35152,1,0
152,176,35319,6,0,B|216:120|320:144,1,160,2|2
392,184,35819,1,0
368,280,35986,1,2
368,280,36069,1,0
368,280,36152,1,0
256,216,36319,1,2
216,336,36486,1,0
344,360,36652,5,2
160,248,36819,1,0
376,224,36986,1,2
192,112,37152,1,0
336,88,37319,1,2
344,88,37402,1,0
352,88,37486,1,0
360,88,37569,1,0
368,88,37652,1,2
376,88,37736,1,0
384,88,37819,1,0
392,88,37902,1,0
400,88,37986,6,0,B|456:144|432:240,1,160,2|2
384,320,38486,1,0
296,272,38652,2,0,B|256:256|216:264,1,80,2|0
72,336,38986,2,0,B|112:352|152:344,1,80,2|0
136,200,39319,6,0,B|88:128|128:40,1,160,2|2
256,96,39819,1,0
387,47,39986,2,0,B|424:128|376:200,1,160,2|2
256,264,40486,1,0
176,320,40653,6,0,B|96:352,1,80,2|0
336,320,40986,2,0,B|416:352,1,80,2|0
176,216,41319,2,0,B|101:186,1,80,2|0
336,216,41653,2,0,B|410:186,1,80,2|0
256,264,41986,5,2
256,192,42319,1,2
256,120,42653,1,2
256,192,42819,5,0
256,192,42986,1,2
448,80,43319,6,0,B|392:136|416:232,1,160,4|8
464,312,43819,1,0
368,328,43986,2,0,B|296:368|208:336,1,160,0|8
144,272,44486,1,0
240,248,44653,6,0,B|280:232|312:184,1,80
216,152,44986,2,0,B|240:120|240:72,1,80,8|0
144,88,45319,2,0,B|152:48|136:8,1,80
56,56,45653,5,8
56,56,45819,1,0
144,88,45986,2,0,B|184:176|112:256,2,160,0|8|0
232,48,46819,1,0
312,96,46986,1,8
400,56,47153,5,0
400,56,47236,1,0
400,56,47319,1,2
472,160,47486,1,0
344,184,47653,1,10
440,104,47819,1,0
424,232,47986,2,0,B|384:312|280:296,1,160,2|8
144,224,48486,1,0
240,216,48653,6,0,B|296:152|264:48,1,160,0|8
184,24,49153,1,0
192,120,49319,2,0,B|264:168|352:144,1,160,0|8
424,96,49819,1,0
464,184,49986,5,0
440,312,50153,1,0
352,216,50319,1,8
288,328,50486,1,0
216,224,50653,1,0
128,320,50819,1,0
104,192,50986,1,8
128,96,51153,1,0
224,88,51319,6,0,B|320:88,1,80
400,112,51653,2,0,B|408:160|384:200,1,80,8|0
296,224,51986,2,0,B|312:264|352:288,1,80
440,264,52319,1,8
440,264,52486,1,0
346,284,52653,6,0,B|312:336|240:328,1,120,4|0
144,312,53319,1,2
136,296,53403,1,0
128,280,53486,1,0
192,204,53653,1,2
204,192,53736,1,0
216,180,53819,1,0
228,168,53903,1,0
240,156,53986,6,0,B|312:104|400:132,1,160,4|8
480,176,54486,1,0
391,129,54653,2,0,B|352:48|264:32,1,160,0|8
176,64,55153,1,0
271,33,55319,6,0,B|288:72|280:120,1,80
128,224,55653,2,0,B|111:185|119:137,1,80,8|0
232,200,55986,1,0
232,200,56069,1,0
232,200,56153,1,0
296,128,56319,1,8
376,184,56486,1,0
312,256,56653,5,0
184,168,56986,1,8
288,48,57319,1,0
416,136,57653,1,8
312,256,57986,5,2
280,344,58153,1,0
224,264,58319,1,10
192,352,58486,1,0
136,272,58653,2,0,B|96:288|48:272,1,80,2|0
24,152,58986,1,8
88,40,59153,1,0
208,80,59319,6,0,B|288:112|384:56,1,160,4|8
456,72,59819,1,0
416,160,59986,2,0,B|448:240|392:328,1,160,0|8
312,352,60486,1,0
224,312,60653,5,4
224,312,60819,1,0
296,208,60986,1,8
168,232,61153,1,0
128,320,61319,1,0
128,320,61403,1,0
128,320,61486,1,0
40,288,61653,5,8
24,160,61819,1,0
88,88,61986,5,2
208,128,62153,1,0
312,56,62319,1,2
88,88,62653,5,2
176,184,62819,1,0
304,184,62986,1,2
88,88,63319,5,2
120,216,63486,1,0
232,280,63653,1,2
232,280,63986,1,2
424,280,64653,5,4
136,88,75319,6,0,B|112:144|128:208,1,119.999996423721,0|2
200,256,75819,1,0
280,232,75986,2,0,B|336:200|400:216,1,119.999996423721,0|2
336,56,76653,6,0,B|288:96|208:72,1,119.999996423721,0|2
136,48,77153,1,0
104,128,77319,2,0,B|64:176|88:256,1,119.999996423721,0|2
232,328,77986,6,0,B|304:344,2,59.9999982118607,0|0|2
152,304,78486,1,0
208,240,78652,2,0,B|224:208|224:168,1,59.9999982118607,0|0
200,104,78986,1,2
200,104,79152,1,0
280,120,79319,6,0,B|368:128|424:80,1,149.999995529652,0|0
421,82,79819,2,0,B|432:112|432:144,1,59.9999982118607,0|0
424,224,80152,1,0
424,224,80319,1,2
304,336,80652,6,0,B|256:296|168:304,1,119.999996423721,4|2
112,336,81152,1,0
64,264,81319,2,0,B|32:216|56:136,1,119.999996423721,0|2
200,64,81986,6,0,B|256:96|320:80,1,119.999996423721,0|2
448,32,82652,1,0
232,320,83319,5,2
344,336,83486,1,0
424,264,83652,1,2
320,64,83986,1,2
216,96,84152,1,0
112,64,84319,1,2
40,272,84652,5,2
112,336,84819,1,0
136,240,84986,1,2
208,304,85152,1,0
232,208,85319,2,0,B|296:152|296:64,1,160,2|0
456,176,85986,5,2
496,280,86152,1,0
416,360,86319,1,2
312,312,86486,1,0
192,136,86652,5,2
216,160,86736,1,0
224,192,86819,1,0
224,224,86902,1,0
208,256,86986,2,0,B|176:288|120:296,1,80,0|0
40,128,87319,6,0,B|24:168|32:208,2,80,4|0|8
128,64,87819,1,0
240,80,87986,2,0,B|280:88|320:72,1,80
424,104,88319,2,0,B|440:144|432:184,1,80,8|0
416,296,88652,6,0,B|376:280|336:280,1,80,2|2
184,328,88986,2,0,B|224:344|264:344,1,80,8|2
264,216,89319,1,0
328,144,89486,1,0
296,56,89652,1,8
200,80,89819,6,0,B|160:88|112:80,1,80
88,72,90069,1,0
64,96,90152,2,0,B|40:128|48:176,1,80,0|8
120,240,90486,1,0
80,328,90652,2,0,B|136:360|208:352,1,120
224,336,90986,2,0,B|264:320|304:320,1,80,8|0
392,344,91319,5,0
480,248,91486,1,0
352,248,91652,1,8
352,248,91736,1,0
352,248,91819,1,0
432,144,91986,1,0
344,48,92152,1,0
264,104,92319,2,0,B|224:120|184:112,1,80,8|0
56,256,92652,6,0,B|96:272|136:264,1,80,0|0
288,344,92986,2,0,B|264:304|216:288,1,80,8|0
200,128,93319,2,0,B|208:168|200:208,1,80,0|0
96,168,93652,1,8
96,168,93736,1,0
96,168,93819,1,0
200,128,93986,6,0,B|240:104|280:104,1,80,2|2
432,144,94319,2,0,B|392:168|352:168,1,80,8|2
272,208,94652,1,0
352,264,94819,5,0
248,344,94986,1,8
128,304,95152,1,0
128,208,95319,6,0,B|136:168|120:120,2,80,0|0|8
216,248,95819,1,0
304,216,95986,2,0,B|344:192|392:200,2,80,0|0|8
216,248,96486,1,0
152,176,96652,5,2
304,216,96819,1,0
152,176,96986,1,2
304,216,97152,1,0
248,136,97319,1,2
256,128,97402,1,0
264,120,97486,1,0
272,112,97569,1,0
280,104,97652,2,0,B|320:80|360:80,1,80,0|0
440,176,97986,6,0,B|432:216|448:256,1,80,4|0
392,328,98319,2,0,B|360:352|312:352,1,80,8|0
240,288,98652,1,0
160,192,98819,1,0
48,256,98986,1,8
48,256,99069,1,0
48,256,99152,1,0
64,160,99319,6,0,B|48:128|56:80,1,80,2|2
192,24,99652,2,0,B|208:56|200:104,1,80,8|2
160,192,99986,1,0
144,288,100152,2,0,B|184:304|224:296,1,80,0|8
312,256,100486,1,0
408,280,100652,6,0,B|440:224|432:160,1,120
432,164,100986,2,0,B|448:80,1,80,8|0
344,40,101319,2,0,B|296:80|224:64,1,120
230,65,101652,2,0,B|144:96,1,80,8|0
80,152,101986,5,0
104,264,102152,1,0
184,184,102319,1,8
216,288,102486,1,0
288,208,102652,2,0,B|376:208,1,80
448,128,102986,2,0,B|480:152|488:208,1,80,8|0
400,320,103319,6,0,B|320:296|240:352,1,160,0|8
152,352,103819,1,0
88,280,103986,1,0
216,256,104152,1,0
104,192,104319,1,8
104,192,104402,1,0
104,192,104486,1,0
192,152,104652,5,2
304,216,104819,1,2
392,120,104986,1,8
304,216,105152,1,2
216,248,105319,2,0,B|184:280|184:328,1,80
280,320,105652,1,8
280,320,105819,1,0
368,288,105986,6,0,B|424:232|416:136,1,160,4|0
144,96,106652,2,0,B|88:152|96:248,1,160,4|0
304,160,107319,6,0,B|320:240,1,80,4|0
224,152,107652,2,0,B|192:232,1,80
160,104,107986,2,0,B|104:160,1,80
56,248,108319,1,0
56,256,108402,1,0
56,264,108486,1,0
56,272,108569,1,0
56,280,108652,6,0,B|88:328|168:328,1,120
192,320,108986,2,0,B|264:289,2,80
160,327,109486,5,0
120,192,109652,1,2
216,88,109819,1,0
120,192,109986,6,0,B|152:216|200:216,1,80,2|0
194,215,110236,1,0
194,215,110319,1,2
288,128,110486,1,0
416,144,110652,2,0,B|440:176|440:224,1,80,2|0
439,218,110902,1,0
439,218,110986,1,2
376,328,111152,1,0
248,304,111319,6,0,B|184:248|88:272,1,160,2|2
40,192,111819,1,0
80,104,111986,1,2
176,120,112152,2,0,B|192:80|184:40,2,80,0|2|0
136,208,112652,6,0,B|160:240|208:248,1,80,2|0
232,240,112902,1,0
264,248,112986,2,0,B|312:240|344:256,1,80,2|0
472,320,113319,2,0,B|440:288|432:240,1,80,2|0
440,216,113569,1,0
440,184,113652,2,0,B|432:144|408:112,1,80,2|0
336,176,113986,5,2
176,176,114152,1,0
336,176,114319,1,2
176,176,114486,1,0
256,312,114652,2,0,B|256:232,1,80,2|0
256,72,114986,2,0,B|256:152,1,80,2|0
160,264,115319,6,0,B|112:304|24:288,1,120,2|0
46,291,115652,2,0,B|32:208,1,80,2|0
72,104,115986,2,0,B|120:64|208:80,1,120,2|0
185,76,116319,2,0,B|199:159,1,80,2|0
272,224,116652,6,0,B|312:240|352:232,1,80,2|0
448,256,116986,2,0,B|464:296|456:336,2,80,2|0|2
424,160,117486,1,0
328,56,117652,1,2
192,104,117819,1,0
232,192,117986,6,0,B|240:232|224:272,1,80,2|0
40,328,118319,2,0,B|32:288|48:248,1,80,2|0
320,48,118652,2,0,B|328:88|312:128,1,80,2|0
128,184,118986,2,0,B|120:144|136:104,1,80,2|0
232,192,119319,5,2
232,192,119402,1,0
232,192,119486,1,0
328,208,119652,1,2
264,280,119819,1,0
360,304,119986,1,2
368,304,120069,1,0
376,304,120152,1,0
384,304,120236,1,0
392,304,120319,1,2
400,304,120402,1,0
408,304,120486,1,0
416,304,120569,1,0
424,304,120652,6,0,B|464:232|440:136,1,160,2|2
392,64,121152,1,0
304,104,121319,2,0,B|264:112|224:96,1,80,2|0
128,80,121652,2,0,B|88:72|48:96,1,80,2|0
8,184,121986,5,2
8,184,122069,1,0
8,184,122152,1,0
40,304,122319,1,2
112,200,122486,1,0
144,288,122652,2,0,B|208:344|304:312,1,160,2|2
376,264,123152,1,0
328,176,123319,6,0,B|304:120|328:48,1,120,2|0
324,58,123652,1,2
416,96,123819,1,0
424,192,123986,1,2
392,280,124152,1,0
392,280,124236,1,0
392,280,124319,1,2
304,320,124486,1,0
208,296,124652,6,0,B|128:256,1,80,2|0
304,88,124986,2,0,B|384:128,1,80,2|0
256,192,125319,2,0,B|256:232,2,40,2|0|0
208,104,125652,1,2
208,104,125819,1,0
128,160,125986,6,0,B|96:192|96:240,1,80,2|0
256,264,126319,2,0,B|224:232|184:232,1,80,2|0
184,328,126652,2,0,B|216:360|256:360,1,80,2|0
376,224,126986,2,0,B|344:192|304:192,1,80,2|0
208,200,127319,5,2
208,200,127402,1,0
208,200,127486,1,0
136,96,127652,1,2
256,136,127819,1,0
128,176,127986,2,0,B|88:216|96:288,1,120,2|0
120,312,128319,2,0,B|208:328,1,80,2|0
296,320,128652,5,6
296,320,128819,1,0
400,272,128986,1,2
400,272,129152,1,0
432,168,129319,1,2
432,168,129486,1,0
384,64,129652,1,2
384,64,129736,1,0
384,64,129819,1,0
280,104,129986,5,2
232,280,130319,1,2
256,192,130652,1,2
256,192,130819,6,0,B|312:192,1,40,0|2
400,88,140652,5,4
152,296,141319,2,0,B|176:328,2,40,2|0|0
88,224,141652,2,0,B|48:248,2,40,2|0|0
184,208,141986,6,0,B|272:232|344:184,1,160,4|8
328,96,142486,1,0
240,136,142652,2,0,B|288:200|248:304,1,160,0|8
168,336,143152,1,0
80,288,143319,6,0,B|72:248|48:208,1,80
32,120,143652,1,8
32,120,143819,1,0
120,80,143986,2,0,B|160:56|200:56,1,80
288,48,144319,1,8
336,136,144486,1,0
256,192,144652,5,0
176,240,144986,1,8
256,288,145319,1,0
336,240,145652,1,8
256,192,145986,6,0,B|240:152|248:112,1,80,2|0
376,48,146319,2,0,B|392:88|384:128,1,80,2|0
352,216,146652,2,0,B|392:224,2,40,2|0|0
280,320,146986,1,8
152,336,147152,1,0
56,248,147319,6,0,B|8:184|40:80,1,160,0|8
288,160,147986,2,0,B|336:224|304:328,1,160,0|8
144,112,148652,5,4
216,48,148819,1,0
256,136,148986,1,8
296,48,149152,1,0
368,112,149319,1,0
256,264,149652,2,0,B|256:344,1,80,8|0
176,288,149986,5,2
88,328,150152,1,0
24,256,150319,1,2
224,96,150652,1,2
288,168,150819,1,0
376,128,150986,1,2
120,144,151319,5,2
200,192,151486,1,0
232,280,151652,2,0,B|304:328|400:304,1,160,2|2
464,248,152152,1,0
400,176,152319,1,2
400,168,152402,1,0
400,160,152486,1,0
400,152,152569,1,0
400,144,152652,1,4
400,128,163319,6,0,B|352:64|272:32|168:72,1,239.999992847443,2|2
112,256,164653,2,0,B|160:320|240:352|344:312,1,239.999992847443,2|2
256,192,165986,12,2,167319
256,120,167819,5,0
216,256,168153,1,0
296,256,168319,1,2
160,312,168653,6,0,B|48:232|104:80,1,239.999992847443,2|2
352,72,169986,2,0,B|464:152|408:304,1,239.999992847443,2|2
160,336,171319,5,2
88,272,171486,1,0
128,184,171653,1,2
344,128,171986,1,2
248,136,172153,1,0
192,56,172319,1,2
320,240,172653,5,2
384,312,172819,1,0
464,256,172986,1,2
400,184,173153,1,0
320,240,173319,2,0,B|272:304|168:288,1,160,2|0
136,64,173986,5,2
296,104,174153,1,0
144,176,174319,1,2
304,216,174486,1,0
208,280,174653,5,2
200,288,174736,1,0
192,296,174819,1,0
184,304,174903,1,0
175,312,174986,2,0,B|143:335|99:329,1,80
24,184,175319,6,0,B|48:216|48:264,2,80,4|0|8
80,88,175819,1,0
192,104,175986,2,0,B|232:80|272:80,1,80
360,96,176319,1,8
360,96,176486,1,0
424,160,176653,6,0,B|440:200|432:248,1,80,2|2
336,184,176986,1,8
344,280,177153,2,0,B|336:320|304:352,1,80,2|0
208,344,177486,1,0
144,232,177653,1,8
224,128,177819,1,0
296,192,177986,6,0,B|352:224|424:208,1,120
412,210,178319,1,8
488,152,178486,1,0
408,96,178653,2,0,B|344:104|288:64,1,120
293,68,178986,1,8
200,40,179153,1,0
136,112,179319,5,0
304,240,179486,1,0
104,320,179653,1,8
136,112,179819,1,0
304,240,179986,1,0
248,320,180153,2,0,B|280:352|320:360,1,80,0|8
416,368,180486,1,0
472,288,180653,6,0,B|480:248|480:208,1,80
472,176,180903,1,0
472,176,180986,2,0,B|456:136|464:88,1,80,8|0
376,56,181319,2,0,B|336:72|288:72,1,80
264,72,181569,1,0
264,72,181653,2,0,B|224:56|176:64,1,80,8|0
96,112,181986,5,2
272,200,182153,1,2
184,160,182319,1,8
360,248,182486,1,2
152,336,182819,1,0
128,208,182986,1,8
40,112,183153,1,0
160,64,183319,6,0,B|216:88|296:80,1,120
312,72,183653,2,0,B|336:104|336:152,1,80,8|0
256,200,183986,2,0,B|240:264|280:328,1,120
304,336,184319,2,0,B|344:320|384:320,1,80,8|0
464,272,184653,5,2
448,128,184819,1,0
344,232,184986,1,2
328,88,185153,1,0
248,168,185319,1,2
240,168,185403,1,0
232,168,185486,1,0
224,168,185569,1,0
216,168,185653,1,2
208,168,185736,1,0
200,168,185819,1,0
192,168,185903,1,0
184,168,185986,6,0,B|136:232|168:336,1,160,4|8
280,256,186486,1,0
376,344,186653,2,0,B|424:280|392:176,1,160,0|8
352,104,187153,1,0
264,136,187319,6,0,B|184:136,1,80,2|2
208,40,187653,2,0,B|120:40,1,80,8|2
48,96,187986,1,0
88,184,188153,2,0,B|104:224|104:264,1,80,0|8
152,344,188486,1,0
248,328,188653,5,0
248,328,188736,1,0
248,328,188819,1,0
296,208,188986,1,8
400,288,189153,1,0
400,192,189319,5,0
400,192,189403,1,0
400,192,189486,1,0
296,112,189653,1,8
424,96,189819,1,0
488,168,189986,6,0,B|496:208|488:248,1,80,0|0
312,328,190319,2,0,B|304:288|312:248,1,80,8|0
336,152,190653,2,0,B|312:120|272:104,1,80
216,184,190986,1,8
88,120,191153,1,0
120,208,191319,6,0,B|136:264|104:328,1,120
105,324,191653,2,0,B|192:352,1,80,8|0
392,176,191986,2,0,B|376:120|408:56,1,120
406,59,192319,2,0,B|320:32,1,80,8|0
240,64,192653,5,2
184,144,192819,1,2
264,200,192986,1,8
208,280,193153,2,0,B|176:304|120:304,1,80,2|0
48,264,193486,1,0
24,136,193653,1,8
128,64,193819,1,0
184,136,193986,6,0,B|264:168|352:128,1,160,4|0
424,88,194486,1,0
432,184,194653,2,0,B|464:256|424:344,1,160,4|0
328,360,195153,1,0
232,344,195319,6,0,B|144:320,1,80,4|0
280,280,195653,2,0,B|368:256,1,80
232,216,195986,2,0,B|144:192,1,80
280,152,196319,2,0,B|368:128,1,80
256,192,196653,12,0,197653
