osu file format v9

[General]
AudioFilename: tamaran.mp3
AudioLeadIn: 1000
PreviewTime: 86986
Countdown: 0
SampleSet: Normal
StackLeniency: 0.7
Mode: 0
LetterboxInBreaks: 1

[Editor]
DistanceSpacing: 1.2
BeatDivisor: 4
GridSize: 8

[Metadata]
Title:Kyun Kyun Tamaran Inaba tan!
Artist:Tsubaki
Creator:Aenna
Version:Apricotan!
Source:Touhou
Tags:Halozy taketori hishou starrypresto Apricot Komeiji Yuki

[Difficulty]
HPDrainRate:6
CircleSize:4
OverallDifficulty:6
ApproachRate:7
SliderMultiplier:1.4
SliderTickRate:1

[Events]
//Background and Video events
0,0,"aaaaa.jpg"
//Break Periods
2,64853,74419
2,131185,141086
2,152852,162419
//Storyboard Layer 0 (Background)
//Storyboard Layer 1 (Fail)
//Storyboard Layer 2 (Pass)
//Storyboard Layer 3 (Foreground)
//Storyboard Sound Samples
//Background Colour Transformations
3,100,163,162,255

[TimingPoints]
653,333.333333333333,4,2,1,60,1,0
11236,-100,4,1,1,60,0,0
21902,-100,4,1,2,60,0,0
75152,-133.333333333333,4,1,1,60,0,0
82902,-100,4,1,2,60,0,0
87319,-100,4,1,2,60,0,1
109986,-100,4,1,2,60,0,0
162986,-133.333333333333,4,1,1,60,0,0
170986,-100,4,1,2,60,0,0
175319,-100,4,1,2,60,0,1
197652,-100,4,1,2,60,0,0

[Colours]
Combo1 : 255,196,136
Combo2 : 255,151,203
Combo3 : 247,123,0

[HitObjects]
352,88,653,2,0,B|384:168|352:224,1,140,2|0
160,296,1319,2,0,B|128:216|160:160,1,140,2|0
208,88,1819,1,0
368,224,2152,5,0
392,304,2319,2,0,B|400:344|440:352,2,70,2|0|2
368,224,2819,1,2
368,224,2986,1,4
216,152,3319,6,0,B|160:80|80:88,1,140,2|0
296,232,3986,2,0,B|352:304|432:296,1,140,2|0
392,216,4486,5,0
376,136,4652,2,0,B|360:96|328:80,1,70,2|0
184,8,4986,2,0,B|200:48|232:64,1,70,0|2
240,144,5319,6,0,B|232:160|232:160|224:152|224:152|224:168|224:168|216:160|216:160|216:176|216:176|208:168|208:168|208:184|208:184|200:176|200:176|200:192|200:192|192:192|192:192|184:200,1,140,2|4
40,120,5986,6,0,B|64:48|144:32,1,140,2|0
320,248,6652,2,0,B|296:320|216:336,1,140,2|0
136,312,7152,1,0
144,104,7486,6,0,B|144:64|184:40,2,70,2|2|0
80,160,7986,2,0,B|96:192|144:192,1,70,0|2
136,280,8319,2,0,B|176:272|200:232,1,70,0|2
256,192,8652,1,4
256,48,8986,5,0
256,336,9319,1,2
256,192,9652,1,2
256,192,9819,1,4
256,24,10986,6,0,B|256:64|256:96,1,70,4|2
256,176,11319,2,0,B|240:264|152:272,1,140,0|8
360,352,11986,2,0,B|376:264|464:256,1,140,0|8
256,40,12653,5,0
216,112,12819,2,0,B|208:160|168:176,2,70,0|8|0
136,104,13319,1,0
96,176,13486,1,0
96,176,13569,1,0
96,176,13653,1,8
136,248,13819,1,0
200,304,13986,6,0,B|256:352|344:344,1,140,0|8
330,344,14486,1,0
408,200,14653,2,0,B|352:152|264:160,1,140,0|8
192,160,15153,1,0
112,168,15319,2,0,B|80:240|112:304,2,140,0|8|0
256,344,16319,6,0,B|256:304|256:272,1,70,4|8
256,192,16653,2,0,B|272:104|360:96,1,140,0|8
144,24,17319,2,0,B|128:112|40:120,1,140,0|8
256,312,17986,5,0
256,224,18153,2,0,B|256:176|256:144,2,70,0|8|0
184,272,18653,1,0
256,312,18819,1,8
256,312,18903,1,0
256,312,18986,1,0
328,272,19152,1,8
328,184,19319,6,0,B|336:104|408:64,1,140,0|8
256,224,19819,1,0
184,184,19986,2,0,B|176:104|104:64,1,140,0|8
112,224,20486,1,0
176,280,20652,6,0,B|128:320|80:312|40:272,2,140,0|8|0
256,256,21486,1,0
112,224,21652,1,8
256,256,21819,1,0
112,224,21986,6,0,B|56:160|80:96,1,140,2|2
152,144,22486,1,8
224,184,22652,2,0,B|288:240|248:328,1,140,2|2
64,296,23152,1,8
112,224,23319,5,2
312,288,23652,1,0
312,288,23736,1,0
312,288,23819,2,0,B|352:280|376:240,2,70,8|2|0
448,216,24319,2,0,B|464:256|464:296,1,70,0|8
392,152,24652,6,0,B|304:168|256:80,1,140,2|2
256,192,25152,1,0
120,232,25319,2,0,B|208:216|256:304,1,140,2|2
304,336,25819,1,8
392,336,25986,5,0
256,88,26319,1,2
120,336,26652,1,2
152,168,26986,6,0,B|168:128|208:120,1,70,0|8
272,176,27319,2,0,B|312:160|328:120,2,70,2|8|2
240,256,27819,1,0
192,184,27986,2,0,B|152:104|184:24,1,140,2|2
240,256,28486,1,0
296,320,28652,5,2
104,232,28986,1,0
104,232,29069,1,0
104,232,29152,2,0,B|64:224|40:184,2,70,8|2|0
136,80,29652,2,0,B|120:120|120:160,1,70,0|8
96,320,29986,6,0,B|184:336|232:248,1,140,2|2
256,192,30486,1,8
416,64,30652,2,0,B|328:48|280:136,1,140,2|2
256,192,31152,1,8
256,280,31319,6,0,B|304:336,1,70,0|2
256,104,31652,2,0,B|208:48,1,70,8|2
256,192,31986,5,0
256,192,32069,1,8
256,192,32152,1,0
256,192,32236,1,8
256,192,32319,2,0,B|256:280,1,70,0|8
256,96,32652,6,0,B|288:32|368:24,1,140,2|2
368,23,33152,1,8
256,96,33319,2,0,B|224:160|144:168,1,140,2|2
143,168,33819,1,8
104,96,33986,2,0,B|128:32|224:24,1,140,2|0
256,96,34486,5,8
216,168,34652,2,0,B|224:208|264:208,1,70,2|0
408,296,34986,2,0,B|400:256|360:256,1,70,8|2
320,328,35319,6,0,B|232:344|184:256,1,140,2|2
256,192,35819,1,8
192,56,35986,2,0,B|280:40|328:128,1,140,2|2
256,192,36486,1,8
312,280,36652,5,0
120,192,36986,1,2
256,32,37319,1,2
256,192,37652,2,0,B|256:272,1,70,0|8
312,120,37986,6,0,B|368:176|344:272,1,140,2|2
256,192,38486,1,8
184,256,38652,2,0,B|128:200|152:104,1,140,2|2
176,48,39152,1,0
256,24,39319,2,0,B|256:168,1,140,2|0
256,164,39819,1,8
256,248,39986,2,0,B|256:328,2,70,2|8|0
128,192,40653,5,0
128,192,40819,1,8
256,64,40986,1,0
256,64,41153,1,8
384,192,41319,1,8
384,192,41486,1,8
256,320,41653,1,0
256,320,41819,1,8
256,192,41986,5,2
256,192,42319,1,2
256,192,42653,1,2
256,104,42819,6,0,B|256:24,1,70,0|8
88,56,43319,6,0,B|144:112|120:208,1,140,8|8
208,216,43819,1,0
144,272,43986,2,0,B|216:312|304:280,1,140,8|8
352,256,44486,1,0
424,216,44653,6,0,B|464:200|496:152,2,70,0|8|0
352,168,45153,1,0
368,88,45319,2,0,B|296:48|208:80,1,140,8|0
152,104,45819,1,0
152,104,45986,2,0,B|152:192|64:240,2,140,8|0|0
224,152,46819,2,0,B|248:192|288:192,1,70,0|8
312,272,47153,5,2
344,136,47319,1,8
392,264,47486,1,2
280,192,47653,1,8
408,184,47819,1,2
312,272,47986,2,0,B|240:320|168:296,1,140,8|4
88,112,48653,6,0,B|152:64|232:96,1,140,8|8
192,168,49153,1,0
120,216,49319,2,0,B|168:280|248:272,1,140,8|8
280,200,49819,1,0
336,144,49986,2,0,B|384:152|400:192,2,70,0|8|0
280,80,50486,1,8
224,144,50653,2,0,B|136:136|112:240,2,140,0|8|0
256,224,51486,5,8
288,304,51653,2,0,B|256:328|224:328,1,70,0|8
224,144,51986,2,0,B|256:120|288:120,1,70,8|8
256,224,52319,1,0
256,224,52486,1,0
336,256,52653,2,0,B|304:328|200:328|168:256,1,210,8|0
136,184,53319,6,0,B|120:144,2,35
216,152,53653,1,0
232,144,53736,1,0
248,136,53819,1,0
264,128,53903,1,0
280,120,53986,6,0,B|360:80|448:112,1,140,8|8
440,184,54486,1,0
368,144,54653,2,0,B|329:63|256:40,1,140,8|8
192,56,55153,1,0
120,104,55319,2,0,B|96:136|104:176,2,70,0|8|0
184,160,55819,1,8
160,240,55986,2,0,B|224:264|264:208|264:168,1,140,8|8
256,96,56486,1,0
256,16,56653,5,8
416,152,56986,1,0
256,288,57319,1,8
96,152,57653,1,0
96,152,57819,5,8
152,96,57986,2,0,B|184:72|224:72,2,70,0|8|0
208,160,58486,1,8
288,152,58653,2,0,B|280:216|256:248|184:240,1,140,0|8
48,40,59319,6,0,B|128:72|200:32,1,140,8|8
264,64,59819,1,0
224,136,59986,2,0,B|256:216|208:280,1,140,8|8
214,270,60486,5,0
136,288,60653,2,0,B|96:296|80:336,1,70,8|0
296,264,60986,2,0,B|336:256|352:216,1,70,0|8
214,270,61319,2,0,B|256:224|176:208|216:136,1,140,8|0
214,139,61819,1,8
216,56,61986,5,8
216,56,62153,1,8
216,56,62319,1,8
376,192,62653,5,8
376,192,62819,1,8
376,192,62986,1,8
56,192,63319,5,8
56,192,63486,1,8
56,192,63653,1,8
216,328,63986,1,8
216,192,64653,5,0
136,88,75319,6,0,B|112:144|128:200,1,104.999996870756
200,272,75986,2,0,B|256:240|320:256,1,104.999996870756,8|0
400,280,76653,2,0,B|432:232|416:160,1,104.999996870756
352,96,77319,2,0,B|320:144|336:208,1,104.999996870756,8|0
312,296,77986,6,0,B|376:312,2,52.4999984353781,0|8|0
248,264,78486,1,0
200,216,78652,2,0,B|152:168|176:104,1,104.999996870756,0|8
296,56,79319,2,0,B|360:64|400:32,2,104.999996870756,0|8|0
296,56,80152,1,8
296,56,80319,1,8
256,208,80652,6,0,B|208:168|136:176,2,104.999996870756,4|8|0
256,208,81652,1,0
256,336,81986,2,0,B|304:376|376:368,2,104.999996870756,4|8|0
256,344,82986,1,0
256,192,83319,5,0
200,128,83486,1,8
120,112,83652,1,8
256,192,83986,5,8
312,256,84152,1,0
392,272,84319,1,8
256,192,84652,5,8
312,256,84819,1,0
256,320,84986,1,8
200,256,85152,1,0
256,192,85319,1,8
256,192,85986,5,0
256,56,86152,1,2
256,192,86319,1,0
256,56,86486,1,2
184,96,86652,1,0
200,128,86736,1,0
184,160,86819,2,0,B|152:192|104:200,1,70,8|0
64,256,87152,1,0
144,280,87319,6,0,B|160:320|152:352,2,70,8|0|8
216,240,87819,1,0
288,192,87986,2,0,B|272:152|280:120,2,70,8|0|8
344,256,88486,1,0
360,336,88652,6,0,B|320:320|272:320,1,70,8|0
128,352,88986,2,0,B|168:368|208:368,1,70,8|0
184,296,89319,5,0
256,216,89486,1,8
184,136,89652,1,8
256,216,89819,1,8
184,296,89986,6,0,B|104:264|104:184,1,140,8|8
104,191,90486,1,0
328,88,90652,2,0,B|408:120|408:200,1,140,8|8
407,192,91152,1,8
328,224,91319,6,0,B|280:224|264:280,2,70,0|8|0
344,304,91819,1,8
272,160,91986,2,0,B|208:112|136:160,1,140,0|0
88,224,92486,1,8
144,288,92652,6,0,B|184:304|216:296,1,70,8|0
288,264,92986,2,0,B|264:224|216:216,1,70,8|0
360,312,93319,2,0,B|384:352|432:360,2,70,8|0|8
368,232,93819,1,0
384,152,93986,6,0,B|368:112|384:80,1,70,0|8
272,208,94319,2,0,B|288:248|272:280,1,70,0|8
192,264,94652,1,0
104,264,94819,2,0,B|56:272|48:320,2,70,0|8|0
144,192,95319,6,0,B|152:152|136:104,2,70,8|0|8
192,264,95819,1,0
272,280,95986,2,0,B|312:264|352:272,2,70,8|0|8
192,264,96486,1,0
144,192,96652,5,8
144,192,96819,1,8
272,280,96986,1,8
272,280,97152,1,8
240,200,97319,1,0
256,184,97402,1,0
272,168,97486,1,0
288,152,97569,1,0
304,136,97652,2,0,B|344:112|376:112,1,70,8|0
424,176,97986,6,0,B|416:216|432:248,1,70,8|0
384,320,98319,2,0,B|352:344|312:344,1,70,8|0
272,280,98652,2,0,B|272:232|240:200,2,70,8|0|8
208,336,99152,1,0
144,288,99319,6,0,B|96:232|8:232,1,140,8|8
20,232,99819,1,0
56,152,99986,2,0,B|104:112|200:120,1,140,8|8
232,192,100486,1,0
304,144,100652,6,0,B|344:152|392:136,2,70,8|0|8
232,192,101152,1,0
264,272,101319,2,0,B|280:312|272:352,2,70,8|0|8
232,192,101819,1,0
184,120,101986,6,0,B|136:120|120:176,2,70,8|0|8
152,40,102486,1,0
232,192,102652,2,0,B|296:240|368:192,1,140,8|0
424,248,103152,1,0
376,312,103319,6,0,B|296:288|240:336,1,140,8|8
168,368,103819,1,0
104,312,103986,2,0,B|128:232|88:168,1,140,8|8
176,152,104486,1,0
232,88,104652,2,0,B|264:64|304:56,1,70,8|0
232,216,104986,2,0,B|264:240|304:248,1,70,8|0
360,192,105319,5,0
360,192,105486,1,8
256,320,105652,1,8
256,320,105819,1,8
176,288,105986,6,0,B|96:256|96:168,1,140,8|0
336,96,106652,2,0,B|416:128|416:216,1,140,8|0
256,256,107319,6,0,B|256:336,1,70,8|0
176,296,107652,2,0,B|160:368,1,70,8|0
96,312,107986,2,0,B|40:352,2,70,8|0|8
24,264,108486,1,0
48,184,108652,2,0,B|80:120|168:120,1,140,8|0
144,200,109152,2,0,B|176:232|216:232,2,70,0|0|8
216,160,109652,2,0,B|256:160|280:128,1,70,0|8
352,168,109986,6,0,B|408:232|384:296,1,140,2|2
312,248,110486,1,8
232,264,110652,2,0,B|152:272|104:344,2,140,2|0|2
400,232,111652,5,0
400,232,111736,1,0
400,232,111819,2,0,B|408:192|448:168,2,70,8|2|0
448,96,112319,2,0,B|480:104|512:128,1,70,0|8
360,88,112652,6,0,B|272:72|224:160,1,140,2|2
304,192,113152,1,0
360,296,113319,2,0,B|272:312|224:224,1,140,2|2
184,176,113819,1,8
136,104,113986,5,0
256,360,114319,1,2
376,104,114652,1,2
328,264,114986,6,0,B|312:304|272:312,1,70,0|8
208,256,115319,2,0,B|168:272|152:312,2,70,2|8|2
256,192,115819,1,0
320,248,115986,2,0,B|360:328|328:408,1,140,2|2
256,192,116486,1,0
208,128,116652,5,2
64,208,116986,1,0
64,208,117069,1,0
64,208,117152,2,0,B|24:216|0:256,2,70,8|2|0
144,176,117652,2,0,B|176:176|216:136,1,70,0|8
256,80,117986,6,0,B|344:64|392:152,1,140,2|2
320,192,118486,1,8
256,304,118652,2,0,B|344:320|392:232,1,140,2|2
320,192,119152,1,8
320,104,119319,6,0,B|272:48,1,70,0|2
320,280,119652,2,0,B|368:336,1,70,8|2
320,192,119986,5,0
320,192,120069,1,8
320,192,120152,1,0
320,192,120236,1,8
320,192,120319,2,0,B|232:192,1,70,0|8
200,264,120652,6,0,B|168:328|88:336,1,140,2|2
88,337,121152,1,8
8,192,121319,2,0,B|40:128|120:120,1,140,2|2
121,120,121819,1,8
192,168,121986,2,0,B|232:184|248:224,2,70,2|0|0
128,224,122486,5,8
88,152,122652,2,0,B|96:112|136:112,1,70,2|0
264,48,122986,2,0,B|256:88|216:88,1,70,8|2
192,168,123319,6,0,B|176:256|264:304,1,140,2|2
328,232,123819,1,8
464,296,123986,2,0,B|480:208|392:160,1,140,2|2
328,232,124486,1,8
264,288,124652,5,0
184,96,124986,1,2
384,32,125319,1,2
256,200,125652,2,0,B|256:120,1,70,0|8
200,264,125986,6,0,B|144:208|168:112,1,140,2|2
256,192,126486,1,8
328,128,126652,2,0,B|384:184|360:280,1,140,2|2
336,336,127152,1,0
256,360,127319,2,0,B|256:216,1,140,2|0
256,220,127819,1,8
256,136,127986,2,0,B|256:56,2,70,2|8|0
384,192,128652,5,0
384,192,128819,1,8
256,320,128986,1,0
256,320,129152,1,8
128,192,129319,1,8
128,192,129486,1,8
256,64,129652,1,0
256,64,129819,1,8
256,192,129986,5,2
256,192,130319,1,2
256,192,130652,1,2
256,280,130819,6,0,B|256:352,1,70,0|8
232,264,141986,6,0,B|152:304|64:272,1,140,8|8
72,200,142486,1,0
144,240,142652,2,0,B|183:321|256:344,1,140,8|8
320,328,143152,1,0
392,280,143319,2,0,B|416:248|408:208,2,70,0|8|0
328,224,143819,1,8
352,144,143986,2,0,B|288:120|248:176|248:216,1,140,8|8
256,288,144486,1,0
256,368,144652,5,8
96,232,144986,1,0
256,96,145319,1,8
416,232,145652,1,0
416,232,145819,5,8
360,288,145986,2,0,B|328:312|288:312,2,70,0|8|0
304,224,146486,1,8
224,232,146652,2,0,B|224:168|256:136|328:144,1,140,0|8
464,344,147319,6,0,B|384:312|312:352,1,140,8|8
248,320,147819,1,0
288,248,147986,2,0,B|256:168|304:104,1,140,8|8
298,114,148486,5,0
376,96,148652,2,0,B|416:88|432:48,1,70,8|0
216,120,148986,2,0,B|176:128|160:168,1,70,0|8
298,114,149319,2,0,B|256:160|336:176|296:248,1,140,8|0
298,245,149819,1,8
296,328,149986,5,8
296,328,150152,1,8
296,328,150319,1,8
136,192,150652,5,8
136,192,150819,1,8
136,192,150986,1,8
456,192,151319,5,8
456,192,151486,1,8
456,192,151652,1,8
296,56,151986,1,8
296,192,152652,5,0
400,128,163319,6,0,B|352:64|272:32|200:56,1,209.999993741512
112,256,164653,2,0,B|160:320|240:352|312:328,1,209.999993741512,0|8
256,192,165986,12,0,167986
192,48,168653,6,0,B|128:96|96:176|120:248,1,209.999993741512
320,336,169986,2,0,B|384:288|416:208|392:136,1,209.999993741512,0|8
256,192,171319,5,0
312,256,171486,1,8
392,272,171653,1,8
256,192,171986,5,8
200,128,172153,1,0
120,112,172319,1,8
256,192,172653,5,8
200,128,172819,1,0
256,64,172986,1,8
312,128,173153,1,0
256,192,173319,1,8
256,192,173986,5,0
256,328,174153,1,2
256,192,174319,1,0
256,328,174486,1,2
328,288,174653,1,0
312,256,174736,1,0
328,224,174819,2,0,B|360:192|408:184,1,70,8|0
448,128,175153,1,0
368,104,175319,6,0,B|352:64|360:32,2,70,8|0|8
296,144,175819,1,0
224,192,175986,2,0,B|240:232|232:264,2,70,8|0|8
168,128,176486,1,0
152,48,176653,6,0,B|192:64|232:64,1,70,8|0
384,32,176986,2,0,B|344:16|304:16,1,70,8|0
328,88,177319,5,0
256,168,177486,1,8
328,248,177653,1,8
256,168,177819,1,8
328,88,177986,6,0,B|408:120|408:200,1,140,8|8
408,193,178486,1,0
184,296,178653,2,0,B|104:264|104:184,1,140,8|8
105,192,179153,1,8
184,160,179319,6,0,B|232:160|248:104,2,70,0|8|0
168,80,179819,1,8
240,224,179986,2,0,B|304:272|376:224,1,140,0|0
424,160,180486,1,8
368,96,180653,6,0,B|328:80|296:88,2,70,8|0|8
368,184,181153,1,0
368,272,181319,2,0,B|408:288|440:280,2,70,8|0|8
296,232,181819,1,0
232,288,181986,6,0,B|248:328|232:360,1,70,0|8
360,176,182319,2,0,B|344:136|360:104,1,70,0|8
280,136,182653,1,0
224,200,182819,2,0,B|176:192|168:144,2,70,0|8|0
272,272,183319,6,0,B|264:312|280:360,2,70,8|0|8
224,200,183819,1,0
144,184,183986,2,0,B|104:200|64:192,2,70,8|0|8
224,200,184486,1,0
272,272,184653,5,8
272,272,184819,1,8
144,184,184986,1,8
144,184,185153,1,8
176,264,185319,1,0
160,280,185403,1,0
144,296,185486,1,0
128,312,185569,1,0
112,328,185653,2,0,B|72:352|40:352,1,70,8|0
72,184,185986,6,0,B|80:144|64:112,1,70,8|0
128,64,186319,2,0,B|160:40|200:40,1,70,8|0
240,104,186653,2,0,B|240:152|272:184,2,70,8|0|8
304,48,187153,1,0
368,96,187319,6,0,B|416:152|504:152,1,140,8|8
492,152,187819,1,0
312,160,187986,2,0,B|264:200|168:192,1,140,8|8
179,192,188486,1,0
96,200,188653,6,0,B|56:192|8:208,2,70,8|0|8
152,264,189153,1,0
216,320,189319,2,0,B|208:376|160:392,2,70,8|0|8
248,240,189819,1,0
328,264,189986,6,0,B|376:264|392:208,2,70,8|0|8
360,344,190486,1,0
280,192,190653,2,0,B|216:144|144:192,1,140,8|0
88,136,191153,1,0
136,72,191319,6,0,B|216:96|272:48,1,140,8|8
304,128,191819,1,0
384,96,191986,2,0,B|360:176|408:232,1,140,8|8
336,272,192486,1,0
264,320,192653,2,0,B|232:344|192:352,2,70,8|0|8
240,240,193153,1,0
160,224,193319,2,0,B|128:152|184:80,1,140,8|8
256,64,193819,1,8
336,96,193986,6,0,B|416:128|416:216,1,140,8|0
176,288,194653,2,0,B|96:256|96:168,1,140,8|0
256,128,195319,6,0,B|256:48,1,70,8|0
336,88,195653,2,0,B|352:16,1,70,8|0
416,72,195986,2,0,B|472:32,2,70,8|0|8
256,192,196653,12,0,197652
