osu file format v14

[General]
AudioFilename: audio.mp3
AudioLeadIn: 0
PreviewTime: 47356
Countdown: 1
SampleSet: Soft
StackLeniency: 0.4
Mode: 0
LetterboxInBreaks: 1
WidescreenStoryboard: 0

[Editor]
Bookmarks: 453,7953,16908,24072,31236,38400,49147,63475,77803,86311,95520
DistanceSpacing: 1.91
BeatDivisor: 4
GridSize: 4
TimelineZoom: 1.7

[Metadata]
Title:adrenaline!!! (short ver.)
TitleUnicode:adrenaline!!! (short ver.)
Artist:TrySail
ArtistUnicode:TrySail
Creator:winber1
Version:entering sagiri
Source:エロマンガ先生
Tags:
BeatmapID:1289410
BeatmapSetID:610715

[Difficulty]
HPDrainRate:5.9
CircleSize:4.1
OverallDifficulty:8.2
ApproachRate:9.3
SliderMultiplier:2.4
SliderTickRate:1

[Events]
//Background and Video events
0,0,"sagiri.jpg",0,0
//Break Periods
//Storyboard Layer 0 (Background)
//Storyboard Layer 1 (Fail)
//Storyboard Layer 2 (Pass)
//Storyboard Layer 3 (Foreground)
//Storyboard Sound Samples

[TimingPoints]
789,447.761194029851,4,2,1,50,1,0
789,-88.4955752212389,4,2,1,50,0,0
900,-88.4955752212389,4,2,0,35,0,0
2580,-88.4955752212389,4,2,0,50,0,0
5042,-88.4955752212389,4,2,1,30,0,0
5266,-83.3333333333333,4,2,1,30,0,0
5490,-74.0740740740741,4,2,1,40,0,0
5714,-66.6666666666667,4,2,1,50,0,0
5938,-66.6666666666667,4,2,1,60,0,0
6162,-58.8235294117647,4,2,1,70,0,0
6386,-58.8235294117647,4,2,1,5,0,0
6497,-58.8235294117647,4,2,1,70,0,0
6721,-58.8235294117647,4,2,1,5,0,0
6833,-50,4,2,1,70,0,0
7057,-66.6666666666667,4,2,1,70,0,0
7505,-50,4,2,1,80,0,0
7953,-66.6666666666667,4,2,1,65,0,0
11087,-80,4,2,1,65,0,0
11311,-100,4,2,1,65,0,0
11535,-66.6666666666667,4,2,1,65,0,0
14781,-66.6666666666667,4,2,1,55,0,0
14893,-66.6666666666667,4,2,1,48,0,0
15005,-66.6666666666667,4,2,1,40,0,0
15117,-100,4,2,1,65,0,0
15229,-100,4,2,0,50,0,0
16460,-133.333333333333,4,2,1,40,0,0
16908,-80,4,2,1,50,0,0
17020,-80,4,2,1,40,0,0
21833,-66.6666666666667,4,2,1,40,0,0
22057,-57.1428571428571,4,2,1,40,0,0
22281,-80,4,2,1,40,0,0
22729,-66.6666666666667,4,2,1,45,0,0
23177,-50,4,2,1,50,0,0
23624,-40,4,2,1,60,0,0
24072,-80,4,2,1,5,0,0
24184,-80,4,2,1,5,0,0
24296,-40,4,2,1,70,0,0
24520,-80,4,2,1,40,0,0
27206,-66.6666666666667,4,2,1,40,0,0
27430,-50,4,2,1,40,0,0
27654,-58.8235294117647,4,2,1,40,0,0
30117,-66.6666666666667,4,2,1,50,0,0
38400,-66.6666666666667,4,2,0,60,0,0
41983,-100,4,2,1,55,0,0
44669,-100,4,2,0,55,0,0
45789,-100,4,2,1,40,0,0
46012,-66.6666666666667,4,2,1,40,0,0
46236,-66.6666666666667,4,2,1,20,0,0
46460,-66.6666666666667,4,2,1,30,0,0
46684,-66.6666666666667,4,2,1,40,0,0
46908,-66.6666666666667,4,2,1,50,0,0
47356,-50,4,2,1,65,0,0
47468,-50,4,2,1,5,0,0
47691,-50,4,2,1,65,0,0
47803,-50,4,2,1,5,0,0
48027,-50,4,2,1,65,0,0
48475,-50,4,2,1,50,0,0
49147,-62.5,4,2,1,65,0,1
56759,-50,4,2,1,65,0,1
57206,-62.5,4,2,1,65,0,1
58550,-50,4,2,1,65,0,1
58997,-62.5,4,2,1,65,0,1
59221,-71.4285714285714,4,2,1,65,0,1
59445,-83.3333333333333,4,2,1,65,0,1
59669,-100,4,2,1,65,0,1
59893,-62.5,4,2,1,65,0,1
60341,-58.8235294117647,4,2,1,65,0,1
60789,-55.5555555555556,4,2,1,65,0,1
61236,-50,4,2,1,65,0,1
61684,-50,4,2,1,65,0,1
63475,-62.5,4,2,1,65,0,1
69296,-58.8235294117647,4,2,1,65,0,1
69632,-55.5555555555556,4,2,1,65,0,1
70191,-50,4,2,1,65,0,1
70639,-62.5,4,2,1,65,0,1
71087,-50,4,2,1,80,0,1
71311,-50,4,2,1,65,0,1
71423,-62.5,4,2,1,65,0,1
77803,-76.9230769230769,4,2,1,65,0,0
81386,-100,4,2,1,65,0,0
83177,-80,4,2,1,65,0,0
84968,-66.6666666666667,4,2,1,65,0,0
85863,-100,4,2,1,65,0,0

[Colours]
Combo1 : 91,204,134
Combo2 : 46,188,218
Combo3 : 241,135,220

[HitObjects]
156,68,454,5,0,0:0:0:0:
164,92,566,1,0,1:0:0:0:
264,144,789,6,0,P|265:193|228:232,1,90,4|0,0:0|0:0,0:0:0:0:
196,244,1012,2,0,P|205:290|212:332,1,90,2|0,0:0|0:0,0:0:0:0:
316,304,1237,6,0,P|362:304|401:329,1,90
436,360,1461,2,0,P|442:317|448:268,1,90,2|0,0:0|0:0,0:0:0:0:
400,168,1685,6,0,P|400:128|442:79,1,90
500,68,1908,2,0,P|500:108|458:157,1,90,2|0,0:0|0:0,0:0:0:0:
352,60,2132,6,0,P|306:66|248:68,1,90
212,44,2356,2,0,P|234:83|220:140,1,90,2|0,0:0|0:0,0:0:0:0:
56,140,2580,6,0,P|62:182|68:230,1,90.0000034332277,4|0,0:0|0:0,0:0:0:0:
120,304,2803,2,0,P|149:269|154:220,1,90.0000034332277,2|0,0:0|0:0,0:0:0:0:
68,116,3028,6,0,P|66:158|64:206,1,90.0000034332277
92,316,3251,2,0,P|126:286|140:239,1,90.0000034332277,2|0,0:0|0:0,0:0:0:0:
80,96,3475,6,0,P|71:137|60:184,1,90.0000034332277
68,328,3699,2,0,P|107:305|128:260,1,90.0000034332277,2|0,0:0|0:0,0:0:0:0:
88,72,3923,6,0,P|72:111|53:155,1,90.0000034332277
44,336,4147,2,0,P|86:320|115:280,1,90.0000034332277,2|0,0:0|0:0,0:0:0:0:
144,164,4372,5,2,0:0:0:0:
232,256,4520,1,2,0:0:0:0:
216,280,4595,2,0,P|220:313|224:348,1,67.5000025749208,2|0,0:0|0:0,0:0:0:0:
280,136,4819,2,0,P|276:103|272:68,1,67.5000025749208,0|0,3:0|0:0,0:0:0:0:
456,172,5043,5,8,0:0:0:0:
456,172,5155,1,8,0:0:0:0:
456,172,5267,2,8,P|452:209|448:247,1,71.9999978027344,8|8,0:0|0:0,0:0:0:0:
334,348,5491,2,8,P|331:305|304:270,1,81.0000003089905,8|8,0:0|0:0,0:0:0:0:
216,105,5715,2,8,P|258:125|311:113,1,90.0000034332277,8|8,0:0|0:0,0:0:0:0:
482,28,5939,5,8,0:0:0:0:
409,86,6051,1,8,0:0:0:0:
442,206,6162,2,0,P|341:193|273:262,1,204.000003890991,8|0,0:0|0:0,0:0:0:0:
47,50,6497,2,0,P|117:118|215:104,1,204.000003890991,8|0,0:0|0:0,0:0:0:0:
332,30,6834,2,0,L|321:151,1,120,8|0,0:0|0:0,0:0:0:0:
207,321,7058,6,0,P|100:303|196:253,1,270.000010299683,8|0,0:0|0:0,0:0:0:0:
273,260,7506,6,0,B|311:248|329:218|329:218|309:286|362:335|433:347|482:302|478:233|432:221|398:241,1,360,4|0,0:0|0:0,0:0:0:0:
257,180,7954,6,0,P|239:133|203:112,1,90.0000034332277,2|0,0:0|0:0,0:0:0:0:
80,210,8177,2,0,P|129:217|165:197,1,90.0000034332277,8|0,0:0|0:0,0:0:0:0:
142,40,8400,1,2,0:0:0:0:
142,40,8511,2,0,P|110:79|110:120,1,90.0000034332277,0|8,0:0|0:0,0:0:0:0:
366,146,8736,6,0,P|279:161|202:107,1,180.000006866455,2|0,0:0|0:0,0:0:0:0:
205,112,9072,2,0,P|256:128|288:156,1,90.0000034332277,8|0,0:0|0:0,0:0:0:0:
363,318,9296,2,0,P|374:272|406:240,1,90.0000034332277,2|0,0:0|0:0,0:0:0:0:
478,63,9520,2,0,P|483:107|489:164,1,90.0000034332277,8|0,0:0|0:0,0:0:0:0:
476,343,9744,6,0,P|456:308|449:339,1,90.0000034332277,2|0,0:0|0:0,0:0:0:0:
242,212,9969,2,0,P|222:247|215:216,1,90.0000034332277,8|0,0:0|0:0,0:0:0:0:
464,78,10191,5,2,0:0:0:0:
421,239,10303,2,0,P|416:188|410:131,1,90.0000034332277,2|8,0:0|0:0,0:0:0:0:
294,43,10527,2,0,P|202:62|172:145,1,180.000006866455,2|0,0:0|0:0,0:0:0:0:
338,147,10863,6,0,P|302:126|254:126,1,90.0000034332277,8|0,0:0|0:0,0:0:0:0:
297,273,11087,2,0,P|278:243|277:198,1,75,2|0,0:0|0:0,0:0:0:0:
362,363,11311,2,0,P|369:331|377:298,1,60,8|0,0:0|0:0,0:0:0:0:
214,343,11535,5,2,0:0:0:0:
214,343,11647,1,0,0:0:0:0:
214,343,11759,2,0,P|178:316|124:317,1,90.0000034332277,8|0,0:0|0:0,0:0:0:0:
143,95,11983,1,2,0:0:0:0:
115,217,12094,2,0,P|78:246|28:249,1,90.0000034332277,0|8,0:0|0:0,0:0:0:0:
92,29,12318,6,0,P|177:19|233:95,1,180.000006866455,2|0,0:0|0:0,0:0:0:0:
47,176,12654,2,0,P|39:131|34:86,1,90.0000034332277,8|0,0:0|0:0,0:0:0:0:
288,184,12878,2,0,P|282:228|275:273,1,90.0000034332277,2|0,0:0|0:0,0:0:0:0:
176,125,13102,1,8,0:0:0:0:
176,125,13214,1,0,0:0:0:0:
176,125,13326,6,0,P|180:166|156:146,1,90.0000034332277,2|0,0:0|0:0,0:0:0:0:
61,308,13550,2,0,P|57:349|81:329,1,90.0000034332277,8|0,0:0|0:0,0:0:0:0:
266,324,13774,5,2,0:0:0:0:
128,251,13886,2,0,P|174:242|220:262,1,90.0000034332277,0|8,0:0|0:0,0:0:0:0:
366,344,14109,5,0,0:0:0:0:
438,293,14221,2,0,P|433:250|427:204,1,90.0000034332277,2|0,0:0|0:0,0:0:0:0:
493,96,14445,1,8,0:0:0:0:
342,6,14557,1,8,0:0:0:0:
245,102,14669,1,8,0:0:0:0:
309,183,14781,1,8,0:0:0:0:
313,232,14893,1,8,0:0:0:0:
319,280,15005,1,8,0:0:0:0:
189,354,15117,6,0,P|156:350|122:346,1,60,4|0,0:0|0:0,0:0:0:0:
61,308,15341,1,0,0:0:0:0:
52,230,15453,1,0,0:0:0:0:
166,272,15565,2,0,P|195:275|225:279,2,60,0|0|0,3:0|0:0|0:0,0:0:0:0:
52,230,15900,6,0,P|48:200|42:165,1,60,2|0,0:0|0:0,0:0:0:0:
199,93,16124,2,0,P|203:123|209:158,1,60,2|0,0:0|0:0,0:0:0:0:
131,192,16348,1,0,0:0:0:0:
107,59,16460,2,0,P|117:113|132:198,1,135.000005149841,8|0,0:0|0:0,0:0:0:0:
127,354,16908,6,0,P|166:359|211:365,1,75,4|0,0:0|0:0,0:0:0:0:
246,223,17132,2,0,P|255:260|265:313,1,75,8|0,0:0|0:0,0:0:0:0:
362,330,17356,2,0,P|353:293|343:240,1,75,2|0,0:0|0:0,0:0:0:0:
501,157,17580,1,8,0:0:0:0:
440,281,17691,2,0,P|424:208|406:135,1,150,2|0,0:0|0:0,0:0:0:0:
316,81,18027,6,0,P|337:52|342:9,1,75,8|0,0:0|0:0,0:0:0:0:
214,122,18251,2,0,P|228:154|263:180,1,75,2|0,0:0|0:0,0:0:0:0:
236,17,18475,2,0,P|200:13|160:30,1,75,8|0,0:0|0:0,0:0:0:0:
320,249,18699,5,2,0:0:0:0:
320,249,18811,1,0,0:0:0:0:
320,249,18923,2,0,P|341:219|346:176,1,75,8|0,0:0|0:0,0:0:0:0:
112,188,19147,2,0,P|154:193|186:195,1,75,2|0,0:0|0:0,0:0:0:0:
236,17,19371,5,8,0:0:0:0:
296,128,19483,2,0,P|216:119|138:111,1,150,2|0,0:0|0:0,0:0:0:0:
78,69,19818,1,8,0:0:0:0:
68,35,19930,1,0,0:0:0:0:
236,17,20042,6,0,P|273:22|320:27,1,75,2|0,0:0|0:0,0:0:0:0:
78,69,20266,2,0,P|41:64|-6:59,1,75,8|0,0:0|0:0,0:0:0:0:
275,149,20490,5,2,0:0:0:0:
275,149,20714,2,0,P|277:188|282:240,1,75,8|0,0:0|0:0,0:0:0:0:
371,241,20938,2,0,P|369:202|364:150,1,75,2|0,0:0|0:0,0:0:0:0:
449,94,21162,1,8,0:0:0:0:
463,304,21274,2,0,P|406:357|319:348,1,150,2|0,0:0|0:0,0:0:0:0:
280,223,21609,6,0,P|255:249|244:290,1,75,8|0,0:0|0:0,0:0:0:0:
159,204,21833,2,0,P|144:251|163:298,1,90.0000034332277,2|0,0:0|0:0,0:0:0:0:
35,258,22057,2,0,P|51:311|96:345,1,105.000001001358,8|0,0:0|0:0,0:0:0:0:
87,342,22281,6,0,P|49:335|10:328,1,75,2|0,0:0|0:0,0:0:0:0:
85,190,22505,2,0,P|123:197|162:204,1,75,8|0,0:0|0:0,0:0:0:0:
249,315,22729,5,2,0:0:0:0:
280,223,22841,1,0,0:0:0:0:
338,301,22953,2,0,L|244:315,1,90.0000034332277,8|0,0:0|0:0,0:0:0:0:
248,314,23177,5,2,0:0:0:0:
316,202,23289,1,0,0:0:0:0:
367,324,23400,2,0,L|238:313,1,120,8|0,0:0|0:0,0:0:0:0:
247,313,23624,5,2,0:0:0:0:
352,182,23737,1,0,0:0:0:0:
392,350,23848,2,0,L|236:310,1,150,8|0,0:0|0:0,0:0:0:0:
155,288,24072,6,0,P|164:232|120:172,1,112.5
152,164,24296,6,0,P|182:223|172:303,1,150,12|0,0:0|0:0,0:0:0:0:
40,344,24520,2,0,P|32:309|24:268,1,75,2|0,0:0|0:0,0:0:0:0:
152,164,24744,1,8,0:0:0:0:
24,270,24856,2,0,P|16:235|8:194,1,75,0|2,0:0|0:0,0:0:0:0:
56,64,25080,1,0,0:0:0:0:
152,164,25191,2,0,P|113:162|80:136,1,75,8|0,0:0|0:0,0:0:0:0:
228,120,25415,5,2,0:0:0:0:
228,208,25527,1,0,0:0:0:0:
148,248,25639,2,0,P|110:254|60:264,1,75,8|0,0:0|0:0,0:0:0:0:
56,64,25863,6,0,P|95:58|144:52,1,75,2|0,0:0|0:0,0:0:0:0:
301,132,26087,2,0,P|264:124|227:119,1,75,8|0,0:0|0:0,0:0:0:0:
78,175,26311,2,0,P|114:168|152:163,1,75,2|0,0:0|0:0,0:0:0:0:
228,120,26535,5,8,0:0:0:0:
328,260,26647,2,0,P|280:304|188:308,1,150,2|0,0:0|0:0,0:0:0:0:
78,175,26983,6,0,P|130:175|170:211,1,100,8|0,0:0|0:0,0:0:0:0:
223,286,27206,2,0,P|279:278|322:223,1,120.000004577637,2|0,0:0|0:0,0:0:0:0:
336,112,27430,2,0,B|298:88|298:88|317:215,1,160,8|0,0:0|0:0,0:0:0:0:
394,368,27654,6,0,B|376:311|322:303|322:303|210:283,1,204.000003890991,6|8,0:0|0:0,0:0:0:0:
124,345,27990,2,0,P|116:295|106:243,1,102.000001945496,0|2,0:0|0:0,0:0:0:0:
303,134,28214,1,0,0:0:0:0:
381,213,28326,1,8,0:0:0:0:
329,308,28438,1,0,0:0:0:0:
222,285,28550,2,0,P|214:235|204:183,1,102.000001945496,2|0,0:0|0:0,0:0:0:0:
186,84,28774,2,0,P|194:134|204:186,1,102.000001945496,8|0,0:0|0:0,0:0:0:0:
468,45,28997,5,2,0:0:0:0:
393,123,29109,2,0,P|386:206|487:276,1,204.000003890991,2|0,0:0|0:0,0:0:0:0:
500,273,29445,2,0,P|443:280|396:287,1,102.000001945496,2|0,0:0|0:0,0:0:0:0:
115,322,29669,5,12,0:0:0:0:
445,357,29893,1,8,0:0:0:0:
445,357,30005,1,2,0:0:0:0:
115,322,30229,2,0,P|107:281|95:233,1,90.0000034332277,8|0,0:0|0:0,0:0:0:0:
243,242,30454,2,0,P|251:201|263:153,1,90.0000034332277,8|0,0:0|0:0,0:0:0:0:
64,124,30676,1,2,0:0:0:0:
178,49,30789,1,8,0:0:0:0:
262,154,30900,1,8,0:0:0:0:
243,242,31012,1,8,0:0:0:0:
253,292,31124,1,8,0:0:0:0:
356,336,31236,6,0,P|368:288|349:243,1,90.0000034332277,6|0,0:0|0:0,0:0:0:0:
448,160,31460,2,0,P|434:202|447:245,1,90.0000034332277,8|0,0:0|0:0,0:0:0:0:
356,336,31684,5,2,0:0:0:0:
268,384,31797,1,0,0:0:0:0:
167,352,31909,2,0,P|121:347|78:343,1,90.0000034332277,8|0,0:0|0:0,0:0:0:0:
108,88,32132,6,0,P|117:173|132:268,1,180.000006866455,2|8,0:0|0:0,0:0:0:0:
44,240,32468,1,0,0:0:0:0:
192,111,32580,2,0,P|200:159|205:201,1,90.0000034332277,2|0,0:0|0:0,0:0:0:0:
44,240,32803,2,0,P|37:193|31:150,1,90.0000034332277,8|0,0:0|0:0,0:0:0:0:
192,16,33027,6,0,P|271:71|267:159,1,180.000006866455,2|8,0:0|0:0,0:0:0:0:
204,200,33363,1,0,0:0:0:0:
121,178,33475,2,0,P|114:131|108:88,1,90.0000034332277,2|0,0:0|0:0,0:0:0:0:
104,60,33699,5,8,0:0:0:0:
460,40,33923,2,0,P|400:55|361:106,1,120.000004577637,2|0,0:0|0:0,0:0:0:0:
260,107,34147,2,0,P|320:101|374:135,1,120.000004577637,8|0,0:0|0:0,0:0:0:0:
471,103,34371,2,0,P|411:118|372:169,1,120.000004577637,2|0,0:0|0:0,0:0:0:0:
271,170,34595,2,0,P|331:164|385:198,1,120.000004577637,8|0,0:0|0:0,0:0:0:0:
440,336,34818,6,0,P|333:346|264:296,1,180.000006866455,2|8,0:0|0:0,0:0:0:0:
220,240,35154,1,0,0:0:0:0:
188,324,35266,2,0,P|149:349|96:348,2,90.0000034332277,2|0|8,0:0|0:0|0:0,0:0:0:0:
220,240,35602,1,0,0:0:0:0:
56,132,35714,6,0,P|14:213|30:299,1,180.000006866455,2|8,0:0|0:0,0:0:0:0:
220,240,36050,1,0,0:0:0:0:
128,184,36162,2,0,P|110:224|120:268,1,90.0000034332277,2|0,0:0|0:0,0:0:0:0:
276,324,36386,2,0,P|312:298|325:256,1,90.0000034332277,8|0,0:0|0:0,0:0:0:0:
213,146,36609,6,0,B|255:128|280:87|280:87|270:134|284:174,1,180.000006866455,2|8,0:0|0:0,0:0:0:0:
432,280,36945,1,0,0:0:0:0:
432,280,37056,2,0,P|394:256|374:217,1,90.0000034332277,2|0,0:0|0:0,0:0:0:0:
356,128,37281,2,0,P|363:83|392:51,1,90.0000034332277,8|0,0:0|0:0,0:0:0:0:
480,20,37505,5,2,0:0:0:0:
460,200,37617,2,0,P|389:251|296:228,1,180.000006866455,8|2,0:0|0:0,0:0:0:0:
144,172,37953,5,8,0:0:0:0:
208,304,38065,1,8,0:0:0:0:
240,120,38177,1,8,0:0:0:0:
208,304,38289,1,8,0:0:0:0:
108,268,38400,5,2,0:0:0:0:
54,276,38512,1,0,3:0:0:0:
46,329,38624,1,0,3:0:0:0:
94,354,38736,1,0,3:0:0:0:
132,315,38848,2,0,P|124:228|207:304,1,270.000010299683,4|0,0:0|0:0,0:0:0:0:
412,284,39296,5,2,0:0:0:0:
454,250,39408,1,0,0:0:0:0:
435,200,39520,1,0,0:0:0:0:
381,202,39632,1,0,0:0:0:0:
367,255,39744,2,0,P|417:326|307:302,1,270.000010299683,4|0,0:0|0:0,0:0:0:0:
220,132,40191,5,2,0:0:0:0:
186,90,40303,1,0,0:0:0:0:
136,109,40415,1,0,0:0:0:0:
138,163,40527,1,0,0:0:0:0:
191,177,40639,2,0,P|280:163|374:152,1,180.000006866455,4|0,0:0|0:0,0:0:0:0:
480,128,40975,5,0,1:0:0:0:
476,144,41031,1,0,1:0:0:0:
472,156,41087,5,4,1:0:0:0:
48,80,41423,1,4,1:0:0:0:
472,156,41760,1,4,1:0:0:0:
340,204,41983,6,0,P|343:234|348:268,1,60,2|0,0:0|0:0,0:0:0:0:
432,292,42206,2,0,P|429:262|424:228,1,60,2|0,0:0|0:0,0:0:0:0:
300,328,42430,2,0,P|249:304|180:308,1,120,8|0,0:0|0:0,0:0:0:0:
80,352,42878,5,2,0:0:0:0:
80,352,43102,1,2,0:0:0:0:
96,144,43326,2,0,L|112:280,1,120,8|0,0:0|0:0,0:0:0:0:
110,263,43662,1,0,0:0:0:0:
192,176,43774,2,0,P|196:146|200:104,1,60,2|0,0:0|0:0,0:0:0:0:
216,32,43997,1,2,0:0:0:0:
28,80,44220,1,8,0:0:0:0:
192,176,44444,1,2,0:0:0:0:
376,132,44669,5,2,0:0:0:0:
376,132,45005,1,2,0:0:0:0:
376,132,45341,1,0,0:0:0:0:
288,100,45565,6,0,P|288:160|332:212,1,120,4|2,0:0|0:0,0:0:0:0:
352,220,45900,1,0,0:0:0:0:
500,288,46012,2,0,P|414:278|336:344,1,180.000006866455,0|8,0:0|0:0,0:0:0:0:
324,368,46348,1,8,0:0:0:0:
232,284,46460,2,0,P|188:269|140:276,1,90.0000034332277,8|8,0:0|0:0,0:0:0:0:
56,344,46684,5,8,0:0:0:0:
40,296,46796,1,8,0:0:0:0:
56,200,46908,1,8,0:0:0:0:
172,176,47020,1,8,0:0:0:0:
232,284,47132,1,8,0:0:0:0:
384,296,47244,1,8,0:0:0:0:
468,156,47356,6,0,B|411:140|411:140|360:188,1,120,0|0,1:0|0:0,0:0:0:0:
48,112,47691,2,0,B|105:128|105:128|156:80,1,120,0|0,1:0|0:0,0:0:0:0:
444,32,48027,2,0,B|387:16|387:16|336:64,1,120,0|0,1:0|0:0,0:0:0:0:
248,72,48250,6,0,P|258:136|268:192,1,120,4|0,1:0|0:0,0:0:0:0:
323,268,48475,5,8,0:0:0:0:
323,268,48587,1,8,0:0:0:0:
175,314,48700,1,8,0:0:0:0:
267,190,48812,1,8,0:0:0:0:
266,346,48924,1,8,0:0:0:0:
176,218,49034,1,8,0:0:0:0:
323,268,49148,6,0,P|360:192|304:104,1,192,6|8,0:0|0:0,0:0:0:0:
32,152,49483,1,0,0:0:0:0:
32,152,49594,2,0,P|37:197|44:256,1,96,2|0,0:0|0:0,0:0:0:0:
175,314,49818,1,8,0:0:0:0:
308,106,49929,2,0,P|254:97|211:117,1,96,0|2,0:0|0:0,0:0:0:0:
320,196,50154,1,0,0:0:0:0:
392,140,50265,2,0,P|401:85|381:42,1,96,8|0,0:0|0:0,0:0:0:0:
217,111,50490,2,0,P|207:165|227:208,1,96,2|0,0:0|0:0,0:0:0:0:
294,279,50713,1,8,0:0:0:0:
396,264,50826,1,0,0:0:0:0:
240,368,50938,6,0,P|160:326|50:340,2,192,2|8|2,0:0|0:0|0:0,0:0:0:0:
472,344,51497,1,0,0:0:0:0:
294,279,51609,2,0,P|300:230|304:180,1,96,8|0,0:0|0:0,0:0:0:0:
217,111,51833,5,2,0:0:0:0:
40,184,51945,1,0,0:0:0:0:
226,206,52057,2,0,P|220:157|216:107,1,96,8|0,0:0|0:0,0:0:0:0:
312,32,52281,5,2,0:0:0:0:
489,105,52393,1,0,0:0:0:0:
303,127,52505,2,0,P|309:78|313:28,1,96,8|0,0:0|0:0,0:0:0:0:
112,56,52729,6,0,P|125:146|144:252,2,192,2|8|2,0:0|0:0|0:0,0:0:0:0:
28,104,53289,1,0,0:0:0:0:
228,148,53400,1,8,0:0:0:0:
142,245,53512,2,0,P|134:197|125:142,1,96,0|2,0:0|0:0,0:0:0:0:
280,312,53735,1,0,0:0:0:0:
280,312,53849,2,0,P|288:264|297:209,1,96,8|0,0:0|0:0,0:0:0:0:
324,80,54072,2,0,P|376:108|397:140,1,96,2|0,0:0|0:0,0:0:0:0:
504,112,54296,2,0,P|509:165|490:208,1,96,8|0,0:0|0:0,0:0:0:0:
392,340,54520,6,0,P|302:346|196:356,2,192,2|8|2,0:0|0:0|0:0,0:0:0:0:
480,280,55080,2,0,P|470:238|460:184,1,96,0|8,0:0|0:0,0:0:0:0:
404,44,55304,2,0,P|394:86|384:140,1,96,0|2,0:0|0:0,0:0:0:0:
356,248,55527,1,0,0:0:0:0:
284,104,55639,1,8,0:0:0:0:
228,224,55751,1,0,0:0:0:0:
284,104,55863,2,0,P|234:108|180:112,1,96,2|0,0:0|0:0,0:0:0:0:
356,248,56087,2,0,P|406:244|460:240,1,96,8|0,0:0|0:0,0:0:0:0:
475,89,56311,6,0,P|385:95|271:104,1,192,2|8,0:0|0:0,0:0:0:0:
204,48,56647,1,0,0:0:0:0:
56,188,56759,6,0,P|64:308|204:348,1,240,6|8,0:0|0:0,0:0:0:0:
356,248,57094,1,0,0:0:0:0:
268,208,57206,2,0,P|220:208|178:233,1,96,2|0,0:0|0:0,0:0:0:0:
340,344,57429,2,0,P|388:344|430:319,1,96,8|0,0:0|0:0,0:0:0:0:
412,124,57654,5,2,0:0:0:0:
356,248,57766,1,0,0:0:0:0:
324,84,57878,1,8,0:0:0:0:
268,208,57990,1,0,0:0:0:0:
412,124,58102,6,0,P|460:118|508:115,1,96,2|0,0:0|0:0,0:0:0:0:
268,208,58327,1,8,0:0:0:0:
176,80,58438,1,0,0:0:0:0:
66,257,58550,6,0,P|196:276|271:195,1,240,6|8,0:0|0:0,0:0:0:0:
176,80,58886,1,0,0:0:0:0:
80,164,58997,6,0,P|75:119|68:64,1,96,2|0,0:0|0:0,0:0:0:0:
172,120,59221,2,0,P|175:76|180:32,1,83.9999974365235,8|0,0:0|0:0,0:0:0:0:
276,112,59445,2,0,P|288:68|309:38,1,71.9999978027344,2|0,0:0|0:0,0:0:0:0:
384,140,59669,2,0,P|398:110|426:88,1,60,8|0,0:0|0:0,0:0:0:0:
480,352,59893,6,0,B|439:327|439:327|293:344,1,192,2|8,0:0|0:0,0:0:0:0:
272,348,60229,1,0,0:0:0:0:
28,264,60341,6,0,B|82:235|82:235|233:253,1,204.000003890991,2|8,0:0|0:0,0:0:0:0:
254,258,60677,1,0,0:0:0:0:
504,164,60789,6,0,B|449:132|449:132|297:155,1,215.999993408203,2|8,0:0|0:0,0:0:0:0:
263,162,61125,1,0,0:0:0:0:
44,108,61236,6,0,P|132:36|256:56,1,240,2|8,0:0|0:0,0:0:0:0:
364,192,61572,1,0,0:0:0:0:
250,331,61684,6,0,P|135:348|44:276,1,240,2|8,0:0|0:0,0:0:0:0:
44,108,62020,2,0,P|132:36|256:56,1,240,2|0,0:0|0:0,0:0:0:0:
484,192,62356,2,0,L|426:192|360:192,1,120,8|0,0:0|0:0,0:0:0:0:
292,120,62580,5,2,0:0:0:0:
252,128,62691,1,2,0:0:0:0:
232,240,62803,1,8,0:0:0:0:
192,232,62914,1,8,0:0:0:0:
136,144,63027,5,8,0:0:0:0:
152,224,63139,1,8,0:0:0:0:
268,248,63251,1,8,0:0:0:0:
292,120,63363,1,8,0:0:0:0:
120,64,63475,6,0,P|56:132|96:214,1,192,6|8,0:0|0:0,0:0:0:0:
88,344,63811,1,0,0:0:0:0:
88,344,63923,2,0,P|132:323|181:327,1,96,2|0,0:0|0:0,0:0:0:0:
276,364,64147,5,8,0:0:0:0:
352,184,64259,2,0,P|358:230|368:284,1,96,0|2,0:0|0:0,0:0:0:0:
376,100,64483,1,0,0:0:0:0:
292,120,64594,2,0,P|245:102|194:87,1,96,8|0,0:0|0:0,0:0:0:0:
120,64,64818,1,2,0:0:0:0:
232,208,64930,1,0,0:0:0:0:
376,100,65042,2,0,P|367:50|361:0,1,96,8|0,0:0|0:0,0:0:0:0:
120,64,65266,6,0,P|132:156|148:260,2,192,2|8|2,0:0|0:0|0:0,0:0:0:0:
232,208,65826,1,0,0:0:0:0:
72,304,65938,2,0,L|64:250|56:196,1,96,8|0,0:0|0:0,0:0:0:0:
208,92,66163,5,2,0:0:0:0:
320,236,66275,1,0,0:0:0:0:
160,332,66386,2,0,L|152:278|144:224,1,96,8|0,0:0|0:0,0:0:0:0:
297,120,66609,5,2,0:0:0:0:
409,264,66721,1,0,0:0:0:0:
249,360,66832,2,0,L|241:306|233:252,1,96,8|0,0:0|0:0,0:0:0:0:
384,152,67057,6,0,P|399:241|416:348,2,192,2|8|2,0:0|0:0|0:0,0:0:0:0:
444,72,67617,1,0,0:0:0:0:
320,236,67729,1,8,0:0:0:0:
489,300,67841,2,0,P|481:248|472:200,1,96,0|2,0:0|0:0,0:0:0:0:
319,333,68065,1,0,0:0:0:0:
319,333,68177,2,0,P|367:338|423:341,1,96,8|0,0:0|0:0,0:0:0:0:
473,205,68400,2,0,P|436:180|376:184,1,96,2|0,0:0|0:0,0:0:0:0:
376,48,68624,2,0,P|328:56|288:100,1,96,8|0,0:0|0:0,0:0:0:0:
240,244,68848,6,0,P|172:168|84:164,1,192,2|8,0:0|0:0,0:0:0:0:
40,288,69184,1,0,0:0:0:0:
284,220,69296,6,0,P|198:164|104:186,1,204.000003890991,2|8,0:0|0:0,0:0:0:0:
112,336,69632,1,0,0:0:0:0:
312,184,69745,6,0,P|215:152|121:205,1,215.999993408203,2|8,0:0|0:0,0:0:0:0:
236,340,70080,1,0,0:0:0:0:
332,140,70191,6,0,P|227:135|138:228,1,240,2|8,0:0|0:0,0:0:0:0:
348,292,70527,1,0,0:0:0:0:
448,184,70639,6,0,P|450:138|455:83,2,96,2|0|8,0:0|0:0|0:0,0:0:0:0:
348,292,70975,1,0,0:0:0:0:
254,97,71087,6,0,P|359:92|448:185,1,240,6|8,0:0|0:0,0:0:0:0:
348,292,71423,1,0,0:0:0:0:
348,292,71536,2,0,P|342:245|336:191,1,96,2|0,0:0|0:0,0:0:0:0:
225,169,71759,2,0,P|231:216|237:270,1,96,8|0,0:0|0:0,0:0:0:0:
456,344,71983,5,2,0:0:0:0:
348,292,72094,1,0,0:0:0:0:
248,360,72206,1,8,0:0:0:0:
140,308,72317,1,0,0:0:0:0:
248,360,72430,6,0,L|224:156,1,192,2|8,0:0|0:0,0:0:0:0:
336,48,72766,1,0,0:0:0:0:
480,152,72879,2,0,P|433:145|376:136,1,96,2|0,0:0|0:0,0:0:0:0:
284,228,73102,5,8,0:0:0:0:
173,106,73214,1,0,0:0:0:0:
29,210,73327,2,0,P|76:203|133:194,1,96,2|0,0:0|0:0,0:0:0:0:
228,288,73550,5,8,0:0:0:0:
338,166,73662,1,0,0:0:0:0:
482,270,73774,2,0,P|435:263|378:254,1,96,2|0,0:0|0:0,0:0:0:0:
176,352,73997,5,8,0:0:0:0:
176,352,74109,1,0,0:0:0:0:
176,352,74221,2,0,P|149:311|153:258,1,96,2|0,0:0|0:0,0:0:0:0:
336,32,74445,2,0,P|363:73|359:126,1,96,8|0,0:0|0:0,0:0:0:0:
160,128,74669,2,0,P|201:101|254:105,1,96,2|0,0:0|0:0,0:0:0:0:
352,256,74893,2,0,P|311:283|258:279,1,96,8|0,0:0|0:0,0:0:0:0:
92,240,75117,6,0,P|85:194|76:144,1,96,2|0,0:0|0:0,0:0:0:0:
420,144,75341,2,0,P|427:190|436:240,1,96,8|0,0:0|0:0,0:0:0:0:
246,102,75565,5,2,0:0:0:0:
167,173,75677,1,0,0:0:0:0:
211,270,75789,1,8,0:0:0:0:
316,258,75900,1,0,0:0:0:0:
338,154,76012,2,0,P|286:150|229:147,1,96,2|0,0:0|0:0,0:0:0:0:
128,96,76236,5,8,0:0:0:0:
211,270,76348,1,0,0:0:0:0:
256,60,76460,2,0,P|300:64|361:68,1,96,2|0,0:0|0:0,0:0:0:0:
128,96,76684,5,8,0:0:0:0:
211,270,76796,1,0,0:0:0:0:
256,60,76908,1,2,0:0:0:0:
128,96,77020,2,0,P|122:146|116:200,1,96,8|0,0:0|0:0,0:0:0:0:
104,308,77244,5,2,0:0:0:0:
244,260,77356,1,8,0:0:0:0:
72,316,77468,1,8,0:0:0:0:
208,356,77580,1,2,0:0:0:0:
40,324,77691,1,2,0:0:0:0:
183,284,77803,6,0,P|186:246|191:207,3,77.9999964294435,4|0|2|0,0:0|0:0|0:0|0:0,0:0:0:0:
88,224,78251,2,0,P|81:149|72:60,1,155.999992858887,8|0,0:0|0:0,0:0:0:0:
329,284,78699,6,0,P|325:245|320:206,3,77.9999964294435,2|0|2|0,0:0|0:0|0:0|0:0,0:0:0:0:
424,223,79147,2,0,P|431:146|439:68,1,155.999992858887,8|0,0:0|0:0,0:0:0:0:
140,40,79594,5,2,0:0:0:0:
144,64,79706,1,0,0:0:0:0:
224,80,79818,1,2,0:0:0:0:
228,104,79930,1,0,0:0:0:0:
308,120,80042,2,0,P|284:164|168:156,1,155.999992858887,8|0,0:0|0:0,0:0:0:0:
372,216,80490,5,2,0:0:0:0:
368,240,80602,1,0,0:0:0:0:
288,256,80714,1,2,0:0:0:0:
284,280,80826,1,0,0:0:0:0:
204,296,80938,2,0,P|228:340|344:332,1,155.999992858887,8|0,0:0|0:0,0:0:0:0:
288,256,81274,1,0,0:0:0:0:
100,348,81386,6,0,P|88:264|56:96,1,240,4|0,0:0|0:0,0:0:0:0:
412,36,82281,2,0,P|424:120|456:288,1,240,4|0,0:0|0:0,0:0:0:0:
208,140,83177,6,0,P|201:102|192:64,1,75,2|0,0:0|0:0,0:0:0:0:
288,208,83400,2,0,P|294:170|304:132,1,75
192,252,83624,1,8,0:0:0:0:
192,252,83736,1,0,0:0:0:0:
192,252,83848,2,0,P|200:288|208:332,1,75
428,328,84072,2,0,P|378:293|288:296,1,150,2|2,0:0|0:0,0:0:0:0:
112,360,84408,1,2,0:0:0:0:
64,288,84520,2,0,P|70:253|74:209,1,75,8|0,0:0|0:0,0:0:0:0:
108,44,84744,5,0,0:0:0:0:
108,44,84856,1,0,0:0:0:0:
108,44,84968,2,0,P|200:48|276:0,1,180.000006866455,8|0,0:0|0:0,0:0:0:0:
192,252,85302,2,0,P|149:170|69:128,1,180.000006866455,8|0,0:0|0:0,0:0:0:0:
312,108,85639,2,0,P|285:146|278:194,1,90.0000034332277,8|0,0:0|0:0,0:0:0:0:
344,336,85863,6,0,B|368:320|368:320|347:291|312:300|281:339|309:391|375:385|381:343|368:320|368:320|344:336,1,240,8|0,0:0|0:0,0:0:0:0:
