osu file format v14

[General]
AudioFilename: ClassroomCrisisOP.mp3
AudioLeadIn: 0
PreviewTime: 39207
Countdown: 0
SampleSet: Soft
StackLeniency: 0.7
Mode: 0
LetterboxInBreaks: 0
WidescreenStoryboard: 0

[Editor]
DistanceSpacing: 0.9
BeatDivisor: 4
GridSize: 4
TimelineZoom: 2.999999

[Metadata]
Title:Cobalt TV Size
TitleUnicode:コバルト TVサイズ
Artist:TrySail
ArtistUnicode:TrySail
Creator:Rizia
Version:Classroom Cobalt
Source:Classroom☆Crisis
Tags:クラスルーム☆クライシス opening 麻倉もも 雨宮天 夏川椎菜 Asakura Momo Amamiya Sora Natsukawa Shiina Kawaiwkyik iamkwan xxdeathx hinsvar
BeatmapID:746216
BeatmapSetID:337250

[Difficulty]
HPDrainRate:7
CircleSize:4.2
OverallDifficulty:8
ApproachRate:9.2
SliderMultiplier:1.8
SliderTickRate:1

[Events]
//Background and Video events
Video,-322,"video.avi"
0,0,"yande.re 320860 classroom_crisis gym_uniform kanzaki_hiro seifuku sera_mizuki_(classroom_crisis) shirasaki_iris.png",0,0
//Break Periods
//Storyboard Layer 0 (Background)
//Storyboard Layer 1 (Fail)
//Storyboard Layer 2 (Pass)
//Storyboard Layer 3 (Foreground)
//Storyboard Sound Samples

[TimingPoints]
384,352.941176470588,4,2,1,50,1,0
384,-181.818181818182,4,2,2,50,0,0
7266,-100,4,2,1,90,0,0
8325,-83.3333333333333,4,2,1,90,0,0
8501,-71.4285714285714,4,2,1,70,0,0
8678,-66.6666666666667,4,2,1,80,0,0
9031,-100,4,2,1,80,0,0
14501,-133.333333333333,4,2,1,60,0,0
25089,-133.333333333333,4,2,1,70,0,0
25619,-111.111111111111,4,2,1,75,0,0
37089,-111.111111111111,4,2,0,75,0,0
38501,-100,4,2,1,75,0,0
38854,-66.6666666666667,4,2,1,75,0,0
39207,-55.5555555555556,4,2,1,75,0,0
39736,-66.6666666666667,4,2,1,90,0,1
40266,-86.9565217391304,4,2,1,90,0,1
47501,-76.9230769230769,4,2,1,90,0,1
47766,-76.9230769230769,4,2,1,5,0,1
47854,-76.9230769230769,4,2,1,90,0,1
48119,-76.9230769230769,4,2,1,5,0,1
48207,-76.9230769230769,4,2,1,90,0,1
48736,-86.9565217391304,4,2,1,90,0,1
50325,-66.6666666666667,4,2,1,90,0,1
50678,-58.8235294117647,4,2,1,90,0,1
50942,-58.8235294117647,4,2,1,90,0,0
51031,-66.6666666666667,4,1,89,80,0,1
51119,-66.6666666666667,4,2,1,90,0,1
51560,-86.9565217391304,4,2,1,90,0,1
58795,-76.9230769230769,4,2,1,90,0,1
59060,-76.9230769230769,4,2,1,5,0,1
59148,-76.9230769230769,4,2,1,90,0,1
59413,-76.9230769230769,4,2,1,5,0,1
59501,-76.9230769230769,4,2,1,90,0,1
60031,-86.9565217391304,4,2,1,90,0,1
61619,-66.6666666666667,4,2,1,90,0,1
61972,-55.5555555555556,4,2,1,90,0,1
62413,-55.5555555555556,4,2,1,90,0,0
62501,-66.6666666666667,4,2,1,90,0,1
62854,-86.9565217391304,4,2,1,90,0,1
67795,-55.5555555555556,4,2,1,90,0,1
68148,-76.9230769230769,4,2,1,90,0,1
70972,-76.9230769230769,4,2,1,90,0,0
72207,-100,4,2,1,90,0,0
73089,-66.6666666666667,4,2,1,90,0,0
73619,-66.6666666666667,4,2,1,90,0,1
74148,-86.9565217391304,4,2,1,90,0,1
81383,-76.9230769230769,4,2,1,90,0,1
81648,-76.9230769230769,4,2,1,5,0,1
81736,-100,4,2,1,90,0,1
82001,-100,4,2,1,5,0,1
82089,-76.9230769230769,4,2,1,90,0,1
82619,-86.9565217391304,4,2,1,90,0,1
86501,-86.9565217391304,4,2,1,60,0,1
86766,-86.9565217391304,4,2,1,90,0,1
87736,-86.9565217391304,4,2,1,90,0,0

[Colours]
Combo1 : 0,128,255
Combo2 : 137,73,54
Combo3 : 95,95,175

[HitObjects]
84,108,384,6,0,P|120:116|228:68,2,148.50000453186,0|2|2,0:0|0:0|0:0,0:0:0:0:
36,196,1795,1,2,0:0:0:0:
88,280,2148,1,0,0:0:0:0:
88,280,2325,1,2,0:0:0:0:
188,268,2678,1,0,0:0:0:0:
188,268,2854,1,2,0:0:0:0:
224,176,3207,6,0,P|260:200|268:316,2,148.50000453186,0|2|2,0:0|0:0|0:0,0:0:0:0:
256,192,4619,12,0,5854,0:0:0:0:
228,224,7266,6,0,L|180:232,1,45
104,108,7443,5,8,0:0:0:0:
104,108,7531,1,0,0:0:0:0:
104,108,7619,2,0,L|152:116,1,45
244,72,7796,5,8,0:0:0:0:
244,72,7884,1,0,0:0:0:0:
244,72,7972,2,0,L|292:64,1,45
392,128,8149,5,8,0:0:0:0:
392,128,8237,1,0,0:0:0:0:
392,128,8325,2,0,L|400:60,1,53.9999983520508,8|0,0:0|0:0,0:0:0:0:
208,200,8502,6,0,L|200:264,1,62.9999980773926,2|0,0:0|0:0,0:0:0:0:
296,336,8678,6,0,P|356:316|476:392,1,202.500007724762,4|0,0:0|0:0,0:0:0:0:
492,352,9031,1,2,0:0:0:0:
312,168,9207,2,0,P|304:124|324:64,1,90,8|0,0:0|0:0,0:0:0:0:
388,240,9560,2,0,L|292:260,1,90,2|2,0:0|0:0,0:0:0:0:
112,252,9913,1,8,0:0:0:0:
312,168,10089,6,0,P|300:236|284:356,1,180,2|0,0:0|0:0,0:0:0:0:
285,345,10531,1,0,0:0:0:0:
285,345,10619,1,8,0:0:0:0:
388,240,10795,1,0,0:0:0:0:
486,307,10972,2,0,L|494:375,1,45,2|0,0:0|0:0,0:0:0:0:
476,208,11148,1,2,0:0:0:0:
332,352,11325,1,8,0:0:0:0:
224,136,11501,6,0,P|252:100|388:124,1,180,2|2,0:0|0:0,0:0:0:0:
392,128,11942,1,0,0:0:0:0:
392,128,12031,2,0,L|380:232,1,90,8|0,0:0|0:0,0:0:0:0:
188,316,12383,1,2,0:0:0:0:
204,116,12560,1,2,0:0:0:0:
381,217,12736,1,8,0:0:0:0:
256,40,12913,6,0,P|284:72|252:184,1,135,2|0,0:0|0:0,0:0:0:0:
204,204,13266,2,0,L|144:196,1,45,2|0,0:0|0:0,0:0:0:0:
64,204,13442,1,8,0:0:0:0:
232,316,13619,1,0,0:0:0:0:
176,72,13795,5,12,0:0:0:0:
244,360,13972,1,8,0:0:0:0:
244,360,14501,6,0,P|284:336|376:348,1,135.000005149842,2|2,0:0|0:0,0:0:0:0:
448,300,15031,1,0,0:0:0:0:
480,216,15207,2,0,L|472:136,1,67.5000025749208,2|0,0:0|0:0,0:0:0:0:
362,276,15560,2,0,L|370:356,1,67.5000025749208,2|0,0:0|0:0,0:0:0:0:
240,256,15913,6,0,P|228:212|252:100,1,135.000005149842,2|2,0:0|0:0,0:0:0:0:
328,80,16442,1,0,0:0:0:0:
372,156,16619,2,0,P|336:168|304:164,1,67.5000025749208,2|0,0:0|0:0,0:0:0:0:
164,104,16972,2,0,P|143:72|138:40,1,67.5000025749208,2|0,0:0|0:0,0:0:0:0:
124,196,17325,6,0,P|76:188|0:236,1,135.000005149842,2|2,0:0|0:0,0:0:0:0:
192,328,17854,1,0,0:0:0:0:
192,328,18031,2,0,L|204:244,1,67.5000025749208,2|0,0:0|0:0,0:0:0:0:
164,104,18383,1,2,0:0:0:0:
212,176,18560,1,0,0:0:0:0:
296,148,18736,6,0,B|336:136|336:136|432:148,1,135.000005149842,2|2,0:0|0:0,0:0:0:0:
476,220,19266,1,0,0:0:0:0:
416,284,19442,2,0,B|376:296|376:296|280:284,1,135.000005149842,2|2,0:0|0:0,0:0:0:0:
220,224,19972,1,0,0:0:0:0:
88,304,20148,5,2,0:0:0:0:
88,304,20501,2,0,L|168:296,1,67.5000025749208,2|0,0:0|0:0,0:0:0:0:
368,240,20854,2,0,L|288:232,1,67.5000025749208,2|0,0:0|0:0,0:0:0:0:
184,144,21207,1,2,0:0:0:0:
256,304,21383,1,0,0:0:0:0:
184,144,21560,6,0,P|176:92|216:12,2,135.000005149842,2|2|2,0:0|0:0|0:0,0:0:0:0:
220,224,22442,1,0,0:0:0:0:
336,168,22619,2,0,P|304:156|272:156,1,67.5000025749208,2|0,0:0|0:0,0:0:0:0:
164,288,22972,6,0,P|200:304|292:272,1,135.000005149842,2|2,0:0|0:0,0:0:0:0:
336,212,23501,1,0,0:0:0:0:
432,308,23678,2,0,P|400:300|360:304,1,67.5000025749208,2|0,0:0|0:0,0:0:0:0:
248,360,24031,2,0,P|216:368|176:364,1,67.5000025749208,2|0,0:0|0:0,0:0:0:0:
80,328,24383,6,0,B|20:264|76:180|172:204|176:276|176:276|188:264|212:268,1,270.000010299683,0|8,0:0|0:0,0:0:0:0:
124,96,25266,1,8,0:0:0:0:
132,84,25619,6,0,L|152:248,1,161.999995056153,4|0,0:0|0:0,0:0:0:0:
396,328,26148,1,8,0:0:0:0:
420,240,26325,1,0,0:0:0:0:
332,264,26501,2,0,L|248:284,1,80.9999975280763,2|2,0:0|0:0,0:0:0:0:
92,320,26854,1,8,0:0:0:0:
253,282,27031,6,0,P|273:234|221:106,1,161.999995056153,2|0,0:0|0:0,0:0:0:0:
56,36,27560,2,0,P|44:84|84:160,1,121.499996292114,8|0,0:0|0:0,0:0:0:0:
100,164,27913,1,2,0:0:0:0:
184,92,28089,1,2,0:0:0:0:
280,192,28266,1,8,0:0:0:0:
356,64,28442,1,0,0:0:0:0:
472,240,28619,5,4,0:0:0:0:
368,168,28795,1,0,0:0:0:0:
388,292,28972,2,0,L|400:380,1,80.9999975280763,8|0,0:0|0:0,0:0:0:0:
280,192,29325,2,0,L|290:111,1,80.9999975280763,2|2,0:0|0:0,0:0:0:0:
248,332,29678,2,0,P|200:328|148:352,1,80.9999975280763,8|0,0:0|0:0,0:0:0:0:
44,248,30031,5,2,0:0:0:0:
60,86,30207,1,0,0:0:0:0:
191,182,30383,1,8,0:0:0:0:
98,172,30560,1,0,0:0:0:0:
98,172,30648,1,0,0:0:0:0:
98,172,30736,1,2,0:0:0:0:
280,192,30913,1,2,0:0:0:0:
220,308,31089,1,8,0:0:0:0:
152,92,31266,1,0,0:0:0:0:
356,124,31442,6,0,P|376:172|328:284,1,161.999995056153,4|8,0:0|0:0,0:0:0:0:
280,192,31972,1,0,0:0:0:0:
308,56,32148,2,0,P|352:40|392:48,1,80.9999975280763,2|2,0:0|0:0,0:0:0:0:
408,192,32501,2,0,P|364:208|324:200,1,80.9999975280763,8|0,0:0|0:0,0:0:0:0:
64,168,32854,5,2,0:0:0:0:
64,168,33031,1,0,0:0:0:0:
132,76,33208,1,8,0:0:0:0:
236,124,33384,2,0,L|252:240,1,80.9999975280763,0|2,0:0|0:0,0:0:0:0:
160,272,33736,2,0,L|144:156,1,80.9999975280763,2|8,0:0|0:0,0:0:0:0:
388,172,34089,5,0,0:0:0:0:
388,172,34266,2,0,P|344:156|240:216,1,161.999995056153,2|8,0:0|0:0,0:0:0:0:
468,280,34795,1,0,0:0:0:0:
332,252,34972,1,2,0:0:0:0:
400,384,35148,1,2,0:0:0:0:
312,260,35325,1,8,0:0:0:0:
404,136,35501,1,0,0:0:0:0:
476,296,35678,6,0,L|376:284,1,80.9999975280763,2|0,0:0|0:0,0:0:0:0:
204,328,36031,2,0,L|123:337,1,80.9999975280763,8|0,0:0|0:0,0:0:0:0:
36,200,36383,1,2,0:0:0:0:
72,40,36560,1,2,0:0:0:0:
228,76,36736,1,8,0:0:0:0:
192,236,36913,1,0,0:0:0:0:
36,200,37089,5,2,0:0:0:0:
256,192,37178,12,0,38325,0:0:0:0:
36,200,38501,6,0,L|44:136,3,45,8|0|0|0,0:0|0:0|0:0|0:0,0:0:0:0:
128,212,38854,6,0,L|140:296,1,67.5000025749208,8|0,0:0|0:0,0:0:0:0:
240,132,39031,2,0,L|228:216,1,67.5000025749208
340,348,39207,6,0,P|352:300|348:248,1,80.9999975280763,12|0,0:0|0:0,0:0:0:0:
304,72,39383,1,12,0:0:0:0:
304,72,39736,6,0,P|372:116|488:88,1,202.500007724762,4|0,0:0|0:0,0:0:0:0:
492,76,40089,1,2,0:0:0:0:
224,164,40266,2,0,L|232:280,1,103.500001974106,8|0,0:0|0:0,0:0:0:0:
340,348,40619,1,2,0:0:0:0:
388,152,40795,1,2,0:0:0:0:
416,372,40972,1,8,0:0:0:0:
231,267,41148,6,0,P|168:248|28:344,1,207.000003948212,4|2,0:0|0:0,0:0:0:0:
46,306,41589,1,0,0:0:0:0:
46,306,41678,1,8,0:0:0:0:
144,212,41854,1,0,0:0:0:0:
28,124,42031,2,0,L|36:12,1,103.500001974106,2|2,0:0|0:0,0:0:0:0:
35,20,42295,1,0,0:0:0:0:
35,20,42383,1,8,0:0:0:0:
344,120,42560,6,0,B|272:116|272:116|208:140|208:140|120:136,1,207.000003948212,4|2,0:0|0:0,0:0:0:0:
400,348,43089,2,0,P|432:302|404:199,1,155.250002961159,8|0,0:0|0:0,0:0:0:0:
388,192,43442,2,0,L|276:204,1,103.500001974106,2|2,0:0|0:0,0:0:0:0:
96,224,43795,1,8,0:0:0:0:
228,372,43972,6,0,L|340:384,1,103.500001974106,4|0,0:0|0:0,0:0:0:0:
412,96,44325,2,0,L|309:107,1,103.500001974106,2|8,0:0|0:0,0:0:0:0:
104,344,44678,1,0,0:0:0:0:
104,344,44766,1,0,0:0:0:0:
104,344,44854,2,0,L|216:356,1,103.500001974106,6|2,0:0|0:0,0:0:0:0:
424,364,45207,6,0,L|488:352,1,51.7500009870529,8|0,0:0|0:0,0:0:0:0:
424,200,45383,2,0,L|360:188,1,51.7500009870529
268,244,45560,6,0,P|220:232|156:240,1,103.500001974106,6|2,0:0|0:0,0:0:0:0:
108,284,45825,1,0,0:0:0:0:
36,272,45913,2,0,P|4:232|36:112,1,155.250002961159,8|0,0:0|0:0,0:0:0:0:
68,88,46266,2,0,L|208:100,1,103.500001974106,2|2,0:0|0:0,0:0:0:0:
424,200,46619,1,8,0:0:0:0:
372,96,46795,6,0,P|328:140|348:284,1,207.000003948212,2|2,0:0|0:0,0:0:0:0:
339,274,47236,1,0,0:0:0:0:
339,274,47325,1,8,0:0:0:0:
400,72,47501,6,0,L|208:56,1,175.499991966248,8|0,0:0|0:0,0:0:0:0:
193,157,47854,2,0,L|18:171,1,175.499991966248,8|0,0:0|0:0,0:0:0:0:
225,57,48207,6,0,P|277:97|245:253,1,233.999989288331,4|2,0:0|0:0,0:0:0:0:
252,340,48648,5,0,0:0:0:0:
168,304,48736,2,0,P|152:256|160:192,1,103.500001974106,8|0,0:0|0:0,0:0:0:0:
400,72,49089,2,0,P|416:120|408:184,1,103.500001974106,2|2,0:0|0:0,0:0:0:0:
240,244,49442,1,8,0:0:0:0:
400,72,49619,5,8,0:0:0:0:
472,280,49795,1,0,0:0:0:0:
468,304,49883,1,0,0:0:0:0:
464,328,49972,2,0,L|404:320,1,51.7500009870529,10|0,0:0|0:0,0:0:0:0:
240,244,50148,5,0,0:0:0:0:
236,220,50236,1,0,0:0:0:0:
232,196,50325,2,0,L|336:176,1,67.5000025749208,10|0,0:0|0:0,0:0:0:0:
484,192,50501,1,0,0:0:0:0:
256,348,50678,6,0,P|253:306|244:268,1,76.5000014591217,8|0,0:0|0:0,0:0:0:0:
160,96,50854,2,0,P|169:56|171:20,1,76.5000014591217,4|0,0:3|0:0,0:0:0:0:
240,244,51031,6,0,P|179:286|70:215,1,202.500007724762,6|0,2:1|0:0,0:0:0:0:
68,200,51383,1,2,0:0:0:0:
320,204,51560,2,0,P|324:272|288:328,1,103.500001974106,8|0,0:0|0:0,0:0:0:0:
76,320,51913,2,0,P|132:282|199:285,1,103.500001974106,2|2,0:0|0:0,0:0:0:0:
272,376,52266,1,8,0:0:0:0:
16,264,52442,6,0,B|8:184|8:184|24:132|24:132|12:36,1,207.000003948212,6|2,0:0|0:0,0:0:0:0:
15,60,52883,1,0,0:0:0:0:
15,60,52972,1,8,0:0:0:0:
128,200,53148,1,0,0:0:0:0:
236,96,53325,2,0,L|244:160,1,51.7500009870529,2|0,0:0|0:0,0:0:0:0:
320,204,53501,1,2,0:0:0:0:
432,132,53678,1,8,0:0:0:0:
460,336,53854,6,0,P|420:300|268:312,1,207.000003948212,6|2,0:0|0:0,0:0:0:0:
48,160,54383,2,0,P|88:124|196:136,1,155.250002961159,8|0,0:0|0:0,0:0:0:0:
216,164,54736,2,0,L|208:272,1,103.500001974106,2|2,0:0|0:0,0:0:0:0:
200,364,55089,1,8,0:0:0:0:
84,240,55266,6,0,L|76:348,1,103.500001974106,6|0,0:0|0:0,0:0:0:0:
336,224,55619,2,0,L|328:332,1,103.500001974106,2|8,0:0|0:0,0:0:0:0:
176,80,55972,1,0,0:0:0:0:
176,80,56060,1,0,0:0:0:0:
176,80,56148,2,0,L|168:188,1,103.500001974106,6|2,0:0|0:0,0:0:0:0:
428,184,56501,1,8,0:0:0:0:
400,148,56589,1,0,0:0:0:0:
356,128,56678,1,0,0:0:0:0:
308,128,56766,1,0,0:0:0:0:
272,156,56854,6,0,P|228:172|132:144,1,103.500001974106,6|2,0:0|0:0,0:0:0:0:
112,124,57119,1,0,0:0:0:0:
40,128,57207,2,0,P|12:176|32:284,1,155.250002961159,8|0,0:0|0:0,0:0:0:0:
88,324,57560,1,2,0:0:0:0:
264,264,57736,1,2,0:0:0:0:
124,140,57913,1,8,0:0:0:0:
184,316,58089,6,0,P|252:300|384:364,1,207.000003948212,6|2,0:0|0:0,0:0:0:0:
404,344,58531,1,0,0:0:0:0:
432,336,58619,1,8,0:0:0:0:
464,140,58795,6,0,B|408:112|340:156|340:156|372:100,1,175.499991966248,8|0,0:0|0:0,0:0:0:0:
376,92,59148,2,0,P|400:152|300:248,1,175.499991966248,8|0,0:0|0:0,0:0:0:0:
120,196,59501,6,0,P|164:140|332:180,1,233.999989288331,4|0,0:0|0:0,0:0:0:0:
324,240,59942,5,0,0:0:0:0:
244,208,60031,2,0,P|224:152|300:68,1,155.250002961159,8|0,0:0|0:0,0:0:0:0:
316,64,60383,2,0,L|448:96,1,103.500001974106,2|2,0:0|0:0,0:0:0:0:
496,192,60736,1,8,0:0:0:0:
332,340,60913,1,4,0:0:0:0:
140,280,61089,5,0,0:0:0:0:
140,280,61178,1,0,0:0:0:0:
140,280,61266,2,0,L|220:264,1,51.7500009870529,8|0,0:0|0:0,0:0:0:0:
374,229,61442,2,0,L|294:245,1,51.7500009870529
216,168,61619,6,0,P|212:120|232:64,1,67.5000025749208,10|0,0:0|0:0,0:0:0:0:
268,316,61795,2,0,P|272:364|252:420,1,67.5000025749208,2|0,0:0|0:0,0:0:0:0:
48,216,61972,6,0,P|83:197|123:200,1,80.9999975280763,10|0,0:0|0:0,0:0:0:0:
298,244,62148,2,0,P|337:246|373:228,1,80.9999975280763,2|0,0:0|0:0,0:0:0:0:
508,112,62325,2,0,P|472:93|432:95,1,80.9999975280763,2|0,0:0|0:0,0:0:0:0:
341,181,62501,6,0,P|313:86|360:0,1,202.500007724762,4|0,0:0|0:0,0:0:0:0:
459,183,62854,2,0,P|463:234|448:284,1,103.500001974106,8|0,0:0|0:0,0:0:0:0:
216,168,63207,1,10,0:0:0:0:
216,168,63295,1,0,0:0:0:0:
216,168,63383,1,2,0:0:0:0:
192,352,63560,1,8,0:0:0:0:
320,240,63736,1,2,0:0:0:0:
128,172,63913,5,8,0:0:0:0:
224,380,64089,1,2,0:0:0:0:
272,104,64266,1,8,0:0:0:0:
224,380,64442,1,0,0:0:0:0:
48,216,64619,5,10,0:0:0:0:
336,260,64795,1,2,0:0:0:0:
120,360,64972,1,8,0:0:0:0:
48,124,65148,1,2,0:0:0:0:
368,228,65325,5,8,0:0:0:0:
176,304,65501,1,2,0:0:0:0:
440,280,65678,1,8,0:0:0:0:
136,228,65854,1,0,0:0:0:0:
400,116,66031,5,10,0:0:0:0:
400,116,66119,1,0,0:0:0:0:
400,116,66207,1,2,0:0:0:0:
304,336,66383,1,8,0:0:0:0:
180,56,66560,6,0,L|196:184,1,103.500001974106,2|8,0:0|0:0,0:0:0:0:
355,330,66913,2,0,L|367:227,1,103.500001974106,2|8,0:0|0:0,0:0:0:0:
296,76,67266,1,0,0:0:0:0:
76,332,67442,5,8,0:0:0:0:
112,360,67531,1,0,0:0:0:0:
156,368,67619,1,4,0:3:0:0:
204,364,67707,1,4,0:3:0:0:
248,344,67795,6,0,L|260:232,1,80.9999975280763,8|0,0:0|0:0,0:0:0:0:
134,117,67972,2,0,L|122:229,1,80.9999975280763,4|4,0:3|0:3,0:0:0:0:
76,332,68148,6,0,P|24:276|96:108,1,233.999989288331,4|8,0:0|0:0,0:0:0:0:
212,256,68678,1,0,0:0:0:0:
296,76,68854,5,8,0:0:0:0:
128,192,69031,1,0,0:0:0:0:
312,292,69207,1,10,0:0:0:0:
44,252,69383,1,0,0:0:0:0:
356,200,69560,5,8,0:0:0:0:
128,328,69736,1,2,0:0:0:0:
208,120,69913,1,8,0:0:0:0:
312,380,70090,1,0,0:0:0:0:
196,248,70266,5,10,0:0:0:0:
304,40,70442,1,0,0:0:0:0:
464,208,70619,5,10,0:0:0:0:
208,120,70795,1,0,0:0:0:0:
244,384,70972,1,8,0:0:0:0:
76,228,72207,5,0,0:0:0:0:
144,164,72383,1,0,0:0:0:0:
224,212,72560,1,0,0:0:0:0:
256,228,72648,1,0,0:0:0:0:
292,236,72736,1,0,0:0:0:0:
328,232,72825,1,0,0:0:0:0:
360,220,72913,1,0,0:0:0:0:
388,196,73001,1,0,0:0:0:0:
404,164,73089,6,0,P|372:152|320:156,1,67.5000025749208,8|0,0:0|0:0,0:0:0:0:
336,356,73266,1,8,0:0:0:0:
336,356,73619,6,0,P|280:312|116:344,1,202.500007724762,4|0,0:0|0:0,0:0:0:0:
128,344,73972,1,2,0:0:0:0:
84,108,74148,1,8,0:0:0:0:
188,256,74325,1,0,0:0:0:0:
192,68,74501,1,2,0:0:0:0:
124,320,74678,1,2,0:0:0:0:
336,248,74854,1,8,0:0:0:0:
72,156,75031,6,0,B|148:144|148:144|216:160|216:160|324:140,1,207.000003948212,6|2,0:0|0:0,0:0:0:0:
496,104,75560,2,0,L|372:84,1,103.500001974106,8|0,0:0|0:0,0:0:0:0:
275,149,75913,1,2,0:0:0:0:
452,236,76089,1,2,0:0:0:0:
232,264,76266,1,8,0:0:0:0:
464,128,76442,6,0,P|404:148|280:64,1,207.000003948212,6|2,0:0|0:0,0:0:0:0:
20,144,76972,2,0,L|196:132,1,155.250002961159,8|0,0:0|0:0,0:0:0:0:
204,132,77325,2,0,P|224:180|200:260,1,103.500001974106,2|2,0:0|0:0,0:0:0:0:
108,360,77678,1,8,0:0:0:0:
32,200,77854,6,0,L|140:192,1,103.500001974106,6|0,0:0|0:0,0:0:0:0:
352,360,78207,2,0,L|243:352,1,103.500001974106,2|8,0:0|0:0,0:0:0:0:
296,64,78560,1,0,0:0:0:0:
296,64,78648,1,0,0:0:0:0:
296,64,78736,2,0,L|303:172,1,103.500001974106,6|2,0:0|0:0,0:0:0:0:
144,324,79089,2,0,L|132:264,1,51.7500009870529,8|0,0:0|0:0,0:0:0:0:
193,182,79266,2,0,L|205:122,1,51.7500009870529,2|0,0:0|0:0,0:0:0:0:
124,68,79442,6,0,P|72:76|16:56,1,103.500001974106,6|2,0:0|0:0,0:0:0:0:
24,61,79707,1,0,0:0:0:0:
24,61,79795,1,8,0:0:0:0:
116,196,79972,2,0,P|168:176|300:244,1,207.000003948212,2|2,0:0|0:0,0:0:0:0:
324,344,80501,1,8,0:0:0:0:
408,128,80678,6,0,P|356:108|224:176,1,207.000003948212,2|2,0:0|0:0,0:0:0:0:
184,320,81207,1,8,0:0:0:0:
32,156,81383,6,0,P|72:112|184:132,1,175.499991966248,8|0,0:0|0:0,0:0:0:0:
136,152,81736,6,0,P|180:164|284:128,1,135,4|0,0:0|0:0,0:0:0:0:
210,88,82089,6,0,P|286:56|410:132,1,233.999989288331,4|0,0:0|0:0,0:0:0:0:
408,212,82531,5,0,0:0:0:0:
339,262,82619,2,0,P|323:213|336:164,1,103.500001974106,8|0,0:0|0:0,0:0:0:0:
420,328,82972,1,2,0:0:0:0:
232,368,83148,1,2,0:0:0:0:
264,143,83325,1,8,0:0:0:0:
464,252,83501,6,0,P|389:237|324:276,1,155.250002961159,4|0,0:0|0:0,0:0:0:0:
272,344,83854,1,8,0:0:0:0:
240,340,83942,1,0,0:0:0:0:
208,336,84031,2,0,L|152:344,1,51.7500009870529
24,292,84207,2,0,L|80:300,1,51.7500009870529,8|0,0:0|0:0,0:0:0:0:
192,220,84383,5,0,0:0:0:0:
64,124,84560,2,0,L|56:12,1,103.500001974106,12|0,0:0|0:0,0:0:0:0:
192,220,84913,1,0,0:0:0:0:
272,124,85089,5,4,0:0:0:0:
372,144,85442,1,0,0:0:0:0:
336,48,85795,5,8,0:0:0:0:
304,224,85972,1,8,0:0:0:0:
304,224,86060,1,0,0:0:0:0:
304,224,86148,1,8,0:0:0:0:
476,172,86325,5,4,0:0:0:0:
372,144,86501,1,8,0:3:0:0:
372,144,86589,1,8,0:3:0:0:
372,144,86678,1,4,0:3:0:0:
388,320,86854,6,0,L|400:248,1,51.7500009870529
220,172,87031,2,0,L|208:244,1,51.7500009870529,4|0,0:0|0:0,0:0:0:0:
256,360,87207,1,0,0:0:0:0:
48,228,87383,5,4,0:0:0:0:
16,164,87472,1,0,0:0:0:0:
28,92,87560,1,0,0:0:0:0:
76,40,87648,1,0,0:0:0:0:
144,20,87736,1,4,0:0:0:0:
