osu file format v11

[General]
AudioFilename: Minecraft Style.mp3
AudioLeadIn: 0
PreviewTime: -1
Countdown: 1
SampleSet: Normal
StackLeniency: 0.7
Mode: 0
LetterboxInBreaks: 1

[Editor]
DistanceSpacing: 1
BeatDivisor: 4
GridSize: 16

[Metadata]
Title:Minecraft Style
TitleUnicode:Minecraft Style
Artist:TryHardNinja
ArtistUnicode:TryHardNinja
Creator:Shockboy4
Version:Easy Style
Source:
Tags:
BeatmapID:202061
BeatmapSetID:70281

[Difficulty]
HPDrainRate:3
CircleSize:3
OverallDifficulty:5
ApproachRate:5
SliderMultiplier:1.6
SliderTickRate:1

[Events]
//Background and Video events
Video,0,"Minecraft Style - A Parody of PSYs Gangnam Style (Music Video)[freemp3x.com].flv"
0,0,"Minecraft Style Photo.jpg"
//Break Periods
//Storyboard Layer 0 (Background)
//Storyboard Layer 1 (Fail)
//Storyboard Layer 2 (Pass)
//Storyboard Layer 3 (Foreground)
//Storyboard Sound Samples
//Background Colour Transformations
3,100,163,162,255

[TimingPoints]
2236,454.545454545454,4,1,0,100,1,0
16781,-100,4,1,0,80,0,0
16881,-100,4,1,0,84,0,0
16881,-100,4,1,0,80,0,1
32690,-100,4,1,0,82,0,0
71326,-100,4,1,0,90,0,1
100417,-100,4,1,0,80,0,0
114963,-100,4,1,0,84,0,0
153145,-100,4,1,0,80,0,1
182235,-100,4,1,0,80,0,0
200417,-100,4,1,0,100,0,1
216781,-100,4,1,0,80,0,0

[HitObjects]
192,144,16781,1,0,0:0:0
188,72,17008,1,0,0:0:0
256,80,17235,1,0,0:0:0
256,80,17690,1,0,0:0:0
192,144,18145,1,0,0:0:0
192,288,18599,2,0,P|368:256|352:144,1,320
336,160,19963,6,0,P|192:48|240:192|32:32,1,320
32,112,21326,1,0,0:0:0
112,160,21781,1,0,0:0:0
32,224,22235,6,0,P|160:304|256:192,1,320
256,192,23599,12,0,25417,0:0:0
96,144,25872,5,0,0:0:0
304,96,26326,1,0,0:0:0
208,224,26781,1,0,0:0:0
176,64,27235,1,0,0:0:0
192,144,27690,1,0,0:0:0
128,256,28145,2,0,P|304:240|336:112|336:128,1,240
327,140,29054,1,0,0:0:0
176,144,29508,2,0,P|336:64|464:144,1,320
449,123,30645,1,0,0:0:0
449,123,30872,1,0,0:0:0
449,123,31099,1,0,0:0:0
449,123,31326,1,0,0:0:0
304,272,33145,6,0,P|288:96|64:336|160:80|16:144,1,320
48,272,34508,1,0,0:0:0
192,144,34963,1,0,0:0:0
160,272,35417,1,0,0:0:0
64,176,35872,1,0,0:0:0
272,224,36326,1,0,0:0:0
160,96,36781,2,0,P|352:112|336:112,1,160
256,192,37690,12,0,44054,0:0:0
80,144,47690,6,0,P|256:112|112:256,1,480
192,160,49508,1,0,0:0:0
272,256,49963,2,0,P|112:208|304:96,1,480
256,192,52008,1,2,0:0:0
336,96,52463,6,0,P|432:352,1,240
208,224,53826,1,2,0:0:0
80,160,54508,6,2,P|176:112,1,80
160,192,54963,2,2,P|320:112|448:224|336:288,1,320
432,224,56326,2,2,P|336:272,1,80
352,192,56781,2,2,P|192:272|64:160|176:96,1,320
352,112,58145,5,0,0:0:0
240,80,58599,1,0,0:0:0
272,176,59054,2,0,P|224:336,1,160
48,176,59963,1,0,0:0:0
112,256,60417,1,0,0:0:0
128,176,60872,2,0,P|256:64,1,160
80,128,62235,2,0,P|256:80|368:160,2,320
160,208,64508,2,0,P|224:160|272:208,2,160
176,272,65872,2,0,P|256:272,3,80
192,336,66781,2,0,P|240:336,8,40
256,192,71326,1,4,0:0:0
