osu file format v11

[General]
AudioFilename: SOUTH MANSION _ LapFox Trax_2.MP3
AudioLeadIn: 0
PreviewTime: 163867
Countdown: 0
SampleSet: Normal
StackLeniency: 0.7
Mode: 0
LetterboxInBreaks: 0

[Editor]
Bookmarks: 23380,35087,46794,58501,70209,93623,105331,117038,128745,140453,163867,175575,187282,198989,210697
DistanceSpacing: 1
BeatDivisor: 4
GridSize: 4

[Metadata]
Title:Sento Nel Core
TitleUnicode:Sento Nel Core
Artist:Truxton
ArtistUnicode:Truxton
Creator:inverness
Version:Normal
Source:
Tags:south mansion mashup lapfox trax renard
BeatmapID:212020
BeatmapSetID:74549

[Difficulty]
HPDrainRate:3
CircleSize:4
OverallDifficulty:3
ApproachRate:4
SliderMultiplier:0.9
SliderTickRate:1

[Events]
//Background and Video events
0,0,"5e1cfd859b189901523136c201ae8bf9.jpg"
//Break Periods
2,70409,92152
2,140653,162547
//Storyboard Layer 0 (Background)
//Storyboard Layer 1 (Fail)
//Storyboard Layer 2 (Pass)
//Storyboard Layer 3 (Foreground)
//Storyboard Sound Samples
//Background Colour Transformations
3,100,163,162,255

[TimingPoints]
23380,365.853658536585,4,1,1,60,1,0
23380,-100,4,1,3,60,0,1
23471,-100,4,1,3,60,0,0
27404,-100,4,1,2,60,0,0
27495,-100,4,1,3,60,0,0
33258,-100,4,1,2,60,0,0
33349,-100,4,1,3,60,0,0
42038,-100,4,1,2,60,0,0
42130,-100,4,1,3,60,0,0
44965,-100,4,1,2,60,0,0
45056,-100,4,1,3,60,0,0
46428,-100,4,1,1,60,0,0
46520,-100,4,1,3,60,0,0
53745,-100,4,1,2,60,0,0
53837,-100,4,1,3,60,0,0
56672,-100,4,1,2,60,0,0
56764,-100,4,1,3,60,0,0
65453,-100,4,1,2,60,0,0
65544,-100,4,1,3,60,0,0
67648,-100,4,1,2,60,0,0
70209,-100,4,1,3,60,0,0
98380,-100,4,1,2,60,0,0
98471,-100,4,1,3,60,0,0
104233,-100,4,1,2,60,0,0
104325,-100,4,1,3,60,0,0
106428,-100,4,1,2,60,0,0
106520,-100,4,1,3,60,0,0
112282,-100,4,1,2,60,0,0
112373,-100,4,1,3,60,0,0
116672,-133.333333333333,4,1,1,60,0,0
117038,-133.333333333333,4,1,3,60,0,0
118867,-133.333333333333,4,1,2,60,0,0
118959,-133.333333333333,4,1,3,60,0,0
124721,-133.333333333333,4,1,2,60,0,0
124812,-133.333333333333,4,1,1,60,0,0
127648,-133.333333333333,4,1,2,60,0,0
128745,-100,4,1,3,60,0,0
136428,-100,4,1,2,60,0,0
136520,-100,4,1,3,60,0,0
163867,-100,4,1,3,60,0,1
167892,-100,4,1,2,60,0,1
167983,-100,4,1,3,60,0,1
173745,-100,4,1,2,60,0,1
173837,-100,4,1,3,60,0,1
182526,-100,4,1,2,60,0,1
182617,-100,4,1,3,60,0,1
185453,-100,4,1,2,60,0,1
185544,-100,4,1,3,60,0,1
187190,-100,4,1,3,60,0,0
187282,-133.333333333333,4,1,3,60,0,1
187373,-133.333333333333,4,1,3,60,0,0
189111,-133.333333333333,4,1,2,60,0,0
189203,-133.333333333333,4,1,3,60,0,0
191306,-133.333333333333,4,1,2,60,0,0
192130,-133.333333333333,4,1,3,60,0,0
194965,-133.333333333333,4,1,2,60,0,0
195056,-133.333333333333,4,1,3,60,0,0
197160,-133.333333333333,4,1,2,60,0,0
197251,-133.333333333333,4,1,3,60,0,0
198989,-100,4,1,3,60,0,1
199081,-100,4,1,3,60,0,0
206672,-100,4,1,2,60,0,0
206764,-100,4,1,3,60,0,0

[Colours]
Combo1 : 143,175,171
Combo2 : 100,130,219
Combo3 : 51,177,199
Combo4 : 255,156,108

[HitObjects]
56,228,23379,2,0,P|101:294|209:289,1,180,4|8,0:0|0:0,0:0:0
238,218,24477,2,0,P|281:262|284:301,1,90,0|2,0:0|2:0,0:0:0
372,260,25209,2,0,P|372:320|353:354,2,90,0|8|0,0:0|0:0|0:0,0:0:0
344,176,26306,6,0,P|336:96|424:52,2,180,0|8|2,0:0|0:0|2:0,0:0:0
256,196,28136,1,0,0:0:0
172,228,28501,2,0,P|140:288|143:325,1,90,8|0,0:0|0:0,0:0:0
52,325,29233,6,0,P|62:229|120:154,1,180,0|8,0:0|0:0,0:0:0
196,140,30331,2,0,P|176:100|136:76,2,90,0|2|0,0:0|2:0|0:0,0:0:0
212,228,31428,1,8,0:0:0
284,284,31794,1,0,0:0:0
348,228,32160,6,0,P|436:196|504:240,2,180,0|8|2,0:0|0:0|2:0,0:0:0
284,284,33989,2,0,P|260:240|264:192,1,90,0|8,0:0|0:0,0:0:0
360,52,35087,6,0,P|272:84|196:40,1,180,4|8,0:0|0:0,0:0:0
112,48,36184,1,0,0:0:0
60,120,36550,1,2,2:0:0
88,204,36916,2,0,P|28:204|-8:176,2,90,0|8|0,0:0|0:0|0:0,0:0:0
176,192,38014,6,0,P|248:184|348:248,1,180,0|8,0:0|0:0,0:0:0
388,312,39111,2,0,P|424:276|428:224,1,90,0|2,0:0|2:0,0:0:0
400,152,39843,2,0,P|406:114|442:78,2,90,0|8|0,0:0|0:0|0:0,0:0:0
312,156,40940,6,0,P|328:76|408:0,2,180,0|8|2,0:0|0:0|2:0,0:0:0
340,240,42770,2,0,P|276:240|244:216,1,90,0|8,0:0|0:0,0:0:0
184,168,43501,1,0,0:0:0
184,76,43867,6,0,P|108:116|104:212,2,180,0|8|2,0:0|0:0|2:0,0:0:0
184,168,45697,1,0,0:0:0
184,260,46062,2,0,P|260:220|264:124,1,180,8|4,0:0|0:0,0:0:0
428,48,47526,5,8,0:0:0
384,224,48258,2,0,P|329:241|301:276,1,90,2|0,2:0|0:0,0:0:0
306,348,48989,2,0,P|330:306|307:261|307:261|253:266|228:228,1,180,8|0,0:0|0:0,0:0:0
188,148,50087,5,2,2:0:0
228,68,50453,1,8,0:0:0
124,216,51184,2,0,P|96:161|104:121,2,90,2|0|8,2:0|0:0|0:0,0:0:0
192,272,52282,1,2,2:0:0
280,264,52648,6,0,P|368:256|368:256|460:316,2,180,0|8|2,0:0|0:0|2:0,0:0:0
240,184,54477,2,0,P|345:174,2,90,0|8|0,0:0|0:0|0:0,0:0:0
168,244,55575,6,0,P|148:180|216:92,2,180,0|8|2,0:0|0:0|2:0,0:0:0
100,304,57404,2,0,P|68:244|60:208,2,90,0|8|0,0:0|0:0|0:0,0:0:0
184,340,58501,6,0,P|276:372|276:312|380:348,1,180,4|8,0:0|0:0,0:0:0
412,268,59599,2,0,P|352:248|312:248,1,90,0|2,0:0|2:0,0:0:0
236,256,60331,1,0,0:0:0
148,248,60697,2,0,P|121:249|61:269,1,90,0|2,0:0|2:0,0:0:0
40,184,61428,6,0,P|84:164|124:160|124:160|124:56,1,180,0|8,0:0|0:0,0:0:0
212,48,62526,2,0,P|212:144,2,90,0|2|0,0:0|2:0|0:0,0:0:0
300,40,63623,1,8,0:0:0
384,72,63989,1,0,0:0:0
432,148,64355,6,0,P|388:216|432:300,2,180,0|8|2,0:0|0:0|2:0,0:0:0
384,72,66184,2,0,P|336:116|316:152,1,90,0|8,0:0|0:0,0:0:0
300,224,66916,1,0,0:0:0
316,312,67282,6,0,P|248:300|216:196,2,180,0|8|0,0:0|0:0|0:0,0:0:0
396,272,69111,1,0,0:0:0
396,184,69477,1,8,0:0:0
428,100,69843,1,8,0:0:0
496,40,70209,1,4,0:0:0
84,60,93623,6,0,P|156:108|152:200,1,180,4|8,0:0|0:0,0:0:0
120,276,94721,1,0,0:0:0
204,304,95087,1,2,2:0:0
276,252,95453,2,0,P|332:244|368:264,2,90,0|8|0,0:0|0:0|0:0,0:0:0
240,168,96550,6,0,P|328:156|420:188,1,180,0|8,0:0|0:0,0:0:0
240,168,98014,2,0,P|185:97|167:2,1,180,2|8,2:0|0:0,0:0:0
240,168,99477,6,0,P|206:251|132:314,1,180,0|8,0:0|0:0,0:0:0
52,332,100575,2,0,P|52:280|80:240,2,90,0|2|0,0:0|2:0|0:0,0:0:0
140,310,101672,1,8,0:0:0
228,332,102038,1,0,0:0:0
316,304,102404,6,0,P|356:208|312:152,1,180,0|8,0:0|0:0,0:0:0
136,156,103867,2,0,P|199:238|269:228,1,180,2|8,2:0|0:0,0:0:0
356,76,105331,6,0,P|252:89|226:155,2,180,0|8|2,0:0|0:0|2:0,0:0:0
316,156,107160,1,0,0:0:0
272,236,107526,1,8,0:0:0
292,324,107892,1,0,0:0:0
208,296,108258,6,0,P|148:300|116:324,2,90,0|2|8,0:0|2:0|0:0,0:0:0
356,192,109721,2,0,P|416:188|448:164,2,90,2|0|8,2:0|0:0|0:0,0:0:0
212,80,111184,6,0,P|124:72|48:136,2,180,0|8|2,0:0|0:0|2:0,0:0:0
288,132,113014,2,0,P|304:96|296:44,2,90,0|8|0,0:0|0:0|0:0,0:0:0
224,196,114111,5,0,0:0:0
136,176,114477,1,2,2:0:0
48,200,114843,1,8,0:0:0
224,196,115575,1,2,2:0:0
312,216,115940,1,0,0:0:0
400,192,116306,2,0,P|404:292|472:340,1,180,8|4,0:0|0:0,0:0:0
462,338,117770,5,8,0:0:0
336,288,118501,2,0,P|268:276|200:300,1,135.000005149842,2|8,2:0|0:0,0:0:0
76,332,119965,2,0,P|116:248|100:200,1,135.000005149842,0|8,0:0|0:0,0:0:0
56,88,121428,1,2,2:0:0
56,88,121794,1,0,0:0:0
56,88,122160,2,0,P|120:108|120:64|192:84,1,135.000005149842,8|0,0:0|0:0,0:0:0
256,200,123623,5,8,0:0:0
304,324,124355,2,0,P|368:300|404:244,2,135.000005149842,2|8|0,2:0|0:0|0:0,0:0:0
172,288,126550,1,8,0:0:0
72,196,127282,2,0,P|80:128|35:72,2,135.000005149842,2|8|4,2:0|0:0|0:0,0:0:0
72,196,129477,5,8,0:0:0
236,124,130209,2,0,P|293:120|332:142,1,90,2|0,2:0|0:0,0:0:0
353,211,130940,2,0,P|315:180|320:133|320:133|373:115|384:53,1,180,8|0,0:0|0:0,0:0:0
292,44,132038,5,2,2:0:0
204,52,132404,1,8,0:0:0
104,196,133136,2,0,P|112:252|100:296,1,90,2|0,2:0|0:0,0:0:0
184,324,133867,2,0,P|200:236|176:140,1,180,8|0,0:0|0:0,0:0:0
272,148,134965,5,2,2:0:0
356,112,135331,1,8,0:0:0
364,24,135697,1,0,0:0:0
436,76,136062,2,0,P|456:124|424:172|424:172|424:268,1,180,2|8,2:0|0:0,0:0:0
424,340,137160,1,2,2:0:0
340,312,137526,6,0,P|288:304|248:324,1,90
232,232,138258,2,0,P|187:259|169:300,1,90,8|0,0:0|0:0,0:0:0
96,244,138989,2,0,P|84:296|91:336,2,90,0|0|8,0:0|0:0|0:0,0:0:0
148,172,140087,1,8,0:0:0
148,84,140453,1,4,0:0:0
60,152,163867,6,0,P|152:172|220:108,1,180,4|8,0:0|0:0,0:0:0
216,32,164965,2,0,P|264:44|296:84,1,90,0|2,0:0|2:0,0:0:0
292,164,165697,1,0,0:0:0
244,240,166062,2,0,P|292:256|344:240,1,90,8|0,0:0|0:0,0:0:0
380,172,166794,6,0,P|422:240|369:329,2,180,0|8|2,0:0|0:0|2:0,0:0:0
300,132,168623,1,0,0:0:0
224,180,168989,1,8,0:0:0
140,152,169355,1,0,0:0:0
120,64,169721,6,0,P|72:96|84:220,1,180,0|8,0:0|0:0,0:0:0
156,244,170819,2,0,P|120:288|80:292,2,90,0|2|0,0:0|2:0|0:0,0:0:0
176,156,171916,1,8,0:0:0
232,84,172282,1,0,0:0:0
312,40,172648,6,0,P|344:128|272:128|312:228,2,180,0|8|2,0:0|0:0|2:0,0:0:0
400,20,174477,2,0,P|416:72|408:120,2,90,0|8|0,0:0|0:0|0:0,0:0:0
312,40,175575,6,0,P|224:60|224:60|136:28,1,180,4|8,0:0|0:0,0:0:0
100,108,176672,2,0,P|196:144,1,90,0|2,0:0|2:0,0:0:0
124,208,177404,2,0,P|220:244,2,90,0|8|0,0:0|0:0|0:0,0:0:0
40,176,178501,6,0,P|24:228|56:272|56:272|56:356,1,180,0|8,0:0|0:0,0:0:0
144,368,179599,2,0,P|144:272,1,90,0|2,0:0|2:0,0:0:0
176,192,180331,1,0,0:0:0
240,128,180697,2,0,P|280:128|320:96,1,90,8|0,0:0|0:0,0:0:0
400,136,181428,6,0,P|372:180|336:200|336:200|336:288,2,180,0|8|2,0:0|0:0|2:0,0:0:0
412,48,183258,1,0,0:0:0
328,84,183623,1,8,0:0:0
256,32,183989,1,0,0:0:0
176,72,184355,6,0,P|148:156|52:164,2,180,0|8|2,0:0|0:0|2:0,0:0:0
256,32,186184,1,0,0:0:0
336,72,186550,2,0,P|364:156|460:164,1,180,8|4,0:0|0:0,0:0:0
445,171,188014,5,8,0:0:0
320,224,188745,2,0,P|275:285|279:341,1,135.000005149842,2|8,2:0|0:0,0:0:0
164,272,190209,1,0,0:0:0
192,140,190940,2,0,P|128:140|64:180,2,135.000005149842,8|2|8,0:0|2:0|0:0,0:0:0
292,232,193136,6,0,P|328:168|316:104,1,135.000005149842,0|8,0:0|0:0,0:0:0
144,68,194599,2,0,P|181:131|242:152,1,135.000005149842,2|8,2:0|0:0,0:0:0
360,24,196062,2,0,P|286:24|237:67,2,135.000005149842,0|8|2,0:0|0:0|2:0,0:0:0
424,60,197892,1,0,0:0:0
496,48,198258,1,8,0:0:0
428,192,198989,6,0,P|336:224|336:152|244:188,1,180,4|8,0:0|0:0,0:0:0
200,260,200087,2,0,P|168:220|164:176,1,90,0|2,0:0|2:0,0:0:0
76,200,200819,2,0,P|77:148|100:112,2,90,0|8|0,0:0|0:0|0:0,0:0:0
120,280,201916,6,0,P|204:268|276:340,1,180,4|8,0:0|0:0,0:0:0
360,344,203014,1,0,0:0:0
444,308,203379,1,2,2:0:0
468,220,203745,1,0,0:0:0
444,132,204111,1,8,0:0:0
360,96,204477,1,0,0:0:0
272,88,204843,6,0,P|216:152|112:144,1,180,4|8,0:0|0:0,0:0:0
240,296,206306,2,0,P|296:232|392:236,1,180,2|8,2:0|0:0,0:0:0
256,192,207770,12,4,210697,2:1:0
