osu file format v12

[General]
AudioFilename: SOUTH MANSION _ LapFox Trax_2.MP3
AudioLeadIn: 0
PreviewTime: 163867
Countdown: 0
SampleSet: Normal
StackLeniency: 0.7
Mode: 0
LetterboxInBreaks: 0

[Editor]
Bookmarks: 23380,35087,46794,58501,70209,93623,105331,117038,128745,140453,163867,175575,187282,198989,210697
DistanceSpacing: 1
BeatDivisor: 4
GridSize: 4

[Metadata]
Title:Sento Nel Core
TitleUnicode:Sento Nel Core
Artist:Truxton
ArtistUnicode:Truxton
Creator:inverness
Version:Hard
Source:
Tags:south mansion mashup lapfox trax renard
BeatmapID:212018
BeatmapSetID:74549

[Difficulty]
HPDrainRate:6
CircleSize:5
OverallDifficulty:6
ApproachRate:7
SliderMultiplier:1.5
SliderTickRate:1

[Events]
//Background and Video events
0,0,"5e1cfd859b189901523136c201ae8bf9.jpg",0,0
//Break Periods
2,70409,92723
2,140653,162967
//Storyboard Layer 0 (Background)
//Storyboard Layer 1 (Fail)
//Storyboard Layer 2 (Pass)
//Storyboard Layer 3 (Foreground)
//Storyboard Sound Samples
//Background Colour Transformations
3,100,163,162,255

[TimingPoints]
23380,365.853658536585,4,1,1,60,1,0
23380,-100,4,1,3,60,0,1
23471,-100,4,1,3,60,0,0
117038,-133.333333333333,4,1,1,60,0,0
128745,-100,4,1,1,60,0,0
163867,-100,4,1,3,60,0,1
187190,-100,4,1,3,60,0,0
187282,-133.333333333333,4,1,3,60,0,1
187373,-133.333333333333,4,1,3,60,0,0
198989,-100,4,1,1,60,0,1
199081,-100,4,1,1,60,0,0

[Colours]
Combo1 : 143,175,171
Combo2 : 100,130,219
Combo3 : 51,177,199
Combo4 : 255,156,108

[HitObjects]
56,324,23379,2,0,P|125:322|188:188,1,225,4|0,0:0|0:0,0:0:0:0:
135,145,24111,2,0,P|189:195|279:174,1,150,8|0,0:0|0:0,0:0:0:0:
316,28,24843,2,0,P|244:50|218:138,1,150,2|0,2:0|0:0,0:0:0:0:
328,244,25575,2,0,P|344:171|281:104,1,150,8|0,0:0|0:0,0:0:0:0:
128,64,26306,6,0,P|112:132|160:176|160:176|160:288,1,225
224,316,27038,2,0,P|160:280|76:280,1,150,8|0,0:0|0:0,0:0:0:0:
216,48,27770,2,0,P|280:12|355:9,2,150,2|0|8,2:0|0:0|0:0,0:0:0:0:
156,88,28684,2,0,P|144:40|164:-8,2,75,0|2|8,0:0|2:0|2:0,0:0:0:0:
188,156,29233,6,0,P|212:204|200:268|200:268|256:240|332:260,1,225
343,191,29965,2,0,P|311:283|343:331,1,150,8|0,0:0|0:0,0:0:0:0:
428,184,30697,2,0,P|364:110|306:114,1,150,2|0,2:0|0:0,0:0:0:0:
392,260,31428,2,0,P|487:241|513:190,1,150,8|0,0:0|0:0,0:0:0:0:
480,336,32160,6,0,P|416:356|348:328|348:328|240:328,1,225
184,328,32892,2,0,P|128:264|56:280,1,150,8|0,0:0|0:0,0:0:0:0:
256,252,33623,2,0,P|256:102,1,150,2|0,2:0|0:0,0:0:0:0:
328,328,34355,2,0,P|384:264|456:280,1,150,8|0,0:0|0:0,0:0:0:0:
404,336,34904,1,8,2:0:0:0:
264,280,35087,6,0,P|336:204|452:196,1,225,4|0,0:0|0:0,0:0:0:0:
476,264,35819,2,0,P|452:188|484:112,2,150,8|0|2,0:0|0:0|2:0,0:0:0:0:
348,340,36916,2,0,P|284:291|202:295,1,150,0|8,0:0|0:0,0:0:0:0:
148,328,37465,2,0,P|138:283|160:236,2,75,0|2|2,0:0|2:0|2:0,0:0:0:0:
76,360,38014,6,0,P|40:284|84:208|84:208|84:124,1,225,0|0,0:0|0:0,0:0:0:0:
20,108,38745,2,0,P|92:140|152:104,1,150,8|0,0:0|0:0,0:0:0:0:
324,48,39477,2,0,P|252:16|192:52,2,150,2|0|8,2:0|0:0|0:0,0:0:0:0:
392,148,40392,1,0,0:0:0:0:
396,26,40575,1,2,2:0:0:0:
321,123,40758,1,8,2:0:0:0:
438,88,40940,6,0,P|468:144|336:200,1,225
324,284,41672,2,0,P|400:300|480:272,1,150,8|0,0:0|0:0,0:0:0:0:
188,284,42404,2,0,P|112:300|32:272,2,150,2|0|8,2:0|0:0|0:0,0:0:0:0:
256,256,43319,2,0,P|256:172,2,75,0|2|2,0:0|2:0|2:0,0:0:0:0:
256,332,43867,5,0,0:0:0:0:
112,168,44233,2,0,P|64:148|20:156,2,75,2|0|8,2:0|0:0|0:0,0:0:0:0:
400,168,44965,2,0,P|448:148|492:156,2,75,0|0|2,0:0|2:0|2:0,0:0:0:0:
256,332,45697,5,0,0:0:0:0:
180,201,45880,1,2,2:0:0:0:
331,201,46062,1,8,0:0:0:0:
180,288,46245,1,0,0:0:0:0:
256,158,46428,1,2,2:0:0:0:
331,288,46611,1,8,2:0:0:0:
160,96,46794,6,0,P|256:44|360:112,1,225,4|0,0:0|0:0,0:0:0:0:
380,164,47526,2,0,P|420:124|392:32,1,150,8|0,0:0|0:0,0:0:0:0:
476,180,48258,2,0,P|456:212|420:232|420:232|420:324,2,150,2|0|8,2:0|0:0|0:0,0:0:0:0:
496,104,49172,1,0,0:0:0:0:
420,120,49355,2,0,P|376:164|276:128,1,150,2|0,2:0|0:0,0:0:0:0:
256,0,50087,6,0,P|316:16|334:120,1,150,2|8,2:0|0:0,0:0:0:0:
232,200,50819,2,0,P|215:139|297:71,2,150,0|2|0,0:0|2:0|0:0,0:0:0:0:
280,256,51733,2,0,P|372:264,1,75,2|8,2:0|0:0,0:0:0:0:
324,332,52099,2,0,P|416:340,1,75,0|2,0:0|2:0,0:0:0:0:
432,192,52648,6,0,P|444:272|528:292,2,150,0|2|8,0:0|2:0|0:0,0:0:0:0:
460,120,53562,1,2,2:0:0:0:
384,128,53745,2,0,P|356:160|352:200|352:200|248:200,1,150,0|2,0:0|2:0,0:0:0:0:
160,112,54477,2,0,P|188:80|192:40|192:40|296:40,1,150,0|8,0:0|0:0,0:0:0:0:
332,68,55026,2,0,P|336:28|316:-12,2,75,0|2|2,0:0|2:0|2:0,0:0:0:0:
312,140,55575,6,0,P|328:232|388:252,2,150,0|2|8,0:0|2:0|0:0,0:0:0:0:
380,176,56489,1,2,2:0:0:0:
360,328,56672,2,0,P|312:320|280:292|280:292|216:292,2,150,0|2|0,0:0|2:0|0:0,0:0:0:0:
436,324,57587,2,0,P|516:304,1,75,2|8,2:0|0:0,0:0:0:0:
432,248,57953,2,0,P|512:228,2,75,0|2|2,0:0|2:0|2:0,0:0:0:0:
356,252,58501,6,0,P|300:180|388:96,1,225,4|0,0:0|0:0,0:0:0:0:
340,24,59233,2,0,P|304:32|272:60|272:60|244:32|184:24,2,150,8|0|2,0:0|0:0|2:0,0:0:0:0:
208,112,60331,2,0,P|174:177|239:251,1,150,0|8,0:0|0:0,0:0:0:0:
250,175,60880,1,0,0:0:0:0:
116,104,61062,2,0,P|98:169|116:248,2,150,2|0|2,2:0|0:0|2:0,0:0:0:0:
168,48,61977,5,0,0:0:0:0:
244,60,62160,2,0,P|320:72|320:72|412:36,1,150,8|0,0:0|0:0,0:0:0:0:
476,168,62892,2,0,P|464:260|396:284,2,150,2|0|8,2:0|0:0|0:0,0:0:0:0:
412,128,63806,2,0,P|444:100|504:96,2,75,0|2|2,0:0|2:0|2:0,0:0:0:0:
376,196,64355,6,0,P|322:246|232:225,1,150,0|2,0:0|2:0,0:0:0:0:
195,79,65087,2,0,P|267:101|293:189,1,150,8|0,0:0|0:0,0:0:0:0:
183,295,65819,2,0,P|167:222|230:155,2,150,2|0|8,2:0|0:0|0:0,0:0:0:0:
256,312,66733,1,0,0:0:0:0:
332,324,66916,1,2,2:0:0:0:
404,336,67099,1,2,2:0:0:0:
476,352,67282,6,0,P|476:276|476:276|524:188,1,150,0|0,0:0|0:0,0:0:0:0:
456,72,68014,2,0,P|456:148|456:148|408:236,1,150,8|0,0:0|0:0,0:0:0:0:
124,268,68745,1,0,0:0:0:0:
388,116,69111,1,0,0:0:0:0:
180,60,69477,1,8,0:0:0:0:
332,324,69843,1,8,0:0:0:0:
256,192,70209,1,4,0:0:0:0:
168,72,93623,6,0,P|180:156,1,75,0|0,0:0|2:0,0:0:0:0:
244,76,93989,2,0,P|256:160,1,75,2|0,2:0|0:0,0:0:0:0:
220,216,94355,2,0,P|300:244|300:176|392:216,2,150,8|0|2,0:0|0:0|2:0,0:0:0:0:
148,196,95270,2,0,P|148:244|188:280,2,75,0|0|0,2:0|0:0|2:0,0:0:0:0:
72,184,95819,2,0,P|72:264|128:336,1,150,8|0,0:0|0:0,0:0:0:0:
256,348,96550,5,0,0:0:0:0:
268,272,96733,1,0,2:0:0:0:
336,240,96916,1,2,2:0:0:0:
408,256,97099,1,0,0:0:0:0:
456,316,97282,2,0,P|484:272|436:184,2,150,8|0|2,0:0|0:0|2:0,0:0:0:0:
384,328,98197,2,0,P|296:336,1,75,0|0,2:0|0:0,0:0:0:0:
356,256,98562,2,0,P|268:264,1,75,0|8,2:0|0:0,0:0:0:0:
328,184,98928,2,0,P|240:192,1,75,0|2,0:0|2:0,0:0:0:0:
104,196,99477,6,0,P|72:252|80:288,1,75,0|0,0:0|2:0,0:0:0:0:
148,260,99843,2,0,P|159:323|188:345,1,75,2|0,2:0|0:0,0:0:0:0:
220,280,100209,2,0,P|296:316|296:248|384:288,2,150,8|0|2,0:0|0:0|2:0,0:0:0:0:
260,216,101123,1,0,2:0:0:0:
296,152,101306,1,0,0:0:0:0:
336,88,101489,1,0,2:0:0:0:
376,24,101672,2,0,P|300:-12|300:56|212:16,1,150,8|0,0:0|0:0,0:0:0:0:
92,84,102404,6,0,P|34:160,1,75,0|0,0:0|2:0,0:0:0:0:
134,154,102770,2,0,P|76:230,1,75,2|0,2:0|0:0,0:0:0:0:
180,220,103136,2,0,P|122:296,1,75,8|0,0:0|2:0,0:0:0:0:
192,332,103501,2,0,P|256:300|324:332,1,150,0|2,0:0|2:0,0:0:0:0:
377,279,104050,2,0,P|332:220,1,75,0|0,2:0|0:0,0:0:0:0:
423,213,104416,2,0,P|378:154,1,75,2|8,2:0|0:0,0:0:0:0:
465,143,104782,2,0,P|420:84,1,75,0|2,0:0|2:0,0:0:0:0:
256,52,105331,5,0,0:0:0:0:
236,124,105514,1,0,2:0:0:0:
268,192,105697,1,2,2:0:0:0:
248,264,105879,1,0,0:0:0:0:
288,328,106062,2,0,P|212:364|212:296|124:336,2,150,8|0|2,0:0|0:0|2:0,0:0:0:0:
332,264,106977,2,0,P|356:296|360:352,2,75,0|0|0,2:0|0:0|2:0,0:0:0:0:
380,204,107526,2,0,P|424:264|436:356,1,150,8|0,0:0|0:0,0:0:0:0:
304,192,108258,6,0,P|332:144|376:132,1,75,0|0,0:0|2:0,0:0:0:0:
240,232,108623,2,0,P|230:177|256:132,1,75,2|0,2:0|0:0,0:0:0:0:
224,308,108989,2,0,P|184:296|168:260|168:260|80:260,2,150,8|0|2,0:0|0:0|2:0,0:0:0:0:
300,304,109904,1,0,2:0:0:0:
364,268,110087,1,0,0:0:0:0:
392,200,110270,1,0,2:0:0:0:
376,128,110453,2,0,P|432:136|456:164,2,75,8|0|2,0:0|0:0|2:0,0:0:0:0:
228,160,111184,6,0,P|172:152|148:124,1,75,0|0,0:0|2:0,0:0:0:0:
212,88,111550,2,8,P|174:45|173:8,1,75,2|0,2:0|0:0,0:0:0:0:
248,24,111916,2,0,P|324:-12|324:56|412:16,2,150,8|0|2,0:0|0:0|2:0,0:0:0:0:
212,88,112831,1,0,2:0:0:0:
228,160,113014,1,0,0:0:0:0:
204,232,113197,1,0,2:0:0:0:
216,308,113379,2,0,P|132:316|84:376,1,150,8|0,0:0|0:0,0:0:0:0:
284,344,114111,6,0,P|292:300|280:264,1,75,0|0,0:0|2:0,0:0:0:0:
356,256,114477,2,0,P|333:217|301:197,1,75,2|0,2:0|0:0,0:0:0:0:
332,128,114843,2,0,P|392:168|436:256,2,150,8|0|2,0:0|0:0|2:0,0:0:0:0:
256,132,115758,5,0,2:0:0:0:
129,161,115940,1,0,0:0:0:0:
216,254,116123,1,0,2:0:0:0:
183,110,116306,1,8,0:0:0:0:
145,232,116489,1,0,0:0:0:0:
270,203,116672,2,0,P|352:212|412:252,1,150,2|4,2:0|0:0,0:0:0:0:
407,247,117404,5,2,2:0:0:0:
407,247,117770,2,0,P|432:176|468:144,1,112.500004291535,8|0,0:0|0:0,0:0:0:0:
384,64,118501,1,2,2:0:0:0:
280,108,118867,2,0,P|212:112|160:72,1,112.500004291535,0|8,0:0|0:0,0:0:0:0:
140,48,119416,2,0,P|144:180,1,112.500004291535,0|2,0:0|2:0,0:0:0:0:
140,48,119965,5,0,0:0:0:0:
60,128,120331,1,2,2:0:0:0:
108,232,120697,2,0,P|28:224|-8:244,2,112.500004291535,8|0|2,0:0|0:0|2:0,0:0:0:0:
216,268,121794,2,0,P|296:276|332:256,1,112.500004291535,0|8,0:0|0:0,0:0:0:0:
364,224,122343,2,0,P|356:360,1,112.500004291535,0|2,0:0|2:0,0:0:0:0:
364,224,122892,5,0,0:0:0:0:
256,188,123258,1,2,2:0:0:0:
252,76,123623,2,0,P|320:80|360:60,1,112.500004291535,8|0,0:0|0:0,0:0:0:0:
452,124,124355,2,0,P|444:192|472:248,1,112.500004291535,2|0,2:0|0:0,0:0:0:0:
496,296,124904,1,2,2:0:0:0:
432,336,125087,1,8,0:0:0:0:
360,316,125270,1,0,0:0:0:0:
288,296,125453,1,2,2:0:0:0:
220,328,125636,1,2,2:0:0:0:
152,360,125819,6,0,P|92:348|64:288,1,112.500004291535,0|2,0:0|2:0,0:0:0:0:
132,216,126550,1,8,0:0:0:0:
88,112,126916,1,0,0:0:0:0:
180,44,127282,2,0,P|240:64|296:44,1,112.500004291535,2|0,2:0|0:0,0:0:0:0:
352,16,127831,1,2,2:0:0:0:
380,84,128014,1,8,0:0:0:0:
336,144,128197,1,0,0:0:0:0:
364,212,128379,1,2,2:0:0:0:
336,280,128562,1,2,2:0:0:0:
356,352,128745,6,0,P|272:360|208:320,1,150,4|2,0:0|2:0,0:0:0:0:
180,264,129294,1,0,2:0:0:0:
180,264,129477,2,0,P|100:288|60:360,1,150,8|0,0:0|0:0,0:0:0:0:
92,192,130209,2,0,P|84:116|8:88,2,150,2|0|8,2:0|0:0|0:0,0:0:0:0:
68,264,131123,1,0,0:0:0:0:
144,256,131306,1,2,2:0:0:0:
220,248,131489,1,2,2:0:0:0:
296,236,131672,6,0,P|304:312|380:340,2,150,0|2|8,0:0|2:0|0:0,0:0:0:0:
328,168,132587,2,0,P|320:92|244:64,1,150,2|0,2:0|0:0,0:0:0:0:
260,136,133136,2,0,P|408:44,1,150,2|0,2:0|0:0,0:0:0:0:
440,116,133684,1,2,2:0:0:0:
460,192,133867,1,8,0:0:0:0:
436,264,134050,1,0,0:0:0:0:
476,328,134233,2,0,P|396:364|396:292|308:328,1,150,2|0,2:0|0:0,0:0:0:0:
36,328,134965,6,0,P|116:364|116:292|204:328,1,150,2|8,2:0|0:0,0:0:0:0:
256,332,135514,1,2,2:0:0:0:
256,256,135697,2,0,P|256:96,1,150,0|2,0:0|2:0,0:0:0:0:
320,300,136428,2,0,P|248:332|188:296,1,150,0|8,0:0|0:0,0:0:0:0:
176,224,136977,1,0,0:0:0:0:
132,160,137160,1,2,2:0:0:0:
60,136,137343,1,2,2:0:0:0:
76,208,137526,6,0,P|116:308|96:352,1,150
408,341,138258,2,0,P|396:308|436:208,1,150,8|0,0:0|0:0,0:0:0:0:
266,40,138989,1,0,0:0:0:0:
157,309,139355,1,0,0:0:0:0:
403,154,139721,1,8,0:0:0:0:
113,134,140087,1,8,0:0:0:0:
336,320,140453,1,4,0:0:0:0:
443,70,163867,6,0,P|388:147|252:128,1,225,4|0,0:0|0:0,0:0:0:0:
232,80,164599,2,0,P|270:155|245:241,1,150,8|0,0:0|0:0,0:0:0:0:
58,146,165331,2,0,P|103:76|190:54,1,150,2|0,2:0|0:0,0:0:0:0:
208,264,166062,2,0,P|125:260|62:196,1,150,8|0,0:0|0:0,0:0:0:0:
164,348,166794,6,0,P|236:356|284:308|284:308|392:308,1,225
412,372,167526,2,0,P|380:300|412:242,1,150,8|0,0:0|0:0,0:0:0:0:
472,72,168258,2,0,P|504:144|471:201,2,150,2|0|8,2:0|0:0|0:0,0:0:0:0:
404,32,169172,2,0,P|394:77|420:128,2,75,0|2|8,0:0|2:0|2:0,0:0:0:0:
332,0,169721,6,0,P|296:76|340:152|340:152|340:236,1,225,0|0,0:0|0:0,0:0:0:0:
401,250,170453,2,0,P|343:218|271:250,2,150,8|0|2,0:0|0:0|2:0,0:0:0:0:
110,132,171550,2,0,P|168:164|240:132,2,150,0|8|0,0:0|0:0|0:0,0:0:0:0:
176,88,172465,1,2,2:0:0:0:
280,196,172648,6,0,P|172:240|72:200,1,225
64,128,173379,2,0,P|75:203|75:203|7:258,1,150,8|0,0:0|0:0,0:0:0:0:
117,362,174111,2,0,P|176:314|176:314|258:345,1,150,2|0,2:0|0:0,0:0:0:0:
302,203,174843,2,0,P|231:175|231:175|217:89,1,150,8|0,0:0|0:0,0:0:0:0:
208,28,175392,1,8,2:0:0:0:
152,80,175575,38,0,P|188:116|252:108|276:64|276:64|384:64,1,225,4|0,0:0|0:0,0:0:0:0:
400,130,176306,2,0,P|432:58|400:0,1,150,8|0,0:0|0:0,0:0:0:0:
352,188,177038,2,0,P|320:260|352:318,2,150,2|0|8,2:0|0:0|0:0,0:0:0:0:
400,129,177953,2,0,P|428:173|412:225,2,75,0|2|2,0:0|2:0|2:0,0:0:0:0:
324,116,178501,6,0,P|272:148|252:204|252:204|140:204,1,225
109,137,179233,2,0,P|141:209|109:267,1,150,8|0,0:0|0:0,0:0:0:0:
200,132,179965,2,0,P|180:92|140:64|140:64|140:0,2,150,2|0|8,2:0|0:0|0:0,0:0:0:0:
247,243,180879,1,0,0:0:0:0:
276,128,181062,1,2,2:0:0:0:
184,204,181245,1,8,2:0:0:0:
303,196,181428,22,0,P|388:228|404:356,1,225
484,368,182160,2,0,P|496:296|476:220,1,150,8|0,0:0|0:0,0:0:0:0:
288,120,182892,2,0,P|364:128|432:168,2,150,2|0|8,2:0|0:0|0:0,0:0:0:0:
224,156,183806,2,0,P|214:111|240:60,2,75,0|2|2,0:0|2:0|2:0,0:0:0:0:
256,224,184355,6,0,P|280:276|264:336|264:336|313:321|392:340,1,225,0|0,0:0|0:0,0:0:0:0:
448,348,185087,2,0,P|452:272|508:192,1,150,8|0,0:0|0:0,0:0:0:0:
256,224,185819,2,0,P|256:68,1,150,2|0,2:0|0:0,0:0:0:0:
64,348,186550,2,0,P|60:272|4:192,1,150,8|0,0:0|0:0,0:0:0:0:
64,348,187282,6,0,P|128:332|184:348,2,112.500004291535,4|2|8,0:0|2:0|0:0,0:0:0:0:
96,240,188379,1,0,0:0:0:0:
60,132,188745,1,2,2:0:0:0:
144,60,189111,2,0,P|220:84|272:72,1,112.500004291535,0|8,0:0|0:0,0:0:0:0:
356,44,189843,1,0,0:0:0:0:
340,156,190209,6,0,P|340:248|440:340,1,225.000008583069,0|8,0:0|0:0,0:0:0:0:
476,236,191306,1,0,0:0:0:0:
430,337,191672,1,2,2:0:0:0:
320,308,192038,2,0,P|232:308|200:328,2,112.500004291535,0|8|0,0:0|0:0|0:0,0:0:0:0:
360,204,193136,6,0,P|256:188|140:232,1,225.000008583069,0|8,0:0|0:0,0:0:0:0:
92,328,194233,1,0,0:0:0:0:
145,228,194599,1,2,2:0:0:0:
92,128,194965,2,0,P|160:116|200:68,1,112.500004291535,0|8,0:0|0:0,0:0:0:0:
300,60,195697,1,0,0:0:0:0:
372,148,196062,6,0,P|336:256|424:344,1,225.000008583069,0|8,0:0|0:0,0:0:0:0:
492,272,197160,1,0,0:0:0:0:
400,336,197526,1,2,2:0:0:0:
296,296,197892,2,0,P|240:272|184:280,2,112.500004291535,0|8|0,0:0|0:0|0:0,0:0:0:0:
296,296,198989,6,0,P|304:192|344:148,1,150,4|2,0:0|2:0,0:0:0:0:
400,132,199538,2,0,P|368:92|328:84,2,75,0|8|2,2:0|0:0|2:0,0:0:0:0:
472,116,200087,2,0,P|436:48|352:12,1,150,0|2,0:0|2:0,0:0:0:0:
224,36,200819,6,0,P|204:128,1,75,0|2,0:0|2:0,0:0:0:0:
144,44,201184,2,0,P|124:136,1,75,8|2,0:0|2:0,0:0:0:0:
176,176,201550,2,0,P|256:200|300:272,2,150,0|4|2,2:0|0:0|2:0,0:0:0:0:
116,220,202465,2,0,P|100:184|116:128,2,75,0|8|2,2:0|0:0|2:0,0:0:0:0:
58,270,203014,2,0,P|28:207|31:119,2,150,0|2|0,0:0|2:0|0:0,0:0:0:0:
112,320,203928,5,2,2:0:0:0:
184,308,204111,1,8,0:0:0:0:
256,328,204294,1,0,0:0:0:0:
328,308,204477,1,2,2:0:0:0:
400,320,204660,1,2,2:0:0:0:
454,270,204843,6,0,P|484:207|481:119,1,150,4|2,0:0|2:0,0:0:0:0:
408,16,205575,1,8,0:0:0:0:
280,96,205940,2,0,P|188:106|129:54,2,150,0|2|0,0:0|2:0|0:0,0:0:0:0:
348,64,206855,1,2,2:0:0:0:
408,16,207038,2,0,P|436:64|408:112|408:112|408:188,1,150,8|0,0:0|0:0,0:0:0:0:
256,192,207770,12,4,210697,2:1:0:0:
