osu file format v13

[General]
AudioFilename: 02 SHOTGUN JUGGLE.mp3
AudioLeadIn: 0
PreviewTime: 79026
Countdown: 0
SampleSet: Soft
StackLeniency: 0.7
Mode: 0
LetterboxInBreaks: 1
WidescreenStoryboard: 0

[Editor]
Bookmarks: 64994
DistanceSpacing: 1.3
BeatDivisor: 4
GridSize: 4
TimelineZoom: 1.9

[Metadata]
Title:SHOTGUN JUGGLE
TitleUnicode:SHOTGUN JUGGLE
Artist:Truxton
ArtistUnicode:Truxton
Creator:P o M u T a
Version:Extra
Source:
Tags:lapfox trax SOUTH MANSION pomuta renard muya queenston kajiyatta
BeatmapID:325180
BeatmapSetID:128416

[Difficulty]
HPDrainRate:7
CircleSize:4
OverallDifficulty:8
ApproachRate:9.3
SliderMultiplier:2.2
SliderTickRate:4

[Events]
//Background and Video events
0,0,"627ddd5e.jpg",0,0
//Break Periods
2,66607,72131
//Storyboard Layer 0 (Background)
//Storyboard Layer 1 (Fail)
//Storyboard Layer 2 (Pass)
//Storyboard Layer 3 (Foreground)
//Storyboard Sound Samples
//Background Colour Transformations
3,100,163,162,255

[TimingPoints]
3166,395.256916996047,4,2,0,60,1,0
75893,-200,4,2,0,62,0,0
76683,-142.857142857143,4,2,0,64,0,0
77474,-111.111111111111,4,2,0,66,0,0
78264,-90.9090909090909,4,2,0,68,0,0
79055,-76.9230769230769,4,2,0,70,0,1
104351,-111.111111111111,4,2,0,60,0,0
129648,-111.111111111111,4,2,0,50,0,0
131229,-111.111111111111,4,2,0,40,0,0
132810,-111.111111111111,4,2,0,30,0,0
134391,-111.111111111111,4,2,0,20,0,0
135181,-111.111111111111,4,2,0,10,0,0

[Colours]
Combo1 : 0,255,255
Combo2 : 192,192,192
Combo3 : 170,170,255
Combo4 : 0,128,255

[HitObjects]
440,52,3165,6,0,P|452:104|424:152,1,110,4|0,0:0|0:0,0:0:0:0:
388,172,3462,1,2,0:0:0:0:
476,256,3660,2,0,L|444:300,1,55,2|0,0:0|0:0,0:0:0:0:
332,348,3956,1,0,0:0:0:0:
256,256,4154,2,0,L|256:312,1,55,0|2,0:0|0:0,0:0:0:0:
256,128,4450,2,0,L|256:72,1,55,2|0,0:0|0:0,0:0:0:0:
152,84,4747,6,0,L|180:36,1,55,0|2,0:0|0:0,0:0:0:0:
92,124,5043,2,0,L|36:124,1,55,0|2,0:0|0:0,0:0:0:0:
157,155,5339,1,0,0:0:0:0:
157,155,5537,2,0,P|152:208|116:252,1,110
72,256,5833,2,0,L|172:304,1,110,2|2,0:0|0:0,0:0:0:0:
192,344,6130,1,0,0:0:0:0:
256,240,6328,5,2,0:0:0:0:
360,300,6525,2,0,L|360:356,1,55,0|2,0:0|0:0,0:0:0:0:
436,260,6822,2,0,L|436:204,1,55,2|0,0:0|0:0,0:0:0:0:
480,92,7118,1,0,0:0:0:0:
364,64,7316,2,0,L|412:32,1,55,0|2,0:0|0:0,0:0:0:0:
148,64,7612,2,0,L|100:32,1,55,2|2,0:0|0:0,0:0:0:0:
232,136,7909,5,0,0:0:0:0:
232,136,8007,2,0,P|284:144|336:168,1,110,2|2,0:0|0:0,0:0:0:0:
335,216,8304,2,0,P|286:239|232:248,2,110
424,132,8897,1,0,0:0:0:0:
452,100,8996,1,2,0:0:0:0:
480,284,9193,1,2,0:0:0:0:
452,316,9292,1,2,0:0:0:0:
256,220,9490,6,0,P|212:280|128:304,1,165,8|0,0:0|0:0,0:0:0:0:
84,292,9885,1,8,0:0:0:0:
172,140,10082,1,8,0:0:0:0:
172,140,10478,2,0,P|160:84|172:32,2,110,8|8|8,0:0|0:0|0:0,0:0:0:0:
340,350,11268,2,0,L|304:356,2,27.5,8|0|0,0:0|0:0|0:0,0:0:0:0:
340,350,11466,2,0,P|352:297|340:244,2,110,8|8|8,0:0|0:0|0:0,0:0:0:0:
336,164,12059,1,8,0:0:0:0:
336,164,12158,1,0,0:0:0:0:
336,164,12256,2,0,P|288:188|260:236,1,110,8|8,0:0|0:0,0:0:0:0:
216,348,12652,6,0,P|176:308|176:204,1,165,8|0,0:0|0:0,0:0:0:0:
204,172,13047,2,0,L|92:172,1,110,8|8,0:0|0:0,0:0:0:0:
472,48,13640,1,8,0:0:0:0:
472,48,13739,1,0,0:0:0:0:
472,48,13837,2,0,L|362:48,2,110,8|8|0,0:0|0:0|0:0,0:0:0:0:
272,49,14430,6,0,L|236:55,2,27.5,8|0|0,0:0|0:0|0:0,0:0:0:0:
272,48,14628,2,0,P|292:96|272:152,2,110,8|8|8,0:0|0:0|0:0,0:0:0:0:
152,36,15221,2,0,L|108:72,1,55,8|0,0:0|0:0,0:0:0:0:
48,24,15418,2,0,B|28:60|28:60|28:128,1,110,8|8,0:0|0:0,0:0:0:0:
48,360,15814,6,0,P|104:360|160:348,1,110,4|0,0:0|0:0,0:0:0:0:
200,336,16110,2,0,P|228:288|232:232,1,110
236,192,16407,1,0,0:0:0:0:
152,104,16604,2,0,P|80:76|8:124,2,165,8|0|0,0:0|0:0|0:0,0:0:0:0:
360,104,17395,6,0,P|408:76|456:92,1,110
488,120,17691,2,0,L|464:232,1,110
484,268,17988,1,0,0:0:0:0:
392,344,18185,2,0,P|312:360|228:352,2,165,8|0|0,0:0|0:0|0:0,0:0:0:0:
160,368,18976,5,0,0:0:0:0:
160,368,19075,2,0,P|116:336|94:283,1,110
104,244,19371,1,2,0:0:0:0:
116,200,19470,1,0,0:0:0:0:
116,156,19569,1,0,0:0:0:0:
100,116,19667,1,0,0:0:0:0:
80,76,19766,2,0,P|132:72|188:56,1,110,8|0,0:0|0:0,0:0:0:0:
232,44,20063,2,0,P|284:48|340:64,1,110,0|0,0:0|0:0,0:0:0:0:
384,76,20359,1,0,0:0:0:0:
384,308,20557,5,8,3:0:0:0:
272,260,20754,2,0,L|272:316,1,55
192,196,21051,2,0,L|192:252,1,55
292,120,21347,2,0,P|296:68|332:24,1,110,8|0,0:0|0:0,0:0:0:0:
384,76,21644,2,0,P|408:120|460:144,1,110
500,204,21940,2,0,L|500:264,1,55
500,331,22138,6,0,P|456:363|400:371,1,110
360,363,22434,1,0,0:0:0:0:
316,355,22533,2,0,P|264:351|204:363,2,110,2|0|8,0:0|0:0|0:0,0:0:0:0:
184,128,23126,1,0,0:0:0:0:
216,160,23225,1,0,0:0:0:0:
256,180,23324,1,2,0:0:0:0:
296,160,23422,1,0,0:0:0:0:
328,128,23521,2,0,P|312:104|300:68,1,55
300,36,23719,6,0,P|380:28|464:36,2,165
256,48,24411,1,0,0:0:0:0:
212,36,24509,2,0,P|132:28|48:36,2,165,8|0|0,0:0|0:0|0:0,0:0:0:0:
256,192,25300,5,0,0:0:0:0:
256,192,25399,2,0,P|248:264|304:332,1,165,0|2,0:0|0:0,0:0:0:0:
348,332,25794,2,0,L|348:276,2,55
392,332,26090,2,0,P|436:292|448:244,1,110,8|0,0:0|0:0,0:0:0:0:
424,208,26387,2,0,P|380:168|368:120,1,110
376,76,26683,2,0,L|428:48,1,55
464,32,26881,5,8,3:0:0:0:
256,308,27079,1,0,0:0:0:0:
256,280,27177,1,0,0:0:0:0:
256,252,27276,1,2,0:0:0:0:
48,32,27474,1,0,0:0:0:0:
424,208,27671,5,8,0:0:0:0:
88,176,27869,1,0,0:0:0:0:
272,24,28067,1,2,0:0:0:0:
240,360,28264,1,0,0:0:0:0:
424,208,28462,6,0,P|464:132|440:60,2,165,4|0|0,0:0|0:0|0:0,0:0:0:0:
328,116,29252,1,8,0:0:0:0:
300,149,29351,1,0,0:0:0:0:
285,191,29450,1,2,0:0:0:0:
286,234,29549,1,0,0:0:0:0:
302,275,29648,2,0,P|320:296|344:308,2,55,0|0|2,0:0|0:0|0:0,0:0:0:0:
190,346,30043,6,0,P|128:312|36:312,2,165,8|0|0,3:0|0:0|0:0,0:0:0:0:
168,216,30833,2,0,L|116:200,1,55,8|0,0:0|0:0,0:0:0:0:
180,128,31031,2,0,L|232:112,1,55,2|0,0:0|0:0,0:0:0:0:
108,128,31229,2,0,L|56:112,1,55
240,40,31426,2,0,L|292:24,1,55,2|0,0:0|0:0,0:0:0:0:
364,32,31624,5,0,0:0:0:0:
364,32,31723,2,0,P|376:80|428:104,1,110
498,165,32019,2,0,P|448:185|434:237,1,110
496,328,32415,2,0,L|444:348,3,55,8|0|2|0,0:0|0:0|0:0|0:0,0:0:0:0:
372,356,32810,2,0,L|316:352,2,55,0|0|2,0:0|0:0|0:0,0:0:0:0:
194,324,33205,6,0,P|246:312|272:208,1,165,8|0,3:0|0:0,0:0:0:0:
252,180,33600,1,0,0:0:0:0:
208,176,33699,1,0,0:0:0:0:
168,196,33798,1,0,0:0:0:0:
68,60,33996,6,0,L|12:60,1,55,8|0,0:0|0:0,0:0:0:0:
196,24,34193,2,0,L|141:24,1,55,2|0,0:0|0:0,0:0:0:0:
371,24,34391,2,0,L|316:24,1,55
499,60,34588,2,0,L|444:60,1,55,2|0,0:0|0:0,0:0:0:0:
371,96,34786,6,0,P|401:162|485:166,2,165,0|0|0,0:0|0:0|0:0,0:0:0:0:
141,288,35577,2,0,P|111:222|27:218,2,165,8|0|0,0:0|0:0|0:0,0:0:0:0:
256,352,36367,5,2,0:0:0:0:
256,352,36466,1,0,0:0:0:0:
256,352,36565,2,0,L|312:348,1,55
344,284,36762,1,2,0:0:0:0:
344,284,36861,1,0,0:0:0:0:
344,284,36960,2,0,L|400:280,1,55
460,232,37158,5,10,0:0:0:0:
460,232,37256,1,0,0:0:0:0:
460,232,37355,2,0,L|472:176,1,55
420,120,37553,1,2,0:0:0:0:
420,120,37652,1,0,0:0:0:0:
420,120,37750,2,0,L|432:64,1,55
356,16,37948,5,2,0:0:0:0:
356,16,38047,1,0,0:0:0:0:
356,16,38146,2,0,L|296:32,1,55
156,16,38343,1,2,0:0:0:0:
156,16,38442,1,0,0:0:0:0:
156,16,38541,2,0,L|216:32,1,55
388,92,38739,5,10,0:0:0:0:
388,92,38837,1,0,0:0:0:0:
388,92,38936,2,0,L|310:112,1,55
128,92,39134,1,2,0:0:0:0:
128,92,39233,1,0,0:0:0:0:
128,92,39332,2,0,L|205:112,1,55
320,148,39529,6,0,P|328:120|348:100,1,55,2|0,0:0|0:0,0:0:0:0:
192,236,39727,2,0,P|184:264|164:284,1,55,2|0,0:0|0:0,0:0:0:0:
192,148,39924,2,0,P|184:120|164:100,1,55,2|0,0:0|0:0,0:0:0:0:
320,236,40122,2,0,P|328:264|348:284,1,55,2|0,0:0|0:0,0:0:0:0:
332,139,40320,6,0,P|342:105|366:81,1,55,10|0,0:0|0:0,0:0:0:0:
179,244,40517,2,0,P|169:278|145:302,1,55,2|0,0:0|0:0,0:0:0:0:
179,139,40715,2,0,P|169:105|145:81,1,55,2|0,0:0|0:0,0:0:0:0:
332,244,40913,2,0,P|342:278|366:302,1,55,2|0,0:0|0:0,0:0:0:0:
256,192,41110,5,4,0:0:0:0:
472,40,41703,1,0,0:0:0:0:
472,40,41901,1,8,0:0:0:0:
472,40,42296,1,4,0:0:0:0:
256,12,42691,6,0,P|232:60|180:68,1,110
331,68,43086,2,0,P|279:59|256:12,1,110,4|0,0:0|0:0,0:0:0:0:
412,96,43482,1,8,0:0:0:0:
464,192,43679,1,0,0:0:0:0:
412,288,43877,2,0,P|388:332|332:348,1,110,4|0,0:0|0:0,0:0:0:0:
255,268,44272,6,0,P|132:256|248:200,1,330
412,288,45063,1,8,0:0:0:0:
412,288,45458,2,0,L|464:192,1,110,4|0,0:0|0:0,0:0:0:0:
468,80,45853,6,0,P|424:104|368:92,2,110,0|0|4,0:0|0:0|0:0,0:0:0:0:
44,80,46644,2,0,P|88:104|144:92,2,110,8|0|4,0:0|0:0|0:0,0:0:0:0:
84,296,47434,5,0,0:0:0:0:
176,236,47632,1,0,0:0:0:0:
256,312,47830,1,4,0:0:0:0:
336,236,48027,1,0,0:0:0:0:
428,296,48225,1,8,0:0:0:0:
428,296,48620,2,0,P|464:252|464:200,1,110,4|0,0:0|0:0,0:0:0:0:
480,92,49015,6,0,P|426:93|384:128,1,110
308,48,49411,2,0,L|88:36,1,220,4|8,0:0|0:0,0:0:0:0:
404,20,50003,1,0,0:0:0:0:
480,92,50201,2,0,L|468:312,1,220,4|0,0:0|0:0,0:0:0:0:
468,311,50992,6,0,P|424:336|364:336,1,110,4|0,0:0|0:0,0:0:0:0:
256,212,51387,1,8,0:0:0:0:
256,212,51782,2,0,P|280:167|280:107,1,110,4|0,0:0|0:0,0:0:0:0:
132,36,52177,5,8,0:0:0:0:
364,192,52375,1,0,0:0:0:0:
364,192,52474,1,0,0:0:0:0:
364,192,52573,1,4,0:0:0:0:
152,328,52770,1,0,0:0:0:0:
312,64,52968,5,8,0:0:0:0:
312,64,53067,1,0,0:0:0:0:
312,64,53165,2,0,P|368:68|416:48,1,110,0|4,0:0|0:0,0:0:0:0:
120,340,53561,1,0,0:0:0:0:
120,340,53660,1,0,0:0:0:0:
120,340,53758,6,0,P|124:284|104:236,1,110,4|0,0:0|0:0,0:0:0:0:
88,192,54055,2,0,P|92:137|164:56,1,165,0|0,0:0|0:0,0:0:0:0:
256,132,54549,2,0,L|240:192,2,55,8|0|0,0:0|0:0|0:0,0:0:0:0:
344,48,54944,2,0,P|404:40|448:64,1,110,4|0,0:0|0:0,0:0:0:0:
264,52,55339,6,0,P|204:60|160:36,1,110
120,20,55636,2,0,P|100:104|32:116,1,165
68,275,56130,1,8,0:0:0:0:
68,275,56229,1,0,0:0:0:0:
68,275,56328,2,0,P|112:243|128:192,1,110,0|4,0:0|0:0,0:0:0:0:
8,172,56723,1,0,0:0:0:0:
176,336,56920,6,0,L|287:345,1,110
293,274,57217,2,0,L|460:288,1,165
476,156,57711,2,0,L|432:120,1,55,8|0,0:0|0:0,0:0:0:0:
400,88,57909,2,0,P|424:40|476:20,2,110,0|4|0,0:0|0:0|0:0,0:0:0:0:
256,168,58501,6,0,P|336:180|392:240,2,165
148,92,59292,1,8,0:0:0:0:
148,92,59391,1,0,0:0:0:0:
148,92,59490,2,0,P|208:92|248:60,1,110,0|4,0:0|0:0,0:0:0:0:
120,20,59885,1,0,0:0:0:0:
176,164,60082,6,0,P|160:216|112:236,1,110,0|0,0:0|0:0,0:0:0:0:
40,224,60379,1,2,0:0:0:0:
144,324,60577,2,0,L|196:340,1,55,2|0,0:0|0:0,0:0:0:0:
256,208,60873,1,8,0:0:0:0:
356,312,61071,2,0,L|416:312,1,55,0|2,0:0|0:0,0:0:0:0:
488,192,61367,2,0,L|432:192,1,55,2|0,0:0|0:0,0:0:0:0:
355,73,61664,5,0,0:0:0:0:
324,42,61762,1,2,0:0:0:0:
157,73,61960,1,2,0:0:0:0:
126,104,62059,2,0,P|81:76|64:24,2,110,0|0|8,0:0|0:0|0:0,0:0:0:0:
356,312,62652,2,0,L|400:344,1,55,0|2,0:0|0:0,0:0:0:0:
156,312,62948,2,0,L|112:344,1,55,2|0,0:0|0:0,0:0:0:0:
144,180,63245,6,0,P|132:128|88:96,1,110,0|0,0:0|0:0,0:0:0:0:
16,88,63541,2,0,P|68:64|108:28,1,110,2|2,0:0|0:0,0:0:0:0:
176,12,63837,1,0,0:0:0:0:
256,156,64035,1,8,0:0:0:0:
420,148,64233,2,0,P|448:152|476:148,1,55,0|2,0:0|0:0,0:0:0:0:
474,313,64529,2,0,P|446:309|419:313,1,55,2|0,0:0|0:0,0:0:0:0:
256,352,64826,5,8,0:3:0:0:
256,32,65023,1,0,0:0:0:0:
256,32,65122,1,0,0:0:0:0:
256,32,65221,1,0,0:0:0:0:
108,288,65418,5,0,0:0:0:0:
404,288,65616,1,8,0:0:0:0:
404,288,65715,1,0,0:0:0:0:
404,288,65814,1,0,0:0:0:0:
256,32,66011,5,8,3:0:0:0:
256,352,66209,1,0,0:0:0:0:
256,352,66308,1,0,0:0:0:0:
256,352,66407,1,4,0:0:0:0:
444,192,72731,6,0,P|364:172|312:112,1,165,8|0,0:0|0:0,0:0:0:0:
300,68,73126,1,8,0:0:0:0:
256,312,73324,1,8,0:0:0:0:
256,312,73719,1,8,0:0:0:0:
256,312,73818,1,0,0:0:0:0:
256,312,73916,2,0,P|200:304|156:336,2,110,8|8|0,0:0|0:0|0:0,0:0:0:0:
412,308,74509,6,0,L|428:336,2,27.5,8|0|0,0:0|0:0|0:0,0:0:0:0:
412,308,74707,2,0,L|464:208,1,110,8|8,0:0|0:0,0:0:0:0:
432,128,75102,1,8,0:0:0:0:
496,68,75300,1,8,0:0:0:0:
496,68,75399,1,0,0:0:0:0:
496,68,75498,1,8,0:0:0:0:
420,24,75695,1,8,0:0:0:0:
352,80,75893,6,0,L|184:52,1,165,4|0,0:0|0:0,0:0:0:0:
189,140,76683,6,0,L|424:179,1,230.99999295044,4|0,0:0|0:0,0:0:0:0:
417,285,77474,6,0,L|113:335,1,296.99999093628,4|0,0:0|0:0,0:0:0:0:
94,99,78264,6,0,L|491:32,1,363.000011077881,4|0,0:0|0:0,0:0:0:0:
451,345,79055,6,0,P|468:312|468:276,3,71.4999967269899,4|0|0|0,0:0|0:0|0:0|0:0,0:0:0:0:
428,196,79450,2,0,P|411:163|411:127,3,71.4999967269899,2|0|0|0,0:0|0:0|0:0|0:0,0:0:0:0:
416,36,79845,5,8,0:0:0:0:
325,48,79944,1,0,0:0:0:0:
257,109,80043,1,0,0:0:0:0:
236,198,80142,1,0,0:0:0:0:
248,292,80241,2,0,P|284:300|320:300,1,71.4999967269899,2|0,0:0|0:0,0:0:0:0:
184,348,80438,2,0,P|149:355|113:356,1,71.4999967269899
56,284,80636,6,0,L|28:212,1,71.4999967269899
68,132,80833,1,0,0:0:0:0:
116,52,80932,2,0,L|188:44,1,71.4999967269899,0|2,0:0|0:0,0:0:0:0:
257,109,81130,1,0,0:0:0:0:
325,48,81229,2,0,L|397:56,1,71.4999967269899
462,120,81426,6,0,P|462:154|443:185,3,71.4999967269899,8|0|0|0,0:0|0:0|0:0|0:0,0:0:0:0:
377,252,81822,2,0,P|377:218|358:187,2,71.4999967269899,2|0|0,0:0|0:0|0:0,0:0:0:0:
330,332,82118,1,0,0:0:0:0:
256,276,82217,6,0,P|220:272|184:276,1,71.4999967269899
56,208,82415,2,0,P|92:212|128:208,1,71.4999967269899
108,356,82612,2,0,P|112:320|108:284,1,71.4999967269899,2|0,0:0|0:0,0:0:0:0:
204,128,82810,2,0,P|200:164|204:200,1,71.4999967269899
256,276,83007,5,8,0:0:0:0:
330,332,83106,1,0,0:0:0:0:
422,325,83205,2,0,P|444:294|450:259,1,71.4999967269899
391,188,83403,2,0,P|369:219|363:254,1,71.4999967269899,2|0,0:0|0:0,0:0:0:0:
440,360,83600,2,0,P|463:327|469:291,1,71.4999967269899
383,180,83798,6,0,P|407:156|440:143,2,71.4999967269899
349,94,84094,2,0,P|325:118|292:131,2,71.4999967269899,0|2|0,0:0|0:0|0:0,0:0:0:0:
400,15,84391,1,0,0:0:0:0:
400,15,84490,1,0,0:0:0:0:
400,15,84588,6,0,L|327:21,1,71.4999967269899,8|0,0:0|0:0,0:0:0:0:
112,15,84786,2,0,L|185:21,1,71.4999967269899
425,15,84984,6,0,L|339:22,1,71.4999967269899,2|0,0:0|0:0,0:0:0:0:
87,15,85181,2,0,L|172:22,1,71.4999967269899
272,60,85379,5,4,0:0:0:0:
278,152,85478,1,0,0:0:0:0:
220,224,85577,1,0,0:0:0:0:
127,218,85675,2,0,P|103:191|90:157,2,71.4999967269899,0|2|0,0:0|0:0|0:0,0:0:0:0:
278,152,85972,6,0,P|302:179|315:213,1,71.4999967269899,0|0,0:0|0:0,0:0:0:0:
188,356,86169,2,0,P|164:329|151:295,1,71.4999967269899,8|0,0:0|0:0,0:0:0:0:
360,295,86367,2,0,P|347:329|324:356,1,71.4999967269899
448,264,86565,2,0,P|440:208|372:164,1,142.99999345398,2|0,0:0|0:0,0:0:0:0:
278,152,86861,1,0,0:0:0:0:
220,224,86960,6,0,P|204:252|172:280,2,71.4999967269899
136,178,87256,2,0,P|104:196|70:203,2,71.4999967269899,0|2|0,0:3|0:0|0:3,0:3:0:0:
156,88,87553,1,0,0:0:0:0:
68,56,87652,1,0,0:0:0:0:
156,88,87750,6,0,P|192:88|228:80,1,71.4999967269899,8|0,0:0|0:0,0:0:0:0:
356,296,87948,2,0,P|320:296|284:304,1,71.4999967269899
151,292,88146,2,0,P|152:256|144:221,1,71.4999967269899,2|0,0:0|0:0,0:0:0:0:
360,91,88343,2,0,P|359:127|367:162,1,71.4999967269899
408,244,88541,6,0,L|448:304,1,71.4999967269899
418,246,88739,2,0,L|460:309,1,71.4999967269899
356,296,88936,6,0,L|396:356,1,71.4999967269899,2|0,0:0|0:0,0:0:0:0:
366,298,89134,2,0,L|408:361,1,71.4999967269899
304,344,89332,6,0,P|232:356|160:348,1,142.99999345398,8|0,0:0|0:0,0:0:0:0:
96,284,89628,1,0,0:0:0:0:
48,204,89727,2,0,L|24:136,1,71.4999967269899,2|0,0:0|0:0,0:0:0:0:
128,48,89924,2,0,L|104:116,1,71.4999967269899
96,284,90122,5,8,3:0:0:0:
340,48,90320,1,0,3:0:0:0:
340,48,90418,1,0,0:0:0:0:
340,48,90517,2,0,P|264:60|232:112,1,142.99999345398,2|0,0:0|0:0,0:0:0:0:
304,344,90913,5,8,0:0:0:0:
304,344,91011,1,0,0:0:0:0:
304,344,91110,1,0,0:0:0:0:
416,24,91308,1,2,0:0:0:0:
144,192,91505,2,0,L|72:192,1,71.4999967269899
256,192,91703,6,0,L|328:192,1,71.4999967269899,4|0,0:0|0:0,0:0:0:0:
420,208,91901,1,0,0:0:0:0:
472,284,91999,1,0,0:0:0:0:
408,352,92098,2,0,P|368:360|336:352,3,71.4999967269899,2|0|0|0,0:0|0:0|0:0|0:0,0:0:0:0:
222,272,92494,6,0,P|257:264|292:272,1,71.4999967269899,8|0,0:0|0:0,0:0:0:0:
176,344,92691,1,0,0:0:0:0:
84,332,92790,1,0,0:0:0:0:
84,332,92889,2,0,P|60:300|48:268,1,71.4999967269899,2|0,0:0|0:0,0:0:0:0:
51,176,93086,1,0,0:0:0:0:
93,94,93185,1,0,0:0:0:0:
168,40,93284,6,0,P|200:40|240:48,1,71.4999967269899
308,112,93482,1,0,0:0:0:0:
447,184,93581,2,0,P|412:183|377:176,1,71.4999967269899,0|2,0:0|0:0,0:0:0:0:
428,92,93778,1,0,0:0:0:0:
428,92,93877,2,0,P|460:92|500:100,1,71.4999967269899
472,276,94075,6,0,P|440:276|400:268,1,71.4999967269899,8|0,0:0|0:0,0:0:0:0:
315,296,94272,2,0,P|335:326|360:352,1,71.4999967269899
151,351,94470,2,0,P|176:325|196:296,1,71.4999967269899,2|0,0:0|0:0,0:0:0:0:
110,267,94667,2,0,P|74:275|39:275,1,71.4999967269899
36,180,94865,6,0,L|20:108,3,71.4999967269899
76,36,95260,2,0,L|148:20,3,71.4999967269899,2|0|0|0,0:0|0:0|0:0|0:0,0:0:0:0:
240,16,95656,6,0,L|302:52,1,71.4999967269899,8|0,0:0|0:0,0:0:0:0:
208,214,95853,2,0,L|146:178,1,71.4999967269899,0|0,0:0|0:0,0:0:0:0:
193,95,96051,2,0,L|256:131,1,71.4999967269899,2|0,0:0|0:0,0:0:0:0:
160,297,96249,2,0,L|97:261,1,71.4999967269899
224,348,96446,6,0,P|260:348|292:336,1,71.4999967269899
368,280,96644,1,0,0:0:0:0:
471,289,96743,2,0,P|456:322|432:348,1,71.4999967269899,0|2,0:0|0:0,0:0:0:0:
485,198,96940,1,0,0:0:0:0:
416,136,97039,2,0,P|380:132|352:112,1,71.4999967269899
288,44,97237,5,8,0:0:0:0:
200,12,97335,1,0,0:0:0:0:
217,103,97434,2,0,P|188:124|152:132,1,71.4999967269899
60,124,97632,5,2,0:0:0:0:
10,209,97731,1,0,0:0:0:0:
109,208,97830,2,0,P|125:241|126:281,1,71.4999967269899
112,368,98027,5,4,0:0:0:0:
198,332,98126,1,0,0:0:0:0:
225,242,98225,1,0,0:0:0:0:
251,151,98324,2,0,P|268:124|304:112,2,71.4999967269899,0|2|0,0:0|0:0|0:0,0:0:0:0:
333,277,98620,2,0,P|316:247|320:212,1,71.4999967269899
412,328,98818,5,8,0:0:0:0:
412,328,98916,1,0,0:0:0:0:
468,252,99015,1,0,0:0:0:0:
468,252,99114,1,0,0:0:0:0:
412,176,99213,1,2,0:0:0:0:
412,176,99312,1,0,0:0:0:0:
468,100,99411,1,0,0:0:0:0:
468,100,99509,1,0,0:0:0:0:
412,24,99608,5,2,0:0:0:0:
412,24,99707,1,0,0:0:0:0:
412,24,99806,2,0,L|340:16,1,71.4999967269899
260,60,100003,1,2,0:0:0:0:
260,60,100102,1,0,0:0:0:0:
260,60,100201,2,0,L|188:52,1,71.4999967269899
104,16,100399,5,10,0:0:0:0:
104,16,100498,1,0,0:0:0:0:
104,16,100596,2,0,L|104:88,1,71.4999967269899
36,172,100794,1,2,0:0:0:0:
36,172,100893,1,0,0:0:0:0:
36,172,100992,2,0,L|36:244,1,71.4999967269899
112,320,101189,5,2,0:0:0:0:
112,320,101288,1,0,0:0:0:0:
112,320,101387,2,0,L|180:344,1,71.4999967269899
256,252,101584,1,2,0:0:0:0:
256,252,101683,1,0,0:0:0:0:
256,252,101782,2,0,L|324:276,1,71.4999967269899
460,276,101980,5,10,0:0:0:0:
460,276,102079,1,0,0:0:0:0:
460,276,102177,2,0,L|460:348,1,71.4999967269899
392,228,102375,1,2,0:0:0:0:
392,228,102474,1,0,0:0:0:0:
392,228,102573,2,0,L|392:156,1,71.4999967269899
316,44,102770,6,0,B|348:32|348:32|388:32,1,71.4999967269899,2|0,0:0|0:0,0:0:0:0:
196,44,102968,2,0,B|164:32|164:32|124:32,1,71.4999967269899,2|0,0:0|0:0,0:0:0:0:
196,156,103165,6,0,B|158:170|158:170|110:170,1,71.4999967269899,2|0,0:0|0:0,0:0:0:0:
316,156,103363,2,0,B|355:170|355:170|403:170,1,71.4999967269899,2|0,0:0|0:0,0:0:0:0:
349,28,103561,6,0,B|399:9|399:9|461:9,1,71.4999967269899,10|0,0:0|0:0,0:0:0:0:
161,28,103758,2,0,B|111:9|111:9|49:9,1,71.4999967269899,2|0,0:0|0:0,0:0:0:0:
94,208,103956,6,0,B|114:140,1,71.4999967269899,2|0,0:0|0:0,0:0:0:0:
398,140,104154,2,0,B|417:208,1,71.4999967269899,2|0,0:0|0:0,0:0:0:0:
256,100,104351,5,4,0:0:0:0:
444,332,104944,1,0,0:0:0:0:
444,332,105142,2,0,L|480:136,1,197.99999395752,8|2,0:0|0:0,0:0:0:0:
260,48,105932,5,0,0:0:0:0:
196,96,106130,1,0,0:0:0:0:
120,72,106328,2,0,P|52:140|44:240,1,197.99999395752,2|8,0:0|0:0,0:0:0:0:
132,356,106920,1,0,0:0:0:0:
132,356,107118,2,0,P|200:288|208:188,1,197.99999395752,2|0,0:0|0:0,0:0:0:0:
380,56,107909,6,0,P|416:84|468:88,2,98.9999969787599,2|0|8,0:0|0:0|0:0,0:0:0:0:
164,36,108699,1,2,0:0:0:0:
316,192,109094,6,0,P|340:232|340:284,1,98.9999969787599
252,352,109490,2,0,L|56:328,1,197.99999395752,2|8,0:0|0:0,0:0:0:0:
328,360,110082,1,0,0:0:0:0:
328,360,110280,2,0,P|428:324|452:244,1,197.99999395752,2|0,0:0|0:0,0:0:0:0:
252,152,111071,6,0,P|252:104|220:68,2,98.9999969787599,2|0|8,0:0|0:0|0:0,0:0:0:0:
252,152,111861,1,2,0:0:0:0:
124,328,112256,5,0,0:0:0:0:
124,328,112454,1,0,0:0:0:0:
124,328,112652,2,0,P|160:252|124:148,1,197.99999395752,2|8,0:0|0:0,0:0:0:0:
64,244,113245,1,0,0:0:0:0:
64,244,113442,2,0,L|264:244,1,197.99999395752,2|0,0:0|0:0,0:0:0:0:
372,244,114035,6,0,P|372:296|340:328,2,98.9999969787599,0|2|0,0:0|0:0|0:0,0:0:0:0:
372,140,114628,2,0,P|372:88|340:56,2,98.9999969787599,8|0|2,0:0|0:0|0:0,0:0:0:0:
72,40,115418,5,8,0:3:0:0:
144,120,115616,1,0,0:0:0:0:
132,160,115715,1,0,0:0:0:0:
124,200,115814,2,0,L|40:252,2,98.9999969787599,2|0|8,0:0|0:0|0:0,0:0:0:0:
224,252,116407,1,0,0:0:0:0:
224,252,116604,2,0,P|288:284|364:288,1,148.49999546814,2|0,0:0|0:0,0:0:0:0:
404,284,116999,6,0,P|456:232|472:160,2,148.49999546814,4|0|0,0:0|0:0|0:0,0:0:0:0:
344,192,117790,1,8,0:0:0:0:
344,192,117889,1,0,0:0:0:0:
344,192,117988,2,0,P|348:164|344:140,1,49.4999984893799
332,92,118185,2,0,P|288:64|244:48,1,98.9999969787599,2|0,0:0|0:0,0:0:0:0:
136,32,118581,6,0,P|72:64|28:128,2,148.49999546814
188,128,119371,2,0,L|156:172,1,49.4999984893799,8|0,0:0|0:0,0:0:0:0:
128,212,119569,2,0,P|132:236|148:256,1,49.4999984893799
116,300,119766,2,0,L|216:300,1,98.9999969787599,2|0,0:0|0:0,0:0:0:0:
316,256,120162,5,0,0:0:0:0:
468,192,120458,1,0,0:0:0:0:
388,48,120754,1,0,0:0:0:0:
280,24,120952,1,8,0:0:0:0:
280,24,121051,1,0,0:0:0:0:
280,24,121150,2,0,P|228:36|176:32,1,98.9999969787599,0|2,0:0|0:0,0:0:0:0:
76,12,121545,1,0,0:0:0:0:
20,104,121743,6,0,L|20:212,1,98.9999969787599
20,244,122039,2,0,P|92:256|168:248,1,148.49999546814
256,192,122533,1,8,0:0:0:0:
256,192,122632,1,0,0:0:0:0:
256,192,122731,2,0,P|208:172|180:136,1,98.9999969787599,0|2,0:0|0:0,0:0:0:0:
256,56,123126,1,0,0:0:0:0:
332,136,123324,6,0,P|380:80|452:60,2,148.49999546814
424,192,124114,2,0,L|400:236,1,49.4999984893799,8|0,0:0|0:0,0:0:0:0:
380,268,124312,2,0,P|400:308|444:340,2,98.9999969787599,0|2|0,0:0|0:0|0:0,0:0:0:0:
304,244,124905,5,2,0:0:0:0:
304,244,125003,1,0,0:0:0:0:
304,244,125102,2,0,L|260:268,1,49.4999984893799
220,260,125300,1,2,0:0:0:0:
220,260,125399,1,0,0:0:0:0:
220,260,125498,2,0,L|176:284,1,49.4999984893799
128,288,125695,5,10,0:0:0:0:
128,288,125794,1,0,0:0:0:0:
128,288,125893,2,0,L|104:244,1,49.4999984893799
112,196,126090,1,2,0:0:0:0:
112,196,126189,1,0,0:0:0:0:
112,196,126288,2,0,L|88:152,1,49.4999984893799
40,116,126486,5,2,0:0:0:0:
40,116,126584,1,0,0:0:0:0:
40,116,126683,2,0,L|88:96,1,49.4999984893799
128,56,126881,1,2,0:0:0:0:
128,56,126980,1,0,0:0:0:0:
128,56,127079,2,0,L|176:36,1,49.4999984893799
240,60,127276,5,10,0:0:0:0:
240,60,127375,1,0,0:0:0:0:
240,60,127474,2,0,L|272:100,1,49.4999984893799
340,108,127671,1,2,0:0:0:0:
340,108,127770,1,0,0:0:0:0:
340,108,127869,2,0,L|370:146,1,49.4999984893799
436,192,128067,5,2,0:0:0:0:
256,292,128264,2,0,L|256:352,2,49.4999984893799,2|0|2,0:0|0:0|0:0,0:0:0:0:
76,192,128660,1,2,0:0:0:0:
256,92,128857,6,0,L|256:32,2,49.4999984893799,10|0|2,0:0|0:0|0:0,0:0:0:0:
436,192,129252,1,2,0:0:0:0:
76,192,129450,1,2,0:0:0:0:
256,292,129648,1,4,0:0:0:0:
256,192,129747,12,0,135181,0:0:0:0:
