osu file format v9

[General]
AudioFilename: papanoel.mp3
AudioLeadIn: 0
PreviewTime: 30464
Countdown: 0
SampleSet: Soft
StackLeniency: 0.7
Mode: 0
LetterboxInBreaks: 1

[Editor]
Bookmarks: 73376,202506,210099
DistanceSpacing: 0.7
BeatDivisor: 6
GridSize: 8

[Metadata]
Title:Petit Papa Noel
Artist:Trust
Creator:Sushi
Version:Facile
Source:
Tags:

[Difficulty]
HPDrainRate:1
CircleSize:3
OverallDifficulty:2
ApproachRate:3
SliderMultiplier:1
SliderTickRate:1

[Events]
//Background and Video events
0,0,"christmas-landscape-02.jpg"
//Break Periods
2,76538,89085
2,173952,178902
//Storyboard Layer 0 (Background)
//Storyboard Layer 1 (Fail)
//Storyboard Layer 2 (Pass)
//Storyboard Layer 3 (Foreground)
//Storyboard Sound Samples
//Background Colour Transformations
3,100,163,162,255

[TimingPoints]
25391,338.409475465313,4,2,1,56,1,0
41634,344.43168771527,4,2,1,56,1,0
52655,341.880341880342,4,2,1,56,1,0
58125,340.909090909091,4,2,1,56,1,0
63579,349.854227405248,4,2,1,56,1,1
73376,370.37037037037,4,2,1,56,1,0
79255,366.524129505192,4,2,1,56,1,0
89884,-200,4,2,1,56,0,0
99780,359.281437125748,4,2,1,56,1,0
102654,-100,4,2,1,20,0,0
104046,342.856697247706,4,2,1,56,1,0
115007,350.877192982456,4,2,1,56,1,1
137473,353.877192982456,4,2,1,56,1,0
139065,-100,4,2,1,32,0,0
140480,-100,4,2,1,56,0,0
141984,-100,4,2,1,45,0,0
142515,-100,4,2,1,56,0,0
148777,353.877192982456,4,2,1,56,1,0
162952,400,4,2,1,56,1,0
163052,-100,4,2,1,56,0,0
173752,-100,4,2,1,0,0,0
180342,244.071106048896,4,2,1,56,1,1
187247,-100,4,2,1,42,0,1
188102,-100,4,2,1,56,0,1
188162,239.568776202835,4,2,1,56,1,1
192953,234.192037470726,4,2,1,56,1,1
196699,226.628895184136,4,2,1,56,1,1
203043,221.255254812302,4,2,1,56,1,1
206582,214.285714285714,4,2,1,56,1,1
210010,206.008583690987,4,2,1,56,1,1
213293,198.183319570603,4,2,1,56,1,1
216463,183.795374483076,4,2,1,56,1,1
222436,-100,4,2,1,56,0,0
223227,476.190476190476,4,2,1,56,1,0

[Colours]
Combo1 : 0,255,255
Combo2 : 255,0,0
Combo3 : 0,255,0

[HitObjects]
328,184,25391,2,0,B|480:184,4,150,2|2|2|2|2
328,40,28098,2,0,B|480:40,2,150,2|2|2
256,40,29451,5,0
256,40,29790,1,0
256,40,30128,1,2
256,40,30467,1,2
184,40,30805,6,0,B|56:40|56:160,2,200,2|0|2
232,168,32836,1,0
256,240,33174,1,0
328,240,33512,6,0,B|440:240|488:128,2,200,2|0|2
184,240,35543,1,0
112,240,35881,1,0
40,240,36220,6,0,B|40:152|88:112|168:144,2,200,2|0|2
128,344,38250,1,0
200,344,38588,1,0
272,344,38927,6,0,B|384:344|432:240,1,200,2|0
472,112,40281,1,0
408,80,40619,1,8
344,112,40957,1,8
280,80,41296,1,8
208,80,41634,6,0,B|88:80|64:200,1,200,4|0
56,264,42667,1,8
88,328,43011,1,0
296,328,44045,5,8
328,264,44389,2,0,B|360:152|280:80,1,200
216,56,45422,1,8
144,56,45767,1,0
184,264,46800,5,8
240,304,47144,2,0,B|336:352|432:304,1,200
472,248,48178,1,8
488,184,48522,1,0
304,80,49555,5,8
232,80,49900,2,0,B|176:80|144:120,3,100,0|8|0|8
120,184,51278,1,0
120,320,51966,1,8
264,320,52655,6,0,B|448:320|448:112,1,300,2|8
448,64,54022,2,0,B|224:64,1,200,2|0
176,64,55048,1,8
104,64,55390,6,0,B|40:168|136:240,2,200,2|8|2
200,168,57441,1,8
248,296,58125,6,0,B|272:368|392:384|464:344|464:256,1,300,2|8
440,192,59488,2,0,B|336:168|248:232,1,200,2|0
192,272,60511,1,8
136,312,60852,6,0,B|56:216,1,100,0|8
24,184,61534,2,0,B|112:104,1,100,0|8
152,72,62215,1,0
224,72,62556,1,8
296,72,62897,1,8
360,192,63579,6,0,B|408:224|416:272,3,100,4|8|0|8
424,344,64978,1,0
352,344,65328,1,8
280,344,65678,1,0
144,344,66377,6,0,B|104:312|96:256,3,100,2|8|0|8
88,192,67777,1,0
88,120,68127,1,8
88,48,68476,1,0
232,48,69176,6,0,B|344:48|392:152,1,200,2|0
408,216,70226,1,8
400,288,70576,2,0,B|376:344|304:328,3,100,0|8|0|8
256,288,71975,6,0,B|120:288,1,100,2|8
88,288,72675,2,2,B|-8:288,2,83.3333333333333
256,192,73376,12,4,76338
256,48,90525,6,0,B|256:120,1,62.5,2|0
256,176,91716,2,0,B|256:296,2,100,2|2|2
176,192,93915,6,0,B|184:288|184:288|192:336|232:352|256:352|256:352|280:352|320:336|328:288|328:288|336:192,1,400,0|2
320,128,97581,5,0
256,96,98314,1,2
192,128,99047,1,0
256,192,99780,12,0,102654
256,32,104046,6,0,B|368:32|416:144,1,200
456,192,105074,1,8
412,247,105417,2,0,B|368:352|256:352,2,200,0|2|0
368,192,107131,5,8
296,192,107474,1,0
224,192,107817,1,8
152,192,108160,2,0,B|24:192,2,100,0|2|0
256,288,109531,6,0,B|352:336|448:288,1,200
472,224,110560,1,8
448,160,110903,2,0,B|350:115|254:163,1,200
224,224,111931,1,8
256,192,112274,12,2,114331
440,64,115007,5,4
368,64,115357,1,8
304,80,115708,1,0
248,120,116059,1,8
200,168,116410,2,0,B|112:248|176:352,1,200,2|2
312,344,117814,5,2
384,336,118164,1,8
440,296,118515,1,0
472,232,118866,1,8
480,160,119217,2,0,B|496:48|360:32,1,200,2|2
256,128,120621,6,0,B|256:336,1,200,2|0
184,328,121673,1,8
112,328,122024,2,0,B|112:128,1,200
232,48,123428,5,2
280,104,123778,1,8
232,152,124129,1,0
280,208,124480,1,8
232,256,124831,2,0,B|144:344|56:256,1,200
56,120,126235,5,4
112,72,126585,2,0,B|216:72,2,100,8|0|8
56,24,127638,2,0,B|-40:112|56:200,1,200
152,296,129042,5,2
224,296,129392,2,0,B|264:336|320:312,2,100,8|0|8
224,224,130445,2,0,B|224:104|352:104,1,200,2|2
424,104,131498,5,8
424,176,131849,2,0,B|424:280|320:336,1,200,2|0
252,352,132901,1,8
184,336,133252,2,0,B|81:280|81:176,1,200,0|0
128,120,134305,5,8
104,56,134656,2,0,B|408:56,1,300,2|8
472,56,136059,6,2,B|472:304|248:344,1,400,2|4
176,344,137826,2,0,B|168:248|136:144,1,200,8|8
16,72,139242,5,2
16,152,139596,1,2
16,232,139950,1,2
16,312,140304,1,6
88,312,140657,6,0,B|192:312,3,100,8|0|8|0
256,312,142073,1,8
328,312,142427,1,0
400,312,142781,6,0,B|400:96,2,200,8|8|8
256,312,144904,2,0,B|56:312,2,200,8|8|8
256,240,146673,1,0
256,168,147027,1,8
256,192,147381,12,0,148777
256,48,149484,5,0
328,48,149838,1,8
400,48,150192,2,0,B|504:48,2,100,0|8|0
432,184,151608,6,0,B|432:296|320:336,1,200
256,360,152669,1,8
188,334,153023,2,2,B|80:296|80:152|176:96,1,300,2|8
240,72,154439,5,0
312,72,154792,2,0,B|416:72|456:192,3,200,8|8|8|8
472,256,157270,1,2
288,352,158331,5,8
216,352,158685,2,2,B|56:352,2,150
216,280,160101,5,4
216,144,160808,1,8
216,144,161162,1,8
216,144,161516,5,4
360,144,162224,1,8
360,144,162578,1,8
360,144,162952,5,4
360,216,163352,2,0,B|360:272,5,50,8|0|8|0|8|0
256,192,164552,12,0,173752
256,48,180342,6,0,B|368:48|408:160,2,200,0|8|0
256,184,181806,1,0
256,256,182050,1,8
256,328,182294,6,0,B|144:328|104:216,2,200,0|8|0
384,272,183758,1,0
408,208,184003,1,8
384,144,184247,6,0,B|304:72|192:96,2,200,0|8|0
280,240,185711,1,8
144,240,186199,6,0,B|16:240|0:128,1,200,0|8
112,48,187175,2,0,B|216:48,3,100,0|8|8|8
288,48,188162,6,0,B|496:48|496:240|288:240,1,400,4|0
256,104,189599,1,8
219,239,190078,6,0,B|16:240|16:48|224:48,1,400
256,184,191515,1,8
16,328,192474,5,8
16,48,193421,6,0,B|224:48,1,200,8|0
360,48,194358,1,8
360,184,194826,1,0
360,184,195060,1,8
360,184,195294,1,8
360,328,195763,6,0,B|56:328,1,300,0|8
56,256,196699,2,0,B|360:256,1,300,0|8
352,184,197605,6,0,B|312:64|192:88,3,200,0|8|0|8
200,160,199191,1,8
200,232,199418,6,0,B|88:254|48:134,3,200,0|8|0|8
72,72,201004,1,8
136,40,201231,6,0,B|256:8|416:24|480:128|480:280|424:336|320:352,1,600,0|8
192,368,203043,5,4
80,112,203928,1,2
352,56,204813,6,0,B|440:104|472:216,2,200,0|8|0
256,160,206140,1,8
160,264,206582,6,0,B|72:216|40:96,2,200,0|8|0
256,160,207867,1,8
392,200,208296,5,0
368,264,208510,1,8
312,304,208724,1,0
240,312,208939,1,8
176,296,209153,1,0
360,72,210010,6,0,B|480:104|511:215|480:328|360:360,2,400,4|2|2
288,192,212070,1,8
152,192,212482,1,2
440,192,213293,6,0,B|408:72|297:41|184:72|152:192,2,400,2|8|2
360,304,215274,1,8
216,304,215671,1,8
256,192,216463,12,4,222436
