osu file format v9

[General]
AudioFilename: papanoel.mp3
AudioLeadIn: 0
PreviewTime: 30464
Countdown: 0
SampleSet: Soft
StackLeniency: 0.7
Mode: 0
LetterboxInBreaks: 1

[Editor]
Bookmarks: 73376,202506,210099
DistanceSpacing: 1.8
BeatDivisor: 2
GridSize: 8

[Metadata]
Title:Petit Papa Noel
Artist:Trust
Creator:Sushi
Version:Extreme
Source:
Tags:

[Difficulty]
HPDrainRate:6
CircleSize:4
OverallDifficulty:8
ApproachRate:8
SliderMultiplier:1.6
SliderTickRate:2

[Events]
//Background and Video events
0,0,"christmas-landscape-02.jpg"
//Break Periods
2,76538,89775
2,173952,179592
//Storyboard Layer 0 (Background)
//Storyboard Layer 1 (Fail)
//Storyboard Layer 2 (Pass)
//Storyboard Layer 3 (Foreground)
//Storyboard Sound Samples
//Background Colour Transformations
3,100,163,162,255

[TimingPoints]
25391,338.409475465313,4,2,1,56,1,0
41634,344.43168771527,4,2,1,56,1,0
52655,341.880341880342,4,2,1,56,1,0
58125,340.909090909091,4,2,1,56,1,0
63579,349.854227405248,4,2,1,56,1,1
73376,370.37037037037,4,2,1,56,1,0
79255,366.524129505192,4,2,1,56,1,0
89884,-200,4,2,1,56,0,0
99780,359.281437125748,4,2,1,56,1,0
102654,-100,4,2,1,20,0,0
103552,-100,4,2,1,79,0,0
104046,342.856697247706,4,2,1,56,1,0
115007,350.877192982456,4,2,1,56,1,1
137473,353.877192982456,4,2,1,56,1,0
139065,-100,4,2,1,32,0,0
140480,-100,4,2,1,56,0,0
141984,-100,4,2,1,45,0,0
142515,-100,4,2,1,56,0,0
148777,353.877192982456,4,2,1,56,1,0
162952,400,4,2,1,56,1,0
163052,-100,4,2,1,56,0,0
173752,-100,4,2,1,0,0,0
180342,244.071106048896,4,2,1,56,1,1
187247,-100,4,2,1,42,0,1
188102,-100,4,2,1,56,0,1
188162,239.568776202835,4,2,1,56,1,1
192953,234.192037470726,4,2,1,56,1,1
196699,226.628895184136,4,2,1,56,1,1
203043,221.255254812302,4,2,1,56,1,1
206582,214.285714285714,4,2,1,56,1,1
210010,206.008583690987,4,2,1,56,1,1
213293,198.183319570603,4,2,1,56,1,1
216463,183.795374483076,4,2,1,56,1,1
222436,-100,4,2,1,56,0,0
223227,476.190476190476,4,2,1,56,1,0

[Colours]
Combo1 : 0,255,255
Combo2 : 255,0,0
Combo3 : 0,255,0

[HitObjects]
256,48,25052,1,0
256,48,25221,1,0
256,48,25391,2,0,B|344:48|376:136,1,160,2|0
400,256,25898,2,0,B|312:256|272:176,1,160,2|0
328,72,26406,2,0,B|416:72|448:160,1,160,2|0
480,280,26913,2,0,B|392:280|352:200,1,160,2|0
280,104,27421,5,2
176,40,27590,1,2
56,56,27759,1,0
24,168,27929,1,0
88,272,28098,2,0,B|128:368|224:352,1,160,2|0
328,328,28605,2,0,B|288:232|192:248,1,160,2|0
120,160,29113,1,2
256,48,29451,5,2
256,48,29790,1,2
256,48,30128,1,2
256,48,30467,1,2
64,192,30805,5,0
256,336,31143,1,0
448,192,31482,1,0
256,48,31820,2,0,B|256:208,1,160,2|0
200,312,32328,5,2
88,272,32497,1,0
40,160,32666,1,0
88,48,32836,1,2
440,168,33174,5,2
488,280,33343,1,0
368,264,33512,1,0
128,224,33851,1,0
368,192,34189,1,2
128,152,34528,2,0,B|47:143|44:80|128:72,1,160
240,88,35035,5,2
336,160,35204,1,0
256,248,35374,1,0
352,320,35543,1,2
64,256,35881,5,2
40,136,36050,1,0
152,184,36220,2,0,B|229:226|304:184,2,160,2|0|2
96,80,37066,1,0
200,24,37235,1,0
256,128,37404,1,2
352,64,37573,2,0,B|440:32|496:112,2,160,0|2|0
88,304,38588,5,2
192,248,38758,1,0
120,152,38927,2,0,B|53:77|147:22,2,160,0|0|2
240,176,39773,1,0
352,128,39942,1,0
456,184,40111,1,2
432,304,40281,1,0
328,360,40450,5,8
328,360,40619,1,8
200,320,40788,1,0
320,256,40957,1,8
280,128,41127,1,8
176,48,41296,2,0,B|128:48|104:88,1,80
32,264,41634,6,0,B|72:352|176:304,1,160,4|8
264,240,42150,1,0
336,144,42322,1,0
80,48,42667,1,8
40,320,43011,1,0
152,352,43183,5,2
272,368,43356,2,0,B|312:360|344:328,1,80,8|0
456,352,43700,2,0,B|520:296|508:207,1,160,2|8
508,208,44217,1,0
376,32,44389,5,0
96,104,44733,1,8
384,128,45078,1,0
120,16,45422,1,8
336,208,45767,1,0
432,280,45939,5,0
320,328,46111,2,0,B|232:352|144:304,1,160,10|0
40,64,46800,6,0,B|120:40|200:64,2,160,8|0|8
40,184,47661,1,0
136,256,47833,1,0
168,144,48005,1,0
256,224,48178,1,8
344,144,48350,1,0
376,256,48522,2,0,B|392:352|288:360,2,160,0|8|0
112,72,49555,6,0,B|32:104|64:216,2,160,8|0|8
224,128,50417,1,0
328,64,50589,2,0,B|408:32,1,80
328,128,50933,2,0,B|408:120,1,80,8|0
312,192,51278,6,0,B|416:200|416:296,2,160,0|8|0
256,296,52139,1,8
256,296,52311,1,8
256,296,52483,1,8
96,344,52655,6,0,B|16:376,2,80,0|0|8
64,240,53167,1,0
168,184,53338,6,0,B|96:144|72:48,1,160,0|8
256,32,53851,1,0
296,144,54022,2,0,B|368:184|392:280,1,160,0|8
200,304,54535,1,2
160,192,54706,2,0,B|88:152|64:56,1,160,0|8
304,48,55390,5,0
416,80,55560,1,0
464,192,55731,1,8
416,304,55902,1,0
304,336,56073,2,0,B|224:360|144:336,1,160,0|8
80,240,56586,1,0
144,136,56757,6,0,B|221:112|301:136,2,160,0|8|0
144,136,57612,1,2
144,136,57783,1,8
256,352,58125,5,0
368,312,58295,1,0
320,200,58465,1,8
208,240,58636,1,0
320,272,58806,2,0,B|424:232|376:152|344:136,1,160,0|8
256,88,59318,1,0
151,148,59488,2,0,B|136:152|88:232|192:272,1,160,0|8
256,368,59999,1,0
256,248,60170,2,0,B|256:80,1,160,0|8
152,360,60852,5,0
96,232,61022,1,0
128,88,61193,1,8
256,24,61363,1,0
384,88,61534,2,0,B|456:152|416:240,1,160,0|8
360,360,62045,1,0
256,264,62215,5,0
104,24,62556,1,8
408,24,62897,1,8
256,264,63238,5,0
256,264,63579,2,0,B|184:324|112:264,1,160,4|8
344,72,64278,2,0,B|416:12|488:72,1,160,0|8
256,264,64978,1,0
144,304,65153,1,2
40,240,65328,1,8
56,120,65503,1,8
144,40,65678,2,0,B|224:0|296:48,1,160,0|8
392,120,66202,1,0
392,240,66377,6,0,B|344:312|256:312,1,160,2|8
8,136,67077,2,0,B|56:64|144:64,1,160,0|8
392,240,67777,2,0,B|344:312|256:312,2,160,0|8|0
256,40,68826,5,8
72,192,69176,2,0,B|72:280|144:328,1,160,2|8
264,328,69701,1,0
376,288,69876,1,2
264,256,70051,1,0
336,352,70226,1,8
328,232,70401,1,0
328,112,70576,2,0,B|256:48|184:112,2,160,0|8|0
256,344,71625,5,8
144,312,71800,1,0
80,208,71975,2,0,B|16:136|72:64,1,160,2|8
168,136,72500,1,0
256,216,72675,2,2,B|312:272|400:240,2,133.333333333333
256,192,73376,8,4,76338
336,104,90525,6,0,B|312:48|256:48,1,100,0|2
144,88,91350,1,0
88,192,91716,1,0
144,296,92083,1,0
256,344,92449,2,0,B|349:345|392:264,1,160,2|0
392,112,93549,5,2
344,72,93732,1,0
288,48,93915,2,0,B|200:16|136:80,3,160,0|2|0|2
256,216,96664,5,0
224,264,96848,1,2
120,320,97214,1,0
32,240,97581,1,2
48,120,97947,2,0,B|120:56|192:112,2,160,0|2|0
256,192,99780,8,0,102654
256,192,103013,5,0
256,192,103372,1,0
256,192,103732,1,0
88,48,104046,5,0
48,160,104217,1,0
88,272,104388,1,8
184,344,104560,1,0
304,360,104731,2,0,B|400:376|424:280,1,160,0|8
304,288,105245,1,0
184,296,105417,2,0,B|207:202|303:218,1,160,0|8
248,328,105931,1,2
128,352,106103,2,0,B|48:320|48:224,1,160,2|8
352,64,106788,5,0
432,152,106960,1,0
360,248,107131,1,8
248,208,107303,1,0
240,88,107474,2,0,B|144:56|96:120,1,160,0|8
48,232,107988,1,0
72,352,108160,1,0
472,192,108503,5,2
472,192,108845,1,2
256,24,109188,6,0,B|256:184,1,160,8|2
216,296,109703,1,0
104,344,109874,1,8
8,280,110045,1,0
40,168,110217,2,0,B|72:64|160:120,1,160,0|8
256,192,110731,1,0
352,264,110903,2,0,B|440:320|472:216,1,160,2|8
376,144,111417,1,0
272,80,111588,2,0,B|176:48|144:136,1,160,0|8
256,352,112274,6,0,B|344:352|408:288,1,160,0|8
288,208,112788,1,0
256,352,112960,2,0,B|168:352|104:288,1,160,0|8
224,208,113474,1,0
256,72,113645,5,0
88,352,113988,1,8
424,352,114331,1,2
488,248,114503,5,8
464,128,114674,1,8
368,56,114845,1,8
256,72,115007,6,0,B|160:88|176:192,1,160,4|8
408,368,115708,2,0,B|504:352|488:248,1,160,0|8
256,72,116410,1,0
136,56,116585,1,2
48,136,116761,1,8
56,256,116936,1,8
144,336,117112,2,0,B|232:368|296:288,1,160,0|8
192,224,117638,5,0
96,152,117814,2,0,B|72:88|144:48|192:104,1,160,2|8
440,272,118515,2,0,B|464:336|392:376|344:320,1,160,0|8
96,152,119217,2,0,B|72:88|144:48|192:104,2,160,0|8|0
256,328,120270,5,8
456,192,120621,2,0,B|432:96|352:80,1,160,2|8
112,56,121322,1,0
40,152,121498,1,0
144,216,121673,1,8
72,312,121849,1,0
184,360,122024,2,0,B|256:296|328:360,2,160,0|8|0
72,312,122901,1,0
64,136,123077,5,8
144,48,123252,1,0
216,144,123428,2,0,B|294:186|368:144,1,160,2|8
440,48,123954,1,0
480,160,124129,1,2
440,272,124305,1,0
328,312,124480,1,8
208,288,124656,6,0,B|120:272|88:192,1,160
48,80,125182,2,0,B|136:104|168:176,1,160,8|0
168,176,125884,1,8
472,40,126235,6,0,B|520:112|496:192,1,160,4|8
312,40,126936,2,0,B|264:112|288:192,1,160,0|8
392,248,127463,2,0,B|392:88,1,160
392,88,127989,1,8
152,88,128340,1,0
64,168,128515,6,2,B|32:256|120:312,1,160,2|0
224,360,129042,2,0,B|256:272|168:216,2,160,2|8|0
208,120,130094,1,8
320,80,130270,2,0,B|376:32|440:72|416:136,1,160
312,184,130796,2,0,B|239:244|168:184,1,160,8|0
167,183,131498,5,0
368,320,131849,2,0,B|432:248|368:176,1,160,4|8
288,88,132375,1,0
184,32,132550,1,0
64,56,132726,1,0
8,160,132901,1,8
56,272,133077,1,0
160,336,133252,2,0,B|256:368|296:272,2,160,0|8|0
360,48,134305,5,8
496,248,134656,2,0,B|448:328|352:296,1,160,0|8
256,240,135182,1,0
160,168,135357,1,2
48,216,135533,1,0
88,328,135708,1,8
256,192,136059,8,4,137473
256,24,137826,6,0,B|464:24|464:216,1,320,8|8
463,211,138711,1,0
16,72,139242,5,2
16,152,139596,1,2
16,232,139950,1,2
16,312,140304,1,6
368,120,140657,6,0,B|424:192|368:272,2,160,8|0|8
280,40,141542,2,0,B|240:120|304:192,1,160
300,188,142073,1,2
300,188,142427,1,2
248,296,142604,6,2,B|177:356|104:296,1,160,2|2
56,184,143135,1,0
72,64,143311,1,0
168,136,143488,1,8
168,136,143665,2,0,B|240:264|392:224,1,240,0|8
369,229,144373,1,0
416,48,144550,6,0,B|296:48|328:144,1,160,0|8
448,112,145081,2,0,B|448:272,1,160
326,243,145612,2,0,B|296:336|416:336,1,160,8|0
96,192,146319,5,8
336,53,146673,1,0
336,330,147027,1,8
336,330,147204,1,0
256,192,147381,8,0,148777
256,48,149130,6,0,B|360:48|400:112,2,160,8|0|8
40,152,150192,1,0
256,256,150546,1,8
472,152,150900,1,0
376,80,151077,6,2,B|328:48|272:120|224:80,1,160
112,40,151608,1,0
24,120,151784,1,0
64,232,151961,2,0,B|112:296|208:296,1,160,8|0
320,272,152492,1,0
400,184,152669,1,8
344,80,152846,1,0
224,64,153023,6,2,B|64:0|-67:143|64:288|224:224,1,480,2|8
344,248,154262,5,0
448,192,154439,2,0,B|512:120|448:48,2,160,0|8|0
344,248,155323,1,0
240,192,155500,1,8
136,248,155677,2,0,B|32:296|64:400|192:360,1,240,0|8
304,328,156385,1,0
80,48,156916,5,8
80,48,157270,2,0,B|48:136|120:192,2,160,0|8|0
184,104,158154,1,0
256,200,158331,1,8
360,264,158508,1,0
464,200,158685,2,0,B|512:128|464:48,1,160,0|8
392,152,159216,2,6,B|352:272|256:337|160:272|120:152,1,400,6|4
296,64,160454,6,0,B|344:32,2,53.3333333333333,8|0|0
216,64,160808,2,0,B|168:32,2,53.3333333333333,8|0|0
256,136,161162,2,0,B|256:208,3,53.3333333333333,8|0|0|4
88,288,161870,5,8
176,328,162047,2,0,B|176:376,2,40,2|0|0
264,288,162401,1,8
264,288,162578,1,8
176,248,162755,1,0
176,152,162952,1,4
352,64,163352,6,0,B|408:128,1,80,8|0
480,176,163752,2,0,B|440:248,1,80,8|0
464,344,164152,2,0,B|376:352,1,80,8|0
256,192,164552,8,0,173752
256,56,180342,6,0,B|352:56|352:160,2,160,0|8|0
136,104,181074,1,8
64,216,181318,2,0,B|63:317|159:317,2,160,0|8|0
168,144,182050,1,8
288,96,182294,6,0,B|392:96|392:200,1,160,0|8
352,240,182660,2,0,B|280:304|208:240,1,160
240,184,183026,2,0,B|168:120|96:184,1,160,8|0
24,288,183514,1,8
136,344,183758,1,0
264,336,184003,6,0,B|368:312|352:168|272:128|184:176,1,320,8|8
88,240,184735,1,0
80,112,184979,1,8
176,32,185223,2,0,B|336:32,2,160,0|8|0
256,256,185955,5,8
256,256,186199,1,0
400,104,186443,1,8
400,104,186687,1,0
136,104,186931,1,8
136,104,187175,5,0
144,136,187298,1,8
160,168,187420,1,8
184,192,187542,1,8
208,216,187664,1,8
240,224,187786,1,8
272,232,187908,1,0
304,232,188030,1,0
336,224,188162,6,0,B|414:176|390:82,1,160,4|8
344,48,188521,1,0
216,48,188760,1,0
152,56,188880,1,8
96,88,189000,1,0
56,136,189120,2,0,B|0:214|32:291,1,160,0|8
80,328,189479,1,0
272,352,189838,6,0,B|358:369|416:305,1,160,8|0
384,248,190198,2,0,B|264:200|150:245,1,240
96,128,190797,1,8
144,88,190917,2,0,B|257:43|378:89,1,240,0|8
432,208,191515,1,0
376,320,191755,5,8
248,320,191995,2,0,B|168:312|127:224,2,160,0|8|0
224,192,192713,1,8
344,240,192953,1,0
320,112,193187,2,0,B|400:136|416:232,2,160,8|0|8
256,96,193772,6,0,B|179:72|84:135|72:216,1,240,0|8
48,336,194358,1,0
176,336,194592,1,8
240,336,194709,2,0,B|328:336|400:264|400:184,1,240,0|8
400,64,195294,1,0
272,48,195529,5,8
144,48,195763,2,0,B|104:112|152:144|112:208,2,160,4|8|0
272,160,196465,1,8
408,160,196699,2,0,B|448:224|400:256|440:320,2,160,0|8|0
304,88,197378,5,8
176,88,197605,2,0,B|88:128|104:224,1,160,0|8
112,280,197945,2,0,B|196:379|388:379|468:275,1,400
456,152,198738,1,8
360,240,198965,2,0,B|282:282|207:240,2,160,0|8|0
456,152,199645,5,8
408,104,199758,2,0,B|368:48|224:48|184:104,1,240,0|8
80,192,200325,2,0,B|-8:256|80:320,2,160,0|8|0
184,288,201004,6,0,B|256:352|328:288,1,160,8|0
384,160,201458,1,8
384,88,201571,2,0,B|272:8|160:88,1,240,0|8
56,184,202138,1,0
136,304,202364,1,8
272,344,202591,1,8
400,288,202817,1,8
440,144,203043,6,0,B|368:56|240:40|144:96,3,320,4|0|0|0
24,160,204591,1,8
120,264,204813,6,0,B|192:352|320:368|416:312,3,320
472,184,206361,1,8
344,72,206582,6,0,B|232:16|112:96,1,240,0|8
240,192,207117,1,0
240,192,207224,1,8
368,296,207439,6,0,B|252:372|140:316,1,240,0|8
240,192,207974,1,0
240,192,208081,1,8
336,88,208296,5,0
432,192,208510,1,8
336,296,208724,1,0
240,192,208939,1,8
112,120,209153,2,0,B|52:193|112:264,2,160,0|8|8
256,96,209796,5,8
384,48,210010,2,0,B|512:136|512:216|392:304,1,320,4|0
256,336,210628,1,8
113,299,210834,2,0,B|0:216|0:136|128:48,1,320
256,96,211452,6,0,B|400:176,1,160,8|0
256,96,211864,2,0,B|112:176,1,160,8|0
256,96,212276,2,0,B|256:256,3,160,8|0|8|0
152,328,213100,5,8
152,328,213293,1,0
80,224,213491,1,8
80,224,213689,1,0
80,112,213887,1,8
80,112,214085,2,0,B|88:16|208:32,2,160,0|8|0
184,160,214680,5,8
296,160,214878,2,0,B|376:160|432:256,4,160,0|8|0|8|0
24,120,216463,6,0,B|32:352|480:352|488:120,3,640
256,192,219403,12,4,222436
