osu file format v9

[General]
AudioFilename: papanoel.mp3
AudioLeadIn: 0
PreviewTime: 30464
Countdown: 0
SampleSet: Soft
StackLeniency: 0.7
Mode: 0
LetterboxInBreaks: 1

[Editor]
Bookmarks: 73376,202506,210099
DistanceSpacing: 0.6
BeatDivisor: 6
GridSize: 8

[Metadata]
Title:Petit Papa Noel
Artist:Trust
Creator:Sushi
Version:Difficile
Source:
Tags:

[Difficulty]
HPDrainRate:4
CircleSize:4
OverallDifficulty:5
ApproachRate:6
SliderMultiplier:1.4
SliderTickRate:2

[Events]
//Background and Video events
0,0,"christmas-landscape-02.jpg"
//Break Periods
2,76538,89475
2,173952,179292
//Storyboard Layer 0 (Background)
//Storyboard Layer 1 (Fail)
//Storyboard Layer 2 (Pass)
//Storyboard Layer 3 (Foreground)
//Storyboard Sound Samples
//Background Colour Transformations
3,100,163,162,255

[TimingPoints]
25391,338.409475465313,4,2,1,56,1,0
41634,344.43168771527,4,2,1,56,1,0
52655,341.880341880342,4,2,1,56,1,0
58125,340.909090909091,4,2,1,56,1,0
63579,349.854227405248,4,2,1,56,1,1
73376,370.37037037037,4,2,1,56,1,0
79255,366.524129505192,4,2,1,56,1,0
89884,-200,4,2,1,56,0,0
99780,359.281437125748,4,2,1,56,1,0
102654,-100,4,2,1,20,0,0
104046,342.856697247706,4,2,1,56,1,0
115007,350.877192982456,4,2,1,56,1,1
137473,353.877192982456,4,2,1,56,1,0
139065,-100,4,2,1,32,0,0
140480,-100,4,2,1,56,0,0
141984,-100,4,2,1,45,0,0
142515,-100,4,2,1,56,0,0
148777,353.877192982456,4,2,1,56,1,0
162952,400,4,2,1,56,1,0
163052,-100,4,2,1,56,0,0
173752,-100,4,2,1,0,0,0
180342,244.071106048896,4,2,1,56,1,1
187247,-100,4,2,1,42,0,1
188102,-100,4,2,1,56,0,1
188162,239.568776202835,4,2,1,56,1,1
192953,234.192037470726,4,2,1,56,1,1
196699,226.628895184136,4,2,1,56,1,1
203043,221.255254812302,4,2,1,56,1,1
206582,214.285714285714,4,2,1,56,1,1
210010,206.008583690987,4,2,1,56,1,1
213293,198.183319570603,4,2,1,56,1,1
216463,183.795374483076,4,2,1,56,1,1
222436,-100,4,2,1,56,0,0
223227,476.190476190476,4,2,1,56,1,0

[Colours]
Combo1 : 0,255,255
Combo2 : 255,0,0
Combo3 : 0,255,0

[HitObjects]
320,144,25052,1,0
320,144,25221,1,0
320,144,25390,2,0,B|432:160|480:272,2,210,2|2|2
320,312,26913,2,0,B|208:296|160:184,1,210,2|2
104,96,27759,1,0
208,136,28098,6,0,B|320:152|369:255,2,210,2|2|2
256,32,29451,5,0
256,32,29790,1,0
256,32,30128,1,2
256,32,30467,1,2
368,32,30805,5,0
480,32,31143,1,2
480,144,31482,2,0,B|480:296,2,140,0|2|0
216,352,33174,5,2
160,352,33343,1,0
104,352,33512,1,0
40,264,33851,1,2
104,168,34189,2,0,B|160:93|216:168,2,140,0|2|0
392,344,35881,5,2
424,296,36050,1,0
440,240,36220,2,0,B|480:104|392:56|296:64,1,280
184,72,37235,1,2
80,120,37573,1,0
120,344,38588,5,0
88,296,38757,1,0
72,240,38927,2,0,B|32:104|120:56|216:64,1,280,2|0
328,72,39942,1,2
432,120,40281,2,0,B|464:200,4,70,0|8|8|0|8
320,144,41296,5,8
216,96,41634,2,0,B|144:144|176:224,1,140,4|8
272,272,42322,1,0
384,264,42667,1,8
488,224,43011,2,0,B|512:192|504:152,3,70,0|2|8|0
488,104,43700,2,0,B|472:56|416:40|368:64,1,140,2|8
320,80,44217,5,0
272,104,44389,2,0,B|120:168,1,140,0|8
240,280,45078,2,0,B|392:216,1,140,0|8
272,104,45767,1,0
272,104,45939,2,0,B|176:8|88:96,1,210,2|0
24,184,46800,5,8
24,296,47144,2,0,B|240:296,1,210
288,296,47833,1,2
400,296,48178,1,8
448,272,48350,1,0
472,224,48522,2,0,B|504:144|448:96,2,140,0|8|0
376,168,49555,5,8
288,96,49900,2,0,B|219:71|152:96,1,140,0|8
120,144,50417,1,0
152,192,50589,2,0,B|221:217|288:192,1,140,0|8
320,144,51105,1,0
352,96,51278,2,0,B|384:32|480:48,3,140,0|8|8|8
472,160,52655,5,0
464,216,52825,1,0
440,264,52996,2,0,B|400:336|320:312,1,140,8|0
160,256,53851,1,0
160,256,54022,1,2
320,200,54535,1,2
320,200,54706,2,0,B|456:144,1,140,2|8
392,48,55390,5,0
336,48,55560,1,0
280,64,55731,1,8
240,104,55902,1,0
200,144,56073,2,0,B|144:192|64:176,2,140,0|8|0
256,240,57099,1,8
256,240,57441,1,0
256,240,57783,1,8
344,304,58125,6,0,B|432:288|432:192,1,140,0|8
432,152,58636,1,0
432,96,58806,2,0,B|432:17|344:8,1,140,0|8
256,80,59488,2,2,B|256:368,1,280,2|0
256,360,60511,1,8
144,360,60852,5,0
96,336,61022,1,0
64,296,61193,1,8
48,240,61363,1,0
56,184,61534,2,0,B|96:112|176:144,1,140,0|8
256,224,62215,5,0
384,112,62556,5,8
408,280,62897,5,8
256,224,63238,5,8
216,112,63579,2,0,B|128:112|128:200,1,140,4|8
192,304,64278,1,0
320,304,64628,1,8
256,192,64978,1,0
256,128,65153,1,0
256,64,65328,2,0,B|320:16|384:64,1,140,8|0
320,176,66027,5,8
256,192,66202,1,0
192,208,66377,2,0,B|112:232|104:304,1,140,2|8
224,352,67077,1,0
344,328,67427,1,8
424,232,67777,2,0,B|472:168|424:104,2,140,0|8|0
328,144,68826,1,8
256,40,69176,6,0,B|128:40|128:176,1,210,2|0
128,232,69876,1,0
176,352,70226,1,8
232,376,70401,1,0
288,352,70576,2,0,B|352:304|416:352,2,140,0|8|0
224,248,71625,5,8
176,208,71800,1,0
136,160,71975,2,0,B|74:99|157:9|235:65,1,210,2|2
276,105,72675,2,0,B|317:145|400:144,2,116.666666666667,2|2|2
256,192,73376,12,4,76338
256,144,90525,6,0,B|256:240,1,87.5,2|0
256,288,91350,1,2
216,328,91716,1,0
160,328,92083,1,2
120,288,92449,2,0,B|72:232|120:160,1,140,0|0
152,112,93549,5,2
192,72,93915,2,0,B|264:40|336:88,3,140,0|2|0|2
384,176,96848,5,2
408,224,97214,1,0
400,280,97581,1,0
360,320,97947,2,0,B|304:376|224:336,2,140,2|0|2
256,192,99780,12,0,102654
272,80,104046,5,0
328,64,104217,1,0
384,80,104388,2,0,B|456:112|464:192,2,140,8|0|8
312,168,105417,2,0,B|312:304|168:304,1,210,2|2
185,303,106103,1,0
72,304,106445,1,8
72,192,106788,5,0
64,136,106960,1,0
96,88,107131,1,8
168,24,107474,2,0,B|248:24|272:120,2,140,0|8|0
168,136,108503,1,2
168,136,108845,1,0
168,248,109188,6,0,B|264:368,1,140,8|0
312,360,109703,1,0
368,360,109874,2,0,B|455:250,1,140,8|0
432,144,110560,1,8
384,112,110731,1,0
336,80,110903,2,0,B|240:32|128:88,1,210,2|2
88,120,111588,1,0
32,216,111931,1,8
128,272,112274,6,0,B|304:272,1,140,0|8
304,232,112788,1,0
360,232,112960,2,0,B|400:96,1,140,0|8
384,48,113474,1,0
328,56,113645,2,0,B|184:56,2,140,0|8|8
256,144,114674,5,8
256,144,115007,2,0,B|256:288,1,140,4|8
168,176,115708,2,0,B|168:320,1,140,0|8
80,208,116410,1,0
80,348,116761,1,8
80,348,116936,1,8
80,348,117112,2,0,B|80:188,1,140,0|8
80,64,117814,6,0,B|240:64,1,140,2|8
104,144,118515,2,0,B|256:144,1,140,0|8
128,224,119217,2,0,B|288:224,2,140,0|8|0
48,336,120270,1,8
192,336,120621,6,2,B|368:336|368:160,1,280,2|2
304,40,121673,1,8
232,40,121849,1,0
160,40,122024,2,0,B|16:40,2,140,0|8|0
160,112,122901,5,0
160,112,123077,1,8
160,112,123252,1,0
160,112,123428,2,0,B|160:200|248:200,2,140,2|8|0
304,112,124480,1,8
304,112,124656,2,0,B|440:112|480:200|464:296|352:336,1,350,0|0
224,344,125884,5,8
88,328,126235,1,4
24,208,126585,1,8
56,72,126936,2,0,B|112:24|192:24,1,140,0|8
256,24,127463,1,0
327,24,127638,2,0,B|400:24|456:72,1,140,0|8
456,216,128340,1,0
456,288,128515,6,2,B|456:384|360:336,1,140
304,296,129042,2,0,B|160:296,3,140,0|8|0|8
104,264,130270,2,0,B|-32:192|48:16|208:88,1,350
344,64,131498,5,8
448,160,131849,2,2,B|504:296|376:320,1,210
312,320,132550,1,0
168,320,132901,1,8
104,304,133077,1,0
64,248,133252,2,0,B|32:176|88:104,2,140,0|8|0
192,192,134305,5,8
256,64,134656,2,2,B|384:136|280:256,1,210
256,296,135357,1,2
192,328,135533,1,0
120,320,135708,1,8
256,192,136059,12,4,137463
360,208,137826,6,2,B|360:40|176:40,1,280,2|8
181,40,138711,1,0
16,72,139242,5,2
16,152,139596,1,2
16,232,139950,1,2
16,312,140304,1,6
112,368,140657,5,8
224,368,141011,1,0
336,368,141365,1,8
336,368,141542,2,0,B|488:368|488:256,1,210,0|8
488,152,142427,5,0
488,152,142604,2,2,B|488:80|440:16|352:16,1,210
256,56,143488,1,8
256,56,143665,2,0,B|256:280,1,210,0|8
248,320,144373,1,0
208,360,144550,1,0
96,360,144904,5,8
96,360,145081,1,0
96,360,145258,2,0,B|96:216,2,140,0|8|0
184,288,146319,1,8
184,176,146673,1,0
184,64,147027,1,8
256,192,147204,12,0,148777
256,192,149130,6,0,B|256:336,2,140,8|0|8
256,80,150192,1,0
368,80,150546,2,0,B|456:80|456:168,1,140,8|0
456,224,151077,6,2,B|456:312|376:328,1,140
328,328,151608,1,0
216,328,151961,1,8
104,328,152315,2,0,B|-32:328|-32:176|104:176,2,280,0|2|0
256,160,154262,5,2
256,160,154439,1,0
256,48,154792,2,0,B|408:48|408:264|256:264,2,350,8|2|0
256,160,156916,5,8
168,88,157270,2,0,B|168:232,2,140,0|8|0
168,32,158154,1,0
224,32,158331,1,8
280,32,158508,1,0
336,32,158685,2,0,B|480:32|480:160,2,210,2|2|2
336,144,160101,1,4
336,256,160454,6,0,B|336:368|128:368|24:240|104:144,1,420,2|2
176,64,161870,1,8
232,64,162047,1,0
288,64,162224,1,0
264,112,162401,1,8
232,160,162578,1,8
288,160,162755,1,0
336,160,162952,6,0,B|480:160,1,140,4|8
480,216,163552,1,0
480,272,163752,2,0,B|480:352,2,70,8|0|8
424,272,164352,1,0
256,192,164552,12,0,173752
256,64,180342,6,0,B|432:64|432:240,1,280
432,320,181074,1,8
352,320,181318,2,0,B|176:320|176:144,1,280,0|0
176,64,182050,1,8
96,64,182294,6,0,B|32:208|120:336,2,280
264,64,183758,1,0
264,64,184003,1,8
264,64,184247,6,0,B|464:64|408:240,3,280
360,304,185955,2,0,B|216:304,1,140,8|0
176,232,186443,2,0,B|336:232,1,140,8|0
352,160,186931,2,0,B|184:160,1,140,8|0
212,160,187420,5,8
212,160,187664,1,8
212,160,187908,1,8
120,160,188162,6,0,B|16:160|16:272|120:272,1,210,0|8
240,272,188880,1,8
240,272,189120,2,0,B|344:272|344:384|240:384,1,210,0|8
120,376,189838,6,2,B|0:376|0:232,4,210,2|2|2|2|8
208,376,191515,1,0
416,232,192234,1,8
328,232,192474,1,0
112,104,193187,1,8
192,104,193421,1,0
320,104,193772,6,0,B|400:96|472:136|432:232,1,210,0|8
384,288,194358,2,0,B|328:344|248:312,1,140,0|8
255,314,194709,1,0
96,64,195529,6,0,B|224:144,1,140,8|0
448,48,196465,2,0,B|400:184,1,140,8|0
192,312,197378,6,0,B|320:240,2,140,8|0|8
152,312,197945,2,0,B|16:272|16:104|152:56,1,350
320,312,199191,6,0,B|192:240,2,140,8|0|8
360,312,199758,2,0,B|496:272|496:104|360:56,1,350
144,192,201004,5,8
232,192,201231,2,0,B|376:192,3,140,0|8|0|8
456,192,202138,1,0
248,48,202817,6,0,B|152:168,1,140,8|0
368,304,203706,2,0,B|240:200,1,140,8|0
448,48,204591,6,0,B|496:208,1,140,8|0
488,264,205034,2,0,B|296:224,1,140,8|0
272,216,205476,2,0,B|128:328,1,140,8|0
88,64,206361,5,8
88,64,206582,2,0,B|304:64,1,210,0|8
392,152,207224,5,8
392,152,207438,2,0,B|176:152,1,210,0|8
104,240,208082,5,8
176,280,208296,1,0
248,240,208510,1,8
320,280,208724,1,0
392,240,208939,1,8
464,280,209153,1,0
256,64,209796,5,8
256,64,210010,1,4
40,192,210628,1,8
40,192,210834,1,0
256,320,211452,6,0,B|392:264,1,140,8|0
320,216,211864,2,0,B|184:160,1,140,8|0
256,112,212276,2,0,B|392:56,1,140,8|0
136,48,213100,6,0,B|0:104,1,140,8|0
72,152,213491,2,0,B|208:208,1,140,8|0
136,256,213887,2,0,B|0:312,1,140,8|0
240,360,214680,5,8
320,360,214878,1,0
400,360,215076,1,8
480,360,215274,1,0
480,280,215473,1,8
480,200,215671,1,0
256,192,216463,12,4,222436
